  0
SECTION
  2
HEADER
  9
$ACADVER
  1
AC1015
  9
$ACADMAINTVER
 70
    13
  9
$DWGCODEPAGE
  3
ANSI_1252
  9
$INSBASE
 10
0.0
 20
0.0
 30
0.0
  9
$EXTMIN
 10
-1.788449057979371
 20
-0.9839999999999999
 30
0.0
  9
$EXTMAX
 10
2.312991285571513
 20
2.206314106811028
 30
0.0
  9
$LIMMIN
 10
0.0
 20
0.0
  9
$LIMMAX
 10
12.0
 20
9.0
  9
$ORTHOMODE
 70
     1
  9
$REGENMODE
 70
     1
  9
$FILLMODE
 70
     1
  9
$QTEXTMODE
 70
     0
  9
$MIRRTEXT
 70
     1
  9
$LTSCALE
 40
1.0
  9
$ATTMODE
 70
     1
  9
$TEXTSIZE
 40
0.2
  9
$TRACEWID
 40
0.05
  9
$TEXTSTYLE
  7
STYLE1
  9
$CLAYER
  8
LINE
  9
$CELTYPE
  6
BYLAYER
  9
$CECOLOR
 62
   256
  9
$CELTSCALE
 40
1.0
  9
$DISPSILH
 70
     0
  9
$DIMSCALE
 40
1.0
  9
$DIMASZ
 40
0.12
  9
$DIMEXO
 40
0.0625
  9
$DIMDLI
 40
0.38
  9
$DIMRND
 40
0.0
  9
$DIMDLE
 40
0.0
  9
$DIMEXE
 40
0.0625
  9
$DIMTP
 40
0.0
  9
$DIMTM
 40
0.0
  9
$DIMTXT
 40
0.125
  9
$DIMCEN
 40
0.0
  9
$DIMTSZ
 40
0.0
  9
$DIMTOL
 70
     0
  9
$DIMLIM
 70
     0
  9
$DIMTIH
 70
     0
  9
$DIMTOH
 70
     0
  9
$DIMSE1
 70
     0
  9
$DIMSE2
 70
     0
  9
$DIMTAD
 70
     1
  9
$DIMZIN
 70
     0
  9
$DIMBLK
  1

  9
$DIMASO
 70
     1
  9
$DIMSHO
 70
     1
  9
$DIMPOST
  1

  9
$DIMAPOST
  1

  9
$DIMALT
 70
     0
  9
$DIMALTD
 70
     2
  9
$DIMALTF
 40
25.4
  9
$DIMLFAC
 40
1.0
  9
$DIMTOFL
 70
     1
  9
$DIMTVP
 40
0.0
  9
$DIMTIX
 70
     0
  9
$DIMSOXD
 70
     0
  9
$DIMSAH
 70
     0
  9
$DIMBLK1
  1

  9
$DIMBLK2
  1

  9
$DIMSTYLE
  2
STANDARD
  9
$DIMCLRD
 70
     0
  9
$DIMCLRE
 70
     0
  9
$DIMCLRT
 70
     0
  9
$DIMTFAC
 40
1.0
  9
$DIMGAP
 40
0.05
  9
$DIMJUST
 70
     0
  9
$DIMSD1
 70
     0
  9
$DIMSD2
 70
     0
  9
$DIMTOLJ
 70
     1
  9
$DIMTZIN
 70
     0
  9
$DIMALTZ
 70
     0
  9
$DIMALTTZ
 70
     0
  9
$DIMUPT
 70
     0
  9
$DIMDEC
 70
     3
  9
$DIMTDEC
 70
     3
  9
$DIMALTU
 70
     2
  9
$DIMALTTD
 70
     2
  9
$DIMTXSTY
  7
ROMANS
  9
$DIMAUNIT
 70
     0
  9
$DIMADEC
 70
     0
  9
$DIMALTRND
 40
0.0
  9
$DIMAZIN
 70
     0
  9
$DIMDSEP
 70
    46
  9
$DIMATFIT
 70
     3
  9
$DIMFRAC
 70
     0
  9
$DIMLDRBLK
  1

  9
$DIMLUNIT
 70
     2
  9
$DIMLWD
 70
    -2
  9
$DIMLWE
 70
    -2
  9
$DIMTMOVE
 70
     0
  9
$LUNITS
 70
     2
  9
$LUPREC
 70
     2
  9
$SKETCHINC
 40
0.1
  9
$FILLETRAD
 40
0.0
  9
$AUNITS
 70
     0
  9
$AUPREC
 70
     0
  9
$MENU
  1
acad
  9
$ELEVATION
 40
0.0
  9
$PELEVATION
 40
0.0
  9
$THICKNESS
 40
0.0
  9
$LIMCHECK
 70
     0
  9
$CHAMFERA
 40
0.197
  9
$CHAMFERB
 40
0.197
  9
$CHAMFERC
 40
0.0
  9
$CHAMFERD
 40
0.0
  9
$SKPOLY
 70
     0
  9
$TDCREATE
 40
2452719.395323032
  9
$TDUCREATE
 40
2452719.603656365
  9
$TDUPDATE
 40
2452737.417763877
  9
$TDUUPDATE
 40
2452737.626097210
  9
$TDINDWG
 40
0.0196206829
  9
$TDUSRTIMER
 40
0.0196205671
  9
$USRTIMER
 70
     1
  9
$ANGBASE
 50
0.0
  9
$ANGDIR
 70
     0
  9
$PDMODE
 70
    65
  9
$PDSIZE
 40
-2.0
  9
$PLINEWID
 40
0.0
  9
$SPLFRAME
 70
     0
  9
$SPLINETYPE
 70
     6
  9
$SPLINESEGS
 70
     8
  9
$HANDSEED
  5
C6F
  9
$SURFTAB1
 70
     6
  9
$SURFTAB2
 70
     6
  9
$SURFTYPE
 70
     6
  9
$SURFU
 70
     6
  9
$SURFV
 70
     6
  9
$UCSBASE
  2

  9
$UCSNAME
  2

  9
$UCSORG
 10
0.0
 20
0.0
 30
0.0
  9
$UCSXDIR
 10
1.0
 20
0.0
 30
0.0
  9
$UCSYDIR
 10
0.0
 20
1.0
 30
0.0
  9
$UCSORTHOREF
  2

  9
$UCSORTHOVIEW
 70
     0
  9
$UCSORGTOP
 10
0.0
 20
0.0
 30
0.0
  9
$UCSORGBOTTOM
 10
0.0
 20
0.0
 30
0.0
  9
$UCSORGLEFT
 10
0.0
 20
0.0
 30
0.0
  9
$UCSORGRIGHT
 10
0.0
 20
0.0
 30
0.0
  9
$UCSORGFRONT
 10
0.0
 20
0.0
 30
0.0
  9
$UCSORGBACK
 10
0.0
 20
0.0
 30
0.0
  9
$PUCSBASE
  2

  9
$PUCSNAME
  2

  9
$PUCSORG
 10
0.0
 20
0.0
 30
0.0
  9
$PUCSXDIR
 10
1.0
 20
0.0
 30
0.0
  9
$PUCSYDIR
 10
0.0
 20
1.0
 30
0.0
  9
$PUCSORTHOREF
  2

  9
$PUCSORTHOVIEW
 70
     0
  9
$PUCSORGTOP
 10
0.0
 20
0.0
 30
0.0
  9
$PUCSORGBOTTOM
 10
0.0
 20
0.0
 30
0.0
  9
$PUCSORGLEFT
 10
0.0
 20
0.0
 30
0.0
  9
$PUCSORGRIGHT
 10
0.0
 20
0.0
 30
0.0
  9
$PUCSORGFRONT
 10
0.0
 20
0.0
 30
0.0
  9
$PUCSORGBACK
 10
0.0
 20
0.0
 30
0.0
  9
$USERI1
 70
     0
  9
$USERI2
 70
     0
  9
$USERI3
 70
     0
  9
$USERI4
 70
     0
  9
$USERI5
 70
     0
  9
$USERR1
 40
0.0
  9
$USERR2
 40
0.0
  9
$USERR3
 40
0.0
  9
$USERR4
 40
0.0
  9
$USERR5
 40
0.0
  9
$WORLDVIEW
 70
     1
  9
$SHADEDGE
 70
     3
  9
$SHADEDIF
 70
    70
  9
$TILEMODE
 70
     1
  9
$MAXACTVP
 70
    16
  9
$PINSBASE
 10
0.0
 20
0.0
 30
0.0
  9
$PLIMCHECK
 70
     0
  9
$PEXTMIN
 10
0.0
 20
0.0
 30
0.0
  9
$PEXTMAX
 10
0.0
 20
0.0
 30
0.0
  9
$PLIMMIN
 10
0.0
 20
0.0
  9
$PLIMMAX
 10
12.0
 20
9.0
  9
$UNITMODE
 70
     0
  9
$VISRETAIN
 70
     0
  9
$PLINEGEN
 70
     0
  9
$PSLTSCALE
 70
     1
  9
$TREEDEPTH
 70
  3020
  9
$CMLSTYLE
  2
STANDARD
  9
$CMLJUST
 70
     0
  9
$CMLSCALE
 40
1.0
  9
$PROXYGRAPHICS
 70
     1
  9
$MEASUREMENT
 70
     1
  9
$CELWEIGHT
370
    -1
  9
$ENDCAPS
280
     0
  9
$JOINSTYLE
280
     0
  9
$LWDISPLAY
290
     0
  9
$INSUNITS
 70
     4
  9
$HYPERLINKBASE
  1

  9
$STYLESHEET
  1

  9
$XEDIT
290
     1
  9
$CEPSNTYPE
380
     0
  9
$PSTYLEMODE
290
     1
  9
$FINGERPRINTGUID
  2
{D1A600B4-0B7C-4C98-A56B-7CC634BBC99F}
  9
$VERSIONGUID
  2
{41A1CBE6-A7AF-4778-B6FF-7362BE17E66D}
  9
$EXTNAMES
290
     1
  9
$PSVPSCALE
 40
0.0
  9
$OLESTARTUP
290
     0
  0
ENDSEC
  0
SECTION
  2
CLASSES
  0
CLASS
  1
ACDBDICTIONARYWDFLT
  2
AcDbDictionaryWithDefault
  3
AutoCAD 2000
 90
        0
280
     0
281
     0
  0
CLASS
  1
ACDBPLACEHOLDER
  2
AcDbPlaceHolder
  3
AutoCAD 2000
 90
        0
280
     0
281
     0
  0
CLASS
  1
LAYOUT
  2
AcDbLayout
  3
AutoCAD 2000
 90
        0
280
     0
281
     0
  0
CLASS
  1
DICTIONARYVAR
  2
AcDbDictionaryVar
  3
AutoCAD 2000
 90
        0
280
     0
281
     0
  0
CLASS
  1
ACME_DOCUMENT
  2
AcMeDbDoc
  3
AcMeServices
 90
        0
280
     0
281
     0
  0
CLASS
  1
AMGSETTINGSOBJ
  2
AmgSettingsObj
  3
"AcadM|Product Description: AutoCAD Mechanical 2000|Company: Autodesk"
 90
        0
280
     0
281
     0
  0
CLASS
  1
ACMESCOPE
  2
AcMeScope
  3
AcMeServices
 90
        0
280
     0
281
     0
  0
CLASS
  1
ACMECOMMANDHISTORY
  2
AcMeCommandHistory
  3
AcMeServices
 90
        0
280
     0
281
     0
  0
CLASS
  1
ACIMSYSVARMAN
  2
AcImSysVarManager
  3
AcMeServices
 90
        0
280
     0
281
     0
  0
CLASS
  1
ACIMREALSYSVAR
  2
AcImRealSysVar
  3
AcMeServices
 90
        0
280
     0
281
     0
  0
CLASS
  1
ACIMINTSYSVAR
  2
AcImIntSysVar
  3
AcMeServices
 90
        0
280
     0
281
     0
  0
CLASS
  1
ACMEDRAWINGMAN
  2
AcMeDrawingMan
  3
AcMeServices
 90
        0
280
     0
281
     0
  0
CLASS
  1
ACMEVIEW
  2
AcMeView
  3
AcMeServices
 90
        0
280
     0
281
     0
  0
CLASS
  1
ACDBENTITYCACHE
  2
AcMeEntityCache
  3
AcMeServices
 90
        0
280
     0
281
     0
  0
CLASS
  1
GSMANAGER
  2
AcMeGSManager
  3
AcMeServices
 90
        0
280
     0
281
     0
  0
CLASS
  1
AMDTINTERNALREACTOR
  2
AmdtInternalReactor
  3
AcMeServices
 90
        0
280
     0
281
     0
  0
CLASS
  1
ACMESTATEMGR
  2
AcMeStateMgr
  3
AcMeServices
 90
        0
280
     0
281
     0
  0
CLASS
  1
ACGREFMASTER
  2
AcGrefMaster
  3
AcAttribServices
 90
        0
280
     0
281
     0
  0
CLASS
  1
AM_DRAWING_MGR
  2
AcDmDwgMgr
  3
AcMechDwgViewMgmt
 90
        0
280
     0
281
     0
  0
CLASS
  1
AM_DWG_DOCUMENT
  2
AcDmDwgDocument
  3
AcMechDwgViewMgmt
 90
        0
280
     0
281
     0
  0
CLASS
  1
AM_DWG_SHEET
  2
AcDmSheet
  3
AcMechDwgViewMgmt
 90
        0
280
     0
281
     0
  0
CLASS
  1
AM_VIEWDIMPARMAP
  2
AcDmViewDimParMap
  3
AcMechDwgViewMgmt
 90
        0
280
     0
281
     0
  0
CLASS
  1
AM_DWGMGR_NAME
  2
AcDmDwgMgrName
  3
AcMechDwgViewMgmt
 90
        0
280
     0
281
     0
  0
CLASS
  1
ACME_DATABASE
  2
AcMeDbDatabase
  3
AcMeServices
 90
        0
280
     0
281
     0
  0
CLASS
  1
ACRFINSADJUSTERMGR
  2
AcRfInsAdjusterMgr
  3
AcMeServices
 90
        0
280
     0
281
     0
  0
CLASS
  1
ACGREFACADMASTER
  2
AcGrefacadMaster
  3
AcGrefServices
 90
        0
280
     0
281
     0
  0
CLASS
  1
AMDTMENUSTATEMGR
  2
AmdtMenuStateMgr
  3
McadcomServices
 90
        0
280
     0
281
     0
  0
CLASS
  1
AMDTMCOMMENUSTATE
  2
AmdtMcomMenuState
  3
McadcomServices
 90
        0
280
     0
281
     0
  0
CLASS
  1
AMIMASTER
  2
AmiMaster
  3
AmiServices
 90
        0
280
     0
281
     0
  0
CLASS
  1
ASAPP
  2
AcAsAppObject
  3
AutoSurfServices
 90
        0
280
     0
281
     0
  0
CLASS
  1
IM_STATIC_MAN
  2
AcImStaticVarManager
  3
AcMeServices
 90
        0
280
     0
281
     0
  0
CLASS
  1
ACIMSTRSYSVAR
  2
AcImStrSysVar
  3
AcMeServices
 90
        0
280
     0
281
     0
  0
CLASS
  1
ACIMDBLSTATICVAR
  2
AcImDblStaticVar
  3
AcMeServices
 90
        0
280
     0
281
     0
  0
CLASS
  1
ACIMSTRSTATICVAR
  2
AcImStrStaticVar
  3
AcMeServices
 90
        0
280
     0
281
     0
  0
CLASS
  1
ACIMINTSTATICVAR
  2
AcImIntStaticVar
  3
AcMeServices
 90
        0
280
     0
281
     0
  0
CLASS
  1
ACASGREFMASTER
  2
AcAsGrefMaster
  3
AutoSurfResolverServices
 90
        0
280
     0
281
     0
  0
CLASS
  1
ACADGREFMODULE
  2
AcAdGrefModule
  3
AdGrefServices
 90
        0
280
     0
281
     0
  0
CLASS
  1
AMDTMAPISURFMOUDULE
  2
AmdtMApiSurfModule
  3
MApiSurfServices
 90
        0
280
     0
281
     0
  0
CLASS
  1
MAPIAMMOUDLE
  2
MApiAmModule
  3
MApiAmServices
 90
        0
280
     0
281
     0
  0
CLASS
  1
AMDTADMENUSTATE
  2
AmdtAdMenuState
  3
DesignerServices
 90
        0
280
     0
281
     0
  0
CLASS
  1
ADAPPL
  2
AcAdAppl
  3
DesignerServices
 90
        0
280
     0
281
     0
  0
CLASS
  1
DEPMGR
  2
AcAdDepMgr
  3
DesignerServices
 90
        0
280
     0
281
     0
  0
CLASS
  1
PARAMMGR
  2
AcAdParamMgr
  3
DesignerServices
 90
        0
280
     0
281
     0
  0
CLASS
  1
PARAMSCOPE
  2
AcAdParamScope
  3
DesignerServices
 90
        0
280
     0
281
     0
  0
CLASS
  1
NAMEDAPPL
  2
AcAdNamedAppl
  3
DesignerServices
 90
        0
280
     0
281
     0
  0
CLASS
  1
AMDTDMMENUSTATE
  2
AmdtDmMenuState
  3
AcMechDwgViewMgmt
 90
        0
280
     0
281
     0
  0
CLASS
  1
MAPIADMODULE
  2
MApiAdModule
  3
MApiAdServices
 90
        0
280
     0
281
     0
  0
CLASS
  1
AMDTAMMENUSTATE
  2
AmdtAmMenuState
  3
DesignerAssemblies
 90
        0
280
     0
281
     0
  0
CLASS
  1
ACAMPROJECT
  2
AcAmProject
  3
DesignerAssemblies
 90
        0
280
     0
281
     0
  0
CLASS
  1
ACAMGRCOMPDEF
  2
AcAmGrCompDef
  3
DesignerAssemblies
 90
        0
280
     0
281
     0
  0
CLASS
  1
ACCMCONTEXT
  2
AcCmContext
  3
DesignerAssemblies
 90
        0
280
     0
281
     0
  0
CLASS
  1
ACAMCOMPDEF
  2
AcAmCompDef
  3
DesignerAssemblies
 90
        0
280
     0
281
     0
  0
CLASS
  1
ACAMCOMPDEFMGR
  2
AcAmCompDefMgr
  3
DesignerAssemblies
 90
        0
280
     0
281
     0
  0
CLASS
  1
AMCONTEXTMGR
  2
AcAmContextMgr
  3
DesignerAssemblies
 90
        0
280
     0
281
     0
  0
CLASS
  1
ACAMCONTEXTMODELER
  2
AcAmContextModeler
  3
DesignerAssemblies
 90
        0
280
     0
281
     0
  0
CLASS
  1
ACMDATADICTIONARY
  2
AcmDataDictionary
  3
"AcmSymBB|Product Description: AutoCAD Mechanical 2000|Company: Autodesk"
 90
        0
280
     0
281
     0
  0
CLASS
  1
ACMDATAENTRYBLOCK
  2
AcmDataEntryBlock
  3
"AcmSymBB|Product Description: AutoCAD Mechanical 2000|Company: Autodesk"
 90
        0
280
     0
281
     0
  0
CLASS
  1
CATALOGSTATE
  2
AcAmCatalogState
  3
DesignerAssemblies
 90
        0
280
     0
281
     0
  0
CLASS
  1
ACAMGRCOMPDEFSET
  2
AcAmGrCompDefSet
  3
DesignerAssemblies
 90
        0
280
     0
281
     0
  0
CLASS
  1
AMDTBROWSERDBTAB
  2
AmdtBrowserDbTab
  3
McadcomServices
 90
        0
280
     0
281
     0
  0
CLASS
  1
CBROWSERAPPOBJECT
  2
CBrowserAppObject
  3
McadcomServices
 90
        0
280
     0
281
     0
  0
CLASS
  1
DM_PLACEHOLDER
  2
AcDmSelsetPlaceholder
  3
AcMechDwgViewMgmt
 90
        0
280
     0
281
     0
  0
CLASS
  1
ACMSTANDARDISO
  2
AcmStandardISO
  3
"Amdt_StdImp|Product Description: AutoCAD Mechanical 2000|Company: Autodesk"
 90
        0
280
     0
281
     0
  0
CLASS
  1
AMGOBJPROPCFG
  2
AmgObjPropCfg
  3
"AmgLay|Product Description: AutoCAD Mechanical 2000|Company: Autodesk"
 90
        1
280
     0
281
     0
  0
CLASS
  1
AMDTEDGESTANDARDISO
  2
AmdtEdgeStdISO
  3
"Amdt_StdImp|Product Description: AutoCAD Mechanical 2000|Company: Autodesk"
 90
        0
280
     0
281
     0
  0
CLASS
  1
ACMSURFSTANDARDISO
  2
AcmSurfTextStdISO
  3
"Amdt_StdImp|Product Description: AutoCAD Mechanical 2000|Company: Autodesk"
 90
        0
280
     0
281
     0
  0
CLASS
  1
ACMFCFSTANDARDISO
  2
AcmFCFStdISO
  3
"Amdt_StdImp|Product Description: AutoCAD Mechanical 2000|Company: Autodesk"
 90
        0
280
     0
281
     0
  0
CLASS
  1
ACMWELDSTANDARDISO
  2
AcmWeldingStdISO
  3
"Amdt_StdImp|Product Description: AutoCAD Mechanical 2000|Company: Autodesk"
 90
        0
280
     0
281
     0
  0
CLASS
  1
ACMIDSTANDARDISO
  2
AcmIdStdISO
  3
"Amdt_StdImp|Product Description: AutoCAD Mechanical 2000|Company: Autodesk"
 90
        0
280
     0
281
     0
  0
CLASS
  1
ACMDATUMSTANDARDISO
  2
AcmDatumStdISO
  3
"Amdt_StdImp|Product Description: AutoCAD Mechanical 2000|Company: Autodesk"
 90
        0
280
     0
281
     0
  0
CLASS
  1
ACMBOMSTANDARDISO
  2
AcmBOMStdISO
  3
"Amdt_StdImp|Product Description: AutoCAD Mechanical 2000|Company: Autodesk"
 90
        0
280
     0
281
     0
  0
CLASS
  1
ACMDETAILSTANDARDISO
  2
AmdtDetailSymStdISO
  3
"Amdt_StdImp|Product Description: AutoCAD Mechanical 2000|Company: Autodesk"
 90
        0
280
     0
281
     0
  0
CLASS
  1
ACMSECTIONSTANDARDISO
  2
AmdtSectionSymStdISO
  3
"Amdt_StdImp|Product Description: AutoCAD Mechanical 2000|Company: Autodesk"
 90
        0
280
     0
281
     0
  0
CLASS
  1
ACMCENTERLINESTANDARDISO
  2
AmdtCenterLineStdISO
  3
"Amdt_StdImp|Product Description: AutoCAD Mechanical 2000|Company: Autodesk"
 90
        0
280
     0
281
     0
  0
CLASS
  1
ACMTHREADLINESTANDARDISO
  2
AmdtThreadLineStdISO
  3
"Amdt_StdImp|Product Description: AutoCAD Mechanical 2000|Company: Autodesk"
 90
        0
280
     0
281
     0
  0
CLASS
  1
ACMNOTESTANDARDISO
  2
AmdtNoteStdISO
  3
"Amdt_StdImp|Product Description: AutoCAD Mechanical 2000|Company: Autodesk"
 90
        0
280
     0
281
     0
  0
CLASS
  1
ACAMGLAYSTD
  2
AcAmgLayStd
  3
"AcAmgLayStd|Product Description: AutoCAD Mechanical 2000|Company: Autodesk"
 90
        0
280
     0
281
     0
  0
CLASS
  1
ACAMGDIMSTD
  2
AcAmgDimStd
  3
"AcAmgDimStd|Product Description: AutoCAD Mechanical 2000|Company: Autodesk"
 90
        0
280
     0
281
     0
  0
CLASS
  1
ACAMGHOLECHARTSTDISO
  2
AcAmgHoleChartStdISO
  3
ACMSYMBB_MODULE_NAME
 90
        0
280
     0
281
     0
  0
CLASS
  1
ACAMGTITLESTD
  2
AcAmgTitleStd
  3
"TITLEAPP"
 90
        0
280
     0
281
     0
  0
CLASS
  1
ACMSTANDARDANSI
  2
AcmStandardANSI
  3
"Amdt_StdImp|Product Description: AutoCAD Mechanical 2000|Company: Autodesk"
 90
    32768
280
     0
281
     0
  0
CLASS
  1
ACMSURFSTANDARDANSI
  2
AcmSurfTextStdANSI
  3
"Amdt_StdImp|Product Description: AutoCAD Mechanical 2000|Company: Autodesk"
 90
    32768
280
     0
281
     0
  0
CLASS
  1
ACMFCFSTANDARDANSI
  2
AcmFCFStdANSI
  3
"Amdt_StdImp|Product Description: AutoCAD Mechanical 2000|Company: Autodesk"
 90
    32768
280
     0
281
     0
  0
CLASS
  1
ACMWELDSTANDARDANSI
  2
AcmWeldingStdANSI
  3
"Amdt_StdImp|Product Description: AutoCAD Mechanical 2000|Company: Autodesk"
 90
    32768
280
     0
281
     0
  0
CLASS
  1
ACMIDSTANDARDANSI
  2
AcmIdStdANSI
  3
"Amdt_StdImp|Product Description: AutoCAD Mechanical 2000|Company: Autodesk"
 90
    32768
280
     0
281
     0
  0
CLASS
  1
ACMDATUMSTANDARDANSI
  2
AcmDatumStdANSI
  3
"Amdt_StdImp|Product Description: AutoCAD Mechanical 2000|Company: Autodesk"
 90
    32768
280
     0
281
     0
  0
CLASS
  1
ACMBOMSTANDARDANSI
  2
AcmBOMStdANSI
  3
"Amdt_StdImp|Product Description: AutoCAD Mechanical 2000|Company: Autodesk"
 90
    32768
280
     0
281
     0
  0
CLASS
  1
ACMDETAILSTANDARDANSI
  2
AmdtDetailSymStdANSI
  3
"Amdt_StdImp|Product Description: AutoCAD Mechanical 2000|Company: Autodesk"
 90
    32768
280
     0
281
     0
  0
CLASS
  1
ACMSECTIONSTANDARDANSI
  2
AmdtSectionSymStdANSI
  3
"Amdt_StdImp|Product Description: AutoCAD Mechanical 2000|Company: Autodesk"
 90
    32768
280
     0
281
     0
  0
CLASS
  1
ACMCENTERLINESTANDARDANSI
  2
AmdtCenterLineStdANSI
  3
"Amdt_StdImp|Product Description: AutoCAD Mechanical 2000|Company: Autodesk"
 90
    32768
280
     0
281
     0
  0
CLASS
  1
ACMTHREADLINESTANDARDANSI
  2
AmdtThreadLineStdANSI
  3
"Amdt_StdImp|Product Description: AutoCAD Mechanical 2000|Company: Autodesk"
 90
    32768
280
     0
281
     0
  0
CLASS
  1
ACMNOTESTANDARDANSI
  2
AmdtNoteStdANSI
  3
"Amdt_StdImp|Product Description: AutoCAD Mechanical 2000|Company: Autodesk"
 90
    32768
280
     0
281
     0
  0
CLASS
  1
ACAMGHOLECHARTSTDANSI
  2
AcAmgHoleChartStdANSI
  3
ACMSYMBB_MODULE_NAME
 90
    32768
280
     0
281
     0
  0
CLASS
  1
LAYER_INDEX
  2
AcDbLayerIndex
  3
AutoCAD 2000
 90
        0
280
     0
281
     0
  0
CLASS
  1
IDBUFFER
  2
AcDbIdBuffer
  3
AutoCAD 2000
 90
        0
280
     0
281
     0
  0
CLASS
  1
ACAMGFILTERDAT
  2
AcAmgFilterDat
  3
"AcadM|Product Description: AutoCAD Mechanical 2000|Company: Autodesk"
 90
        0
280
     0
281
     0
  0
CLASS
  1
AMDTFORMULAUPDATEDISPATCHER
  2
AmdtFormulaUpdateDispatcher
  3
AcMeServices
 90
        0
280
     0
281
     0
  0
ENDSEC
  0
SECTION
  2
TABLES
  0
TABLE
  2
VPORT
  5
8
330
0
100
AcDbSymbolTable
 70
     3
  0
VPORT
  5
C6E
330
8
100
AcDbSymbolTableRecord
100
AcDbViewportTableRecord
  2
*Active
 70
     0
 10
0.0
 20
0.0
 11
1.0
 21
1.0
 12
0.0
 22
0.0
 13
0.0
 23
0.0
 14
1.0
 24
1.0
 15
0.0
 25
0.0
 16
0.0
 26
0.0
 36
1.0
 17
0.2624817762433319
 27
0.6111152536663199
 37
0.0
 40
3.227030835870171
 41
1.625
 42
50.0
 43
0.0
 44
0.0
 50
0.0
 51
0.0
 71
     0
 72
  1000
 73
     1
 74
     0
 75
     0
 76
     0
 77
     0
 78
     0
281
     0
 65
     0
110
0.0
120
0.0
130
0.0
111
1.0
121
0.0
131
0.0
112
0.0
122
1.0
132
0.0
 79
     0
146
0.0
  0
ENDTAB
  0
TABLE
  2
LTYPE
  5
5
330
0
100
AcDbSymbolTable
 70
    16
  0
LTYPE
  5
14
330
5
100
AcDbSymbolTableRecord
100
AcDbLinetypeTableRecord
  2
BYBLOCK
 70
     0
  3

 72
    65
 73
     0
 40
0.0
  0
LTYPE
  5
15
330
5
100
AcDbSymbolTableRecord
100
AcDbLinetypeTableRecord
  2
BYLAYER
 70
     0
  3

 72
    65
 73
     0
 40
0.0
  0
LTYPE
  5
16
330
5
100
AcDbSymbolTableRecord
100
AcDbLinetypeTableRecord
  2
CONTINUOUS
 70
     0
  3
Solid line
 72
    65
 73
     0
 40
0.0
  0
LTYPE
  5
28
330
5
100
AcDbSymbolTableRecord
100
AcDbLinetypeTableRecord
  2
HIDDEN
 70
     0
  3
__ __ __ __ __ __ __ __ __ __ __ __ __ __ __ __
 72
    65
 73
     2
 40
0.375
 49
0.25
 74
     0
 49
-0.125
 74
     0
  0
LTYPE
  5
C5
330
5
100
AcDbSymbolTableRecord
100
AcDbLinetypeTableRecord
  2
CENTER
 70
     0
  3
____ _ ____ _ ____ _ ____ _ ____ _ ____ _ ____
 72
    65
 73
     4
 40
2.0
 49
1.25
 74
     0
 49
-0.25
 74
     0
 49
0.25
 74
     0
 49
-0.25
 74
     0
  0
LTYPE
  5
34B
330
5
100
AcDbSymbolTableRecord
100
AcDbLinetypeTableRecord
  2
PHANTOM2
 70
     0
  3
Phantom (.5x) ___ _ _ ___ _ _ ___ _ _ ___ _ _
 72
    65
 73
     6
 40
31.75
 49
15.875
 74
     0
 49
-3.174999999999998
 74
     0
 49
3.174999999999998
 74
     0
 49
-3.174999999999998
 74
     0
 49
3.174999999999998
 74
     0
 49
-3.174999999999998
 74
     0
  0
LTYPE
  5
3F2
330
5
100
AcDbSymbolTableRecord
100
AcDbLinetypeTableRecord
  2
AM_ISO02W050
 70
     0
  3
__ __ __ __ __ __ __ __ __ __ __ __ __ __ __
 72
    65
 73
     2
 40
7.5
 49
6.0
 74
     0
 49
-1.5
 74
     0
  0
LTYPE
  5
3F3
330
5
100
AcDbSymbolTableRecord
100
AcDbLinetypeTableRecord
  2
AM_ISO08W050
 70
     0
  3
____ . ____ . ____ . ____ . ____ . ____ . ____
 72
    65
 73
     4
 40
18.0
 49
12.0
 74
     0
 49
-1.5
 74
     0
 49
3.0
 74
     0
 49
-1.5
 74
     0
  0
LTYPE
  5
3F4
330
5
100
AcDbSymbolTableRecord
100
AcDbLinetypeTableRecord
  2
AM_ISO09W050
 70
     0
  3
_____ . . _____ . . _____ . . ____ .. ____
 72
    65
 73
     6
 40
22.5
 49
12.0
 74
     0
 49
-1.5
 74
     0
 49
3.0
 74
     0
 49
-1.5
 74
     0
 49
3.0
 74
     0
 49
-1.5
 74
     0
  0
LTYPE
  5
3F5
330
5
100
AcDbSymbolTableRecord
100
AcDbLinetypeTableRecord
  2
Amconstr
 70
     0
  3
_______________________
 72
    65
 73
     2
 40
9999.0
 49
9999.0
 74
     0
 49
0.0
 74
     0
  0
LTYPE
  5
3F6
330
5
100
AcDbSymbolTableRecord
100
AcDbLinetypeTableRecord
  2
AM_ISO08W050x2
 70
     0
  3
__ . __ . __ . __ . __ . __
 72
    65
 73
     4
 40
9.0
 49
6.0
 74
     0
 49
-0.75
 74
     0
 49
1.5
 74
     0
 49
-0.75
 74
     0
  0
LTYPE
  5
3F7
330
5
100
AcDbSymbolTableRecord
100
AcDbLinetypeTableRecord
  2
AM_ISO02W050x2
 70
     0
  3
 _ _ _ _ _ _ _ _ _ _ _ _
 72
    65
 73
     2
 40
3.75
 49
3.0
 74
     0
 49
-0.75
 74
     0
  0
LTYPE
  5
3FA
330
5
100
AcDbSymbolTableRecord
100
AcDbLinetypeTableRecord
  2
Amzigzag
 70
     0
  3
/\/-/\/-/\/-/\/-/\/-/\/
 72
    65
 73
     2
 40
11.00009999999999
 49
0.0001
 74
     4
 75
   135
340
3F9
 46
0.04
 50
0.0
 44
0.0
 45
0.0
 49
-11.0
 74
     0
  0
LTYPE
  5
409
330
5
100
AcDbSymbolTableRecord
100
AcDbLinetypeTableRecord
  2
ACISOWELD
 70
     0
  3
_ _ _ _ _
 72
    65
 73
     2
 40
2.0
 49
2.0
 74
     0
 49
-1.0
 74
     0
  0
LTYPE
  5
40A
330
5
100
AcDbSymbolTableRecord
100
AcDbLinetypeTableRecord
  2
ACISOTGB
 70
     0
  3
__ . . __ . .
 72
    65
 73
     6
 40
9.0
 49
4.0
 74
     0
 49
-1.0
 74
     0
 49
1.0
 74
     0
 49
-1.0
 74
     0
 49
1.0
 74
     0
 49
-1.0
 74
     0
  0
LTYPE
  5
40B
330
5
100
AcDbSymbolTableRecord
100
AcDbLinetypeTableRecord
  2
ACISOTGL
 70
     0
  3
_ _ _ _ _
 72
    65
 73
     2
 40
3.0
 49
2.0
 74
     0
 49
-1.0
 74
     0
  0
LTYPE
  5
A68
330
5
100
AcDbSymbolTableRecord
100
AcDbLinetypeTableRecord
  2
ASULTYPE
 70
     0
  3
Solid line
 72
    65
 73
     2
 40
3.0
 49
2.5
 74
     0
 49
0.5
 74
     0
  0
LTYPE
  5
A69
330
5
100
AcDbSymbolTableRecord
100
AcDbLinetypeTableRecord
  2
ASVLTYPE
 70
     0
  3
__ __ __ __ __ __ __ __ __ __ __ __ __ __ __ __ __ __ __ __ __
 72
    65
 73
     2
 40
0.75
 49
0.5
 74
     0
 49
-0.25
 74
     0
  0
ENDTAB
  0
TABLE
  2
LAYER
  5
2
330
0
100
AcDbSymbolTable
 70
     7
  0
LAYER
  5
F
330
2
100
AcDbSymbolTableRecord
100
AcDbLayerTableRecord
  2
0
 70
     0
 62
     7
  6
CONTINUOUS
370
    -3
390
316
  0
LAYER
  5
4CA
330
2
100
AcDbSymbolTableRecord
100
AcDbLayerTableRecord
  2
LINE
 70
     0
 62
     3
  6
CONTINUOUS
370
    -3
390
316
  0
LAYER
  5
4CB
330
2
100
AcDbSymbolTableRecord
100
AcDbLayerTableRecord
  2
HIDDEN
 70
     0
 62
     2
  6
HIDDEN
370
    -3
390
316
  0
LAYER
  5
4CC
330
2
100
AcDbSymbolTableRecord
100
AcDbLayerTableRecord
  2
DIM
 70
     0
 62
     7
  6
CONTINUOUS
370
    -3
390
316
  0
LAYER
  5
4CF
330
2
100
AcDbSymbolTableRecord
100
AcDbLayerTableRecord
  2
CTRL
 70
     0
 62
     1
  6
CENTER
370
    -3
390
316
  0
LAYER
  5
5CF
330
2
100
AcDbSymbolTableRecord
100
AcDbLayerTableRecord
  2
KA
 70
     0
 62
     3
  6
CONTINUOUS
370
    -3
390
316
  0
LAYER
  5
674
330
2
100
AcDbSymbolTableRecord
100
AcDbLayerTableRecord
  2
Defpoints
 70
     0
 62
     7
  6
CONTINUOUS
290
     0
370
    -3
390
316
  0
ENDTAB
  0
TABLE
  2
STYLE
  5
3
330
0
100
AcDbSymbolTable
 70
     6
  0
STYLE
  5
10
330
3
100
AcDbSymbolTableRecord
100
AcDbTextStyleTableRecord
  2
STANDARD
 70
     0
 40
0.0
 41
1.0
 50
0.0
 71
     0
 42
0.2
  3
ROMANS.SHX
  4

  0
STYLE
  5
1CA
330
3
100
AcDbSymbolTableRecord
100
AcDbTextStyleTableRecord
  2
ROMANS
 70
     0
 40
0.0
 41
1.0
 50
0.0
 71
     0
 42
0.24
  3
romans
  4

  0
STYLE
  5
28B
330
3
100
AcDbSymbolTableRecord
100
AcDbTextStyleTableRecord
  2
STYLE1
 70
     0
 40
0.0
 41
1.0
 50
0.0
 71
     0
 42
0.2
  3
romans.shx
  4

  0
STYLE
  5
3F9
330
3
100
AcDbSymbolTableRecord
100
AcDbTextStyleTableRecord
  2

 70
     1
 40
0.0
 41
1.0
 50
0.0
 71
     0
 42
0.2
  3
ltypeshp.shx
  4

  0
STYLE
  5
3FB
330
3
100
AcDbSymbolTableRecord
100
AcDbTextStyleTableRecord
  2
ACISOTS
 70
     0
 40
1.0
 41
1.0
 50
0.0
 71
     0
 42
0.2
  3
isocp.shx
  4

  0
STYLE
  5
408
330
3
100
AcDbSymbolTableRecord
100
AcDbTextStyleTableRecord
  2
ACISOGDT
 70
     0
 40
0.0
 41
1.0
 50
0.0
 71
     0
 42
0.2
  3
amgdt.shx
  4

  0
ENDTAB
  0
TABLE
  2
VIEW
  5
6
330
0
100
AcDbSymbolTable
 70
     0
  0
ENDTAB
  0
TABLE
  2
UCS
  5
7
330
0
100
AcDbSymbolTable
 70
     0
  0
ENDTAB
  0
TABLE
  2
APPID
  5
9
330
0
100
AcDbSymbolTable
 70
    16
  0
APPID
  5
11
330
9
100
AcDbSymbolTableRecord
100
AcDbRegAppTableRecord
  2
ACAD
 70
     0
  0
APPID
  5
329
330
9
100
AcDbSymbolTableRecord
100
AcDbRegAppTableRecord
  2
GENIUS_GENDIM_13
 70
     0
  0
APPID
  5
32A
330
9
100
AcDbSymbolTableRecord
100
AcDbRegAppTableRecord
  2
GENIUS_GENDTOL_13
 70
     0
  0
APPID
  5
32B
330
9
100
AcDbSymbolTableRecord
100
AcDbRegAppTableRecord
  2
GENIUS_GE3DTOL_13
 70
     0
  0
APPID
  5
32E
330
9
100
AcDbSymbolTableRecord
100
AcDbRegAppTableRecord
  2
MCAD_NO_VIS
 70
     0
  0
APPID
  5
32F
330
9
100
AcDbSymbolTableRecord
100
AcDbRegAppTableRecord
  2
ACAD_TEMP_GRAPHIC
 70
     0
  0
APPID
  5
360
330
9
100
AcDbSymbolTableRecord
100
AcDbRegAppTableRecord
  2
AD_DRAW
 70
     0
  0
APPID
  5
363
330
9
100
AcDbSymbolTableRecord
100
AcDbRegAppTableRecord
  2
ACATTRIBSERVICES
 70
     0
  0
APPID
  5
3AF
330
9
100
AcDbSymbolTableRecord
100
AcDbRegAppTableRecord
  2
ASURF_PCURVE_APPNAME
 70
     0
  0
APPID
  5
3B4
330
9
100
AcDbSymbolTableRecord
100
AcDbRegAppTableRecord
  2
AMG_3D2D_5.0
 70
     0
  0
APPID
  5
3DF
330
9
100
AcDbSymbolTableRecord
100
AcDbRegAppTableRecord
  2
DESIGNERASSEMBLIES
 70
     0
  0
APPID
  5
3E7
330
9
100
AcDbSymbolTableRecord
100
AcDbRegAppTableRecord
  2
ACADM_DIM_EDIT
 70
     0
  0
APPID
  5
3E8
330
9
100
AcDbSymbolTableRecord
100
AcDbRegAppTableRecord
  2
AMDT_DM_ADJ
 70
     0
  0
APPID
  5
62F
330
9
100
AcDbSymbolTableRecord
100
AcDbRegAppTableRecord
  2
GENIUS_GENFIL_13
 70
     0
  0
APPID
  5
630
330
9
100
AcDbSymbolTableRecord
100
AcDbRegAppTableRecord
  2
GENIUS_GENOBJ-N-CHA_13
 70
     0
  0
APPID
  5
631
330
9
100
AcDbSymbolTableRecord
100
AcDbRegAppTableRecord
  2
GENIUS_GENODEF_13
 70
     0
  0
ENDTAB
  0
TABLE
  2
DIMSTYLE
  5
A
330
0
100
AcDbSymbolTable
 70
     8
100
AcDbDimStyleTable
 71
     1
340
1D
  0
DIMSTYLE
105
1D
102
{ACAD_REACTORS
330
673
330
681
330
698
330
6B7
330
812
102
}
330
A
100
AcDbSymbolTableRecord
100
AcDbDimStyleTableRecord
  2
STANDARD
 70
     0
 41
0.12
 44
0.0625
 73
     0
 74
     0
 77
     1
140
0.125
141
0.0
147
0.05
172
     1
271
     3
272
     3
340
1CA
  0
DIMSTYLE
105
40F
330
A
100
AcDbSymbolTableRecord
100
AcDbDimStyleTableRecord
  2
AM_ISO
 70
     0
  4
"
 41
2.5
 42
1.0
 43
10.0
 44
1.0
 47
0.1
 48
0.1
 73
     0
 74
     0
 77
     1
 78
     8
 79
     2
140
3.5
141
0.0
143
0.0393701
146
0.71
147
1.5
172
     1
176
   256
177
   256
178
     2
271
     2
272
     3
274
     4
283
     0
284
     8
340
10
371
    -1
372
    -1
  0
DIMSTYLE
105
410
330
A
100
AcDbSymbolTableRecord
100
AcDbDimStyleTableRecord
  2
AM_ISO$3
 70
     0
  4
"
 41
2.5
 42
1.0
 43
10.0
 44
1.0
 47
0.1
 48
0.1
 73
     0
 77
     1
 78
     8
 79
     2
140
3.5
141
0.0
143
0.0393701
146
0.71
147
1.5
176
   256
177
   256
178
     2
271
     2
272
     3
274
     4
283
     0
284
     8
288
     1
289
     0
340
10
371
    -1
372
    -1
  0
DIMSTYLE
105
411
330
A
100
AcDbSymbolTableRecord
100
AcDbDimStyleTableRecord
  2
AM_ISO$4
 70
     0
  4
"
 41
2.5
 42
1.0
 43
10.0
 44
1.0
 47
0.1
 48
0.1
 73
     0
 77
     1
 78
     8
 79
     2
140
3.5
141
0.0
143
0.0393701
146
0.71
147
1.5
176
   256
177
   256
178
     2
271
     2
272
     3
274
     4
283
     0
284
     8
288
     1
289
     0
340
10
371
    -1
372
    -1
  0
DIMSTYLE
105
412
330
A
100
AcDbSymbolTableRecord
100
AcDbDimStyleTableRecord
  2
AM_ISO$6
 70
     0
  4
"
 41
2.5
 42
1.0
 43
10.0
 44
1.0
 47
0.1
 48
0.1
 73
     0
 74
     0
 78
     8
 79
     2
140
3.5
141
0.0
143
0.0393701
146
0.71
147
1.5
172
     1
176
   256
177
   256
178
     2
271
     2
272
     3
274
     4
283
     0
284
     8
340
10
371
    -1
372
    -1
  0
DIMSTYLE
105
413
330
A
100
AcDbSymbolTableRecord
100
AcDbDimStyleTableRecord
  2
AM_ISO$7
 70
     0
  4
"
 41
2.5
 42
1.0
 43
10.0
 44
1.0
 47
0.1
 48
0.1
 73
     0
 74
     0
 77
     1
 78
     8
 79
     2
140
5.0
141
0.0
143
0.0393701
146
0.71
147
1.5
172
     1
176
   256
177
   256
178
     2
271
     2
272
     3
274
     4
283
     0
284
     8
340
10
371
    -1
372
    -1
  0
DIMSTYLE
105
414
330
A
100
AcDbSymbolTableRecord
100
AcDbDimStyleTableRecord
  2
AM_ISO$SF
 70
     0
  4
"
 41
2.5
 42
1.0
 43
10.0
 44
1.0
 47
0.1
 48
0.1
 73
     0
 74
     0
 75
     1
 76
     1
 77
     1
 78
     8
 79
     2
140
3.5
141
0.0
143
0.0393701
146
0.71
147
1.5
172
     1
176
   256
177
   256
178
     2
271
     2
272
     3
274
     4
283
     0
284
     8
340
10
371
    -1
372
    -1
  0
DIMSTYLE
105
419
330
A
100
AcDbSymbolTableRecord
100
AcDbDimStyleTableRecord
  2
AM_ISO$SH
 70
     0
  4
"
 41
2.5
 42
1.0
 43
10.0
 44
1.0
 47
0.1
 48
0.1
 73
     0
 74
     0
 75
     1
 76
     1
 77
     1
 78
     8
 79
     2
140
3.5
141
0.0
143
0.0393701
144
2.0
146
0.71
147
1.5
172
     1
173
     1
176
   256
177
   256
178
     2
271
     2
272
     3
274
     4
283
     0
284
     8
340
10
341
415
343
415
371
    -1
372
    -1
  0
ENDTAB
  0
TABLE
  2
BLOCK_RECORD
  5
1
330
0
100
AcDbSymbolTable
 70
    10
  0
BLOCK_RECORD
  5
1A
102
{ACAD_XDICTIONARY
360
43F
102
}
330
1
100
AcDbSymbolTableRecord
100
AcDbBlockTableRecord
  2
*MODEL_SPACE
340
319
  0
BLOCK_RECORD
  5
4B0
330
1
100
AcDbSymbolTableRecord
100
AcDbBlockTableRecord
  2
*Paper_Space
340
4B1
  0
BLOCK_RECORD
  5
415
330
1
100
AcDbSymbolTableRecord
100
AcDbBlockTableRecord
  2
GENAXEH
340
0
  0
BLOCK_RECORD
  5
675
330
1
100
AcDbSymbolTableRecord
100
AcDbBlockTableRecord
  2
*D1
340
0
  0
BLOCK_RECORD
  5
682
330
1
100
AcDbSymbolTableRecord
100
AcDbBlockTableRecord
  2
*D2
340
0
  0
BLOCK_RECORD
  5
699
330
1
100
AcDbSymbolTableRecord
100
AcDbBlockTableRecord
  2
*D3
340
0
  0
BLOCK_RECORD
  5
6B8
330
1
100
AcDbSymbolTableRecord
100
AcDbBlockTableRecord
  2
*D4
340
0
  0
BLOCK_RECORD
  5
813
330
1
100
AcDbSymbolTableRecord
100
AcDbBlockTableRecord
  2
*D5
340
0
  0
BLOCK_RECORD
  5
9B6
330
1
100
AcDbSymbolTableRecord
100
AcDbBlockTableRecord
  2
*U6
340
0
  0
BLOCK_RECORD
  5
A91
330
1
100
AcDbSymbolTableRecord
100
AcDbBlockTableRecord
  2
*U7
340
0
  0
BLOCK_RECORD
  5
B69
330
1
100
AcDbSymbolTableRecord
100
AcDbBlockTableRecord
  2
*U8
340
0
  0
BLOCK_RECORD
  5
C44
330
1
100
AcDbSymbolTableRecord
100
AcDbBlockTableRecord
  2
*U9
340
0
  0
ENDTAB
  0
ENDSEC
  0
SECTION
  2
BLOCKS
  0
BLOCK
  5
1B
330
1A
100
AcDbEntity
  8
0
100
AcDbBlockBegin
  2
*MODEL_SPACE
 70
     0
 10
0.0
 20
0.0
 30
0.0
  3
*MODEL_SPACE
  1

  0
ENDBLK
  5
1C
330
1A
100
AcDbEntity
  8
0
100
AcDbBlockEnd
  0
BLOCK
  5
4B2
330
4B0
100
AcDbEntity
 67
     1
  8
0
100
AcDbBlockBegin
  2
*Paper_Space
 70
     0
 10
0.0
 20
0.0
 30
0.0
  3
*Paper_Space
  1

  0
ENDBLK
  5
4B3
330
4B0
100
AcDbEntity
 67
     1
  8
0
100
AcDbBlockEnd
  0
BLOCK
  5
417
330
415
100
AcDbEntity
  8
0
100
AcDbBlockBegin
  2
GENAXEH
 70
     0
 10
0.0
 20
0.0
 30
0.0
  3
GENAXEH
  1

  0
LINE
  5
416
330
415
100
AcDbEntity
  8
0
100
AcDbLine
 10
-1.0
 20
0.0
 30
0.0
 11
1.0
 21
0.0
 31
0.0
  0
ENDBLK
  5
418
330
415
100
AcDbEntity
  8
0
100
AcDbBlockEnd
  0
BLOCK
  5
67F
330
675
100
AcDbEntity
  8
0
100
AcDbBlockBegin
  2
*D1
 70
     1
 10
0.0
 20
0.0
 30
0.0
  3
*D1
  1

  0
LINE
  5
730
330
675
100
AcDbEntity
  8
DIM
 62
     0
370
    -2
100
AcDbLine
 10
0.0000000000000001
 20
1.007129999999996
 30
0.0
 11
0.0000000000000001
 21
1.807483902964633
 31
0.0
  0
LINE
  5
731
330
675
100
AcDbEntity
  8
DIM
 62
     0
370
    -2
100
AcDbLine
 10
1.181
 20
0.633
 30
0.0
 11
1.181
 21
1.807483902964633
 31
0.0
  0
LINE
  5
732
330
675
100
AcDbEntity
  8
DIM
 62
     0
370
    -2
100
AcDbLine
 10
0.1200000000000001
 20
1.744983902964633
 30
0.0
 11
1.060999999999999
 21
1.744983902964633
 31
0.0
  0
SOLID
  5
733
330
675
100
AcDbEntity
  8
DIM
 62
     0
100
AcDbTrace
 10
0.1200000000000001
 20
1.764983902964629
 30
0.0
 11
0.1200000000000001
 21
1.724983902964634
 31
0.0
 12
0.0000000000000001
 22
1.744983902964633
 32
0.0
 13
0.0000000000000001
 23
1.744983902964633
 33
0.0
  0
SOLID
  5
734
330
675
100
AcDbEntity
  8
DIM
 62
     0
100
AcDbTrace
 10
1.060999999999999
 20
1.764983902964629
 30
0.0
 11
1.060999999999999
 21
1.724983902964634
 31
0.0
 12
1.181
 22
1.744983902964633
 32
0.0
 13
1.181
 23
1.744983902964633
 33
0.0
  0
MTEXT
  5
735
330
675
100
AcDbEntity
  8
DIM
 62
     0
100
AcDbMText
 10
0.5905000000000003
 20
1.857483902964633
 30
0.0
 40
0.125
 41
0.0
 71
     5
 72
     1
  1
\A1;1.181
  7
ROMANS
 73
     1
 44
1.0
  0
POINT
  5
736
330
675
100
AcDbEntity
  8
Defpoints
 62
     0
100
AcDbPoint
 10
0.0000000000000001
 20
0.9446299999999999
 30
0.0
  0
POINT
  5
737
330
675
100
AcDbEntity
  8
Defpoints
 62
     0
100
AcDbPoint
 10
1.181
 20
0.5705
 30
0.0
  0
POINT
  5
738
330
675
100
AcDbEntity
  8
Defpoints
 62
     0
100
AcDbPoint
 10
1.181
 20
1.744983902964633
 30
0.0
  0
ENDBLK
  5
680
330
675
100
AcDbEntity
  8
0
100
AcDbBlockEnd
  0
BLOCK
  5
68C
330
682
100
AcDbEntity
  8
0
100
AcDbBlockBegin
  2
*D2
 70
     1
 10
0.0
 20
0.0
 30
0.0
  3
*D2
  1

  0
LINE
  5
726
330
682
100
AcDbEntity
  8
DIM
 62
     0
370
    -2
100
AcDbLine
 10
0.9678700000000002
 20
0.7674999999999999
 30
0.0
 11
2.312991285571513
 21
0.7674999999999993
 31
0.0
  0
LINE
  5
727
330
682
100
AcDbEntity
  8
DIM
 62
     0
370
    -2
100
AcDbLine
 10
0.9678700000000002
 20
-0.7674999999999971
 30
0.0
 11
2.312991285571513
 21
-0.7674999999999975
 31
0.0
  0
LINE
  5
728
330
682
100
AcDbEntity
  8
DIM
 62
     0
370
    -2
100
AcDbLine
 10
2.250491285571513
 20
0.6474999999999993
 30
0.0
 11
2.250491285571513
 21
-0.6474999999999975
 31
0.0
  0
SOLID
  5
729
330
682
100
AcDbEntity
  8
DIM
 62
     0
100
AcDbTrace
 10
2.230491285571513
 20
0.6474999999999996
 30
0.0
 11
2.270491285571513
 21
0.6474999999999993
 31
0.0
 12
2.250491285571513
 22
0.7674999999999993
 32
0.0
 13
2.250491285571513
 23
0.7674999999999993
 33
0.0
  0
SOLID
  5
72A
330
682
100
AcDbEntity
  8
DIM
 62
     0
100
AcDbTrace
 10
2.230491285571513
 20
-0.6474999999999974
 30
0.0
 11
2.270491285571513
 21
-0.6474999999999975
 31
0.0
 12
2.250491285571513
 22
-0.7674999999999975
 32
0.0
 13
2.250491285571513
 23
-0.7674999999999975
 33
0.0
  0
MTEXT
  5
72B
330
682
100
AcDbEntity
  8
DIM
 62
     0
100
AcDbMText
 10
2.137991285571513
 20
0.0000000000000013
 30
0.0
 40
0.125
 41
0.0
 71
     5
 72
     1
  1
\A1;%%c1.535
  7
ROMANS
 11
0.0000000000000001
 21
1.0
 31
0.0
 73
     1
 44
1.0
  0
POINT
  5
72C
330
682
100
AcDbEntity
  8
Defpoints
 62
     0
100
AcDbPoint
 10
0.9053700000000002
 20
0.7674999999999999
 30
0.0
  0
POINT
  5
72D
330
682
100
AcDbEntity
  8
Defpoints
 62
     0
100
AcDbPoint
 10
0.9053700000000002
 20
-0.7674999999999971
 30
0.0
  0
POINT
  5
72E
330
682
100
AcDbEntity
  8
Defpoints
 62
     0
100
AcDbPoint
 10
2.250491285571513
 20
-0.7674999999999975
 30
0.0
  0
ENDBLK
  5
68D
330
682
100
AcDbEntity
  8
0
100
AcDbBlockEnd
  0
BLOCK
  5
6A3
330
699
100
AcDbEntity
  8
0
100
AcDbBlockBegin
  2
*D3
 70
     1
 10
0.0
 20
0.0
 30
0.0
  3
*D3
  1

  0
LINE
  5
6AE
330
699
100
AcDbEntity
  8
DIM
 62
     0
370
    -2
100
AcDbLine
 10
-0.0231299999999999
 20
0.9839999999999999
 30
0.0
 11
-1.67594905797937
 21
0.9840000000000003
 31
0.0
  0
LINE
  5
6AF
330
699
100
AcDbEntity
  8
DIM
 62
     0
370
    -2
100
AcDbLine
 10
-0.0231300000000002
 20
-0.9839999999999999
 30
0.0
 11
-1.67594905797937
 21
-0.9839999999999996
 31
0.0
  0
LINE
  5
6B0
330
699
100
AcDbEntity
  8
DIM
 62
     0
370
    -2
100
AcDbLine
 10
-1.61344905797937
 20
0.8640000000000005
 30
0.0
 11
-1.61344905797937
 21
-0.8639999999999997
 31
0.0
  0
SOLID
  5
6B1
330
699
100
AcDbEntity
  8
DIM
 62
     0
100
AcDbTrace
 10
-1.633449057979371
 20
0.8640000000000005
 30
0.0
 11
-1.593449057979371
 21
0.8640000000000005
 31
0.0
 12
-1.61344905797937
 22
0.9840000000000003
 32
0.0
 13
-1.61344905797937
 23
0.9840000000000003
 33
0.0
  0
SOLID
  5
6B2
330
699
100
AcDbEntity
  8
DIM
 62
     0
100
AcDbTrace
 10
-1.633449057979373
 20
-0.8639999999999997
 30
0.0
 11
-1.593449057979371
 21
-0.8639999999999997
 31
0.0
 12
-1.61344905797937
 22
-0.9839999999999996
 32
0.0
 13
-1.61344905797937
 23
-0.9839999999999996
 33
0.0
  0
MTEXT
  5
6B3
330
699
100
AcDbEntity
  8
DIM
 62
     0
100
AcDbMText
 10
-1.725949057979371
 20
0.0000000000000002
 30
0.0
 40
0.125
 41
0.0
 71
     5
 72
     1
  1
\A1;%%c1.968
  7
ROMANS
 11
0.0000000000000001
 21
1.0
 31
0.0
 73
     1
 44
1.0
  0
POINT
  5
6B4
330
699
100
AcDbEntity
  8
Defpoints
 62
     0
100
AcDbPoint
 10
0.0393700000000001
 20
0.9839999999999999
 30
0.0
  0
POINT
  5
6B5
330
699
100
AcDbEntity
  8
Defpoints
 62
     0
100
AcDbPoint
 10
0.0393699999999998
 20
-0.9839999999999999
 30
0.0
  0
POINT
  5
6B6
330
699
100
AcDbEntity
  8
Defpoints
 62
     0
100
AcDbPoint
 10
-1.61344905797937
 20
-0.9839999999999996
 30
0.0
  0
ENDBLK
  5
6A4
330
699
100
AcDbEntity
  8
0
100
AcDbBlockEnd
  0
BLOCK
  5
6C2
330
6B8
100
AcDbEntity
  8
0
100
AcDbBlockBegin
  2
*D4
 70
     1
 10
0.0
 20
0.0
 30
0.0
  3
*D4
  1

  0
LINE
  5
70E
330
6B8
100
AcDbEntity
  8
DIM
 62
     0
370
    -2
100
AcDbLine
 10
0.9678700000000002
 20
0.3739999999999997
 30
0.0
 11
1.984921437671289
 21
0.3739999999999996
 31
0.0
  0
LINE
  5
70F
330
6B8
100
AcDbEntity
  8
DIM
 62
     0
370
    -2
100
AcDbLine
 10
0.9285
 20
-0.3740000000000001
 30
0.0
 11
1.984921437671289
 21
-0.3740000000000004
 31
0.0
  0
LINE
  5
710
330
6B8
100
AcDbEntity
  8
DIM
 62
     0
370
    -2
100
AcDbLine
 10
1.922421437671289
 20
0.2539999999999996
 30
0.0
 11
1.922421437671289
 21
-0.2540000000000004
 31
0.0
  0
SOLID
  5
711
330
6B8
100
AcDbEntity
  8
DIM
 62
     0
100
AcDbTrace
 10
1.902421437671289
 20
0.2539999999999996
 30
0.0
 11
1.942421437671289
 21
0.2539999999999996
 31
0.0
 12
1.922421437671289
 22
0.3739999999999996
 32
0.0
 13
1.922421437671289
 23
0.3739999999999996
 33
0.0
  0
SOLID
  5
712
330
6B8
100
AcDbEntity
  8
DIM
 62
     0
100
AcDbTrace
 10
1.902421437671289
 20
-0.2540000000000004
 30
0.0
 11
1.942421437671289
 21
-0.2540000000000004
 31
0.0
 12
1.922421437671289
 22
-0.3740000000000004
 32
0.0
 13
1.922421437671289
 23
-0.3740000000000004
 33
0.0
  0
MTEXT
  5
713
330
6B8
100
AcDbEntity
  8
DIM
 62
     0
100
AcDbMText
 10
1.809921437671289
 20
-0.0000000000000001
 30
0.0
 40
0.125
 41
0.0
 71
     5
 72
     1
  1
\A1;%%c0.748
  7
ROMANS
 11
0.0000000000000001
 21
1.0
 31
0.0
 73
     1
 44
1.0
  0
POINT
  5
714
330
6B8
100
AcDbEntity
  8
Defpoints
 62
     0
100
AcDbPoint
 10
0.9053700000000002
 20
0.3739999999999997
 30
0.0
  0
POINT
  5
715
330
6B8
100
AcDbEntity
  8
Defpoints
 62
     0
100
AcDbPoint
 10
0.866
 20
-0.3740000000000001
 30
0.0
  0
POINT
  5
716
330
6B8
100
AcDbEntity
  8
Defpoints
 62
     0
100
AcDbPoint
 10
1.922421437671289
 20
-0.3740000000000004
 30
0.0
  0
ENDBLK
  5
6C3
330
6B8
100
AcDbEntity
  8
0
100
AcDbBlockEnd
  0
BLOCK
  5
81D
330
813
100
AcDbEntity
  8
0
100
AcDbBlockBegin
  2
*D5
 70
     1
 10
0.0
 20
0.0
 30
0.0
  3
*D5
  1

  0
LINE
  5
81F
330
813
100
AcDbEntity
  8
DIM
 62
     0
370
    -2
100
AcDbLine
 10
-1.180997638
 20
0.5765546105183044
 30
0.0
 11
-1.180997638
 21
2.093814106811024
 31
0.0
  0
LINE
  5
820
330
813
100
AcDbEntity
  8
DIM
 62
     0
370
    -2
100
AcDbLine
 10
1.181
 20
0.633
 30
0.0
 11
1.181
 21
2.093814106811024
 31
0.0
  0
LINE
  5
821
330
813
100
AcDbEntity
  8
DIM
 62
     0
370
    -2
100
AcDbLine
 10
-1.060997637999999
 20
2.031314106811024
 30
0.0
 11
1.060999999999999
 21
2.031314106811024
 31
0.0
  0
SOLID
  5
822
330
813
100
AcDbEntity
  8
DIM
 62
     0
100
AcDbTrace
 10
-1.060997637999999
 20
2.051314106811024
 30
0.0
 11
-1.060997637999999
 21
2.011314106811024
 31
0.0
 12
-1.180997638
 22
2.031314106811024
 32
0.0
 13
-1.180997638
 23
2.031314106811024
 33
0.0
  0
SOLID
  5
823
330
813
100
AcDbEntity
  8
DIM
 62
     0
100
AcDbTrace
 10
1.060999999999999
 20
2.051314106811024
 30
0.0
 11
1.060999999999999
 21
2.011314106811024
 31
0.0
 12
1.181
 22
2.031314106811024
 32
0.0
 13
1.181
 23
2.031314106811024
 33
0.0
  0
MTEXT
  5
824
330
813
100
AcDbEntity
  8
DIM
 62
     0
100
AcDbMText
 10
0.000001181
 20
2.143814106811027
 30
0.0
 40
0.125
 41
0.0
 71
     5
 72
     1
  1
\A1;2.362
  7
ROMANS
 73
     1
 44
1.0
  0
POINT
  5
825
330
813
100
AcDbEntity
  8
Defpoints
 62
     0
100
AcDbPoint
 10
-1.180997638
 20
0.5140546105183044
 30
0.0
  0
POINT
  5
826
330
813
100
AcDbEntity
  8
Defpoints
 62
     0
100
AcDbPoint
 10
1.181
 20
0.5705
 30
0.0
  0
POINT
  5
827
330
813
100
AcDbEntity
  8
Defpoints
 62
     0
100
AcDbPoint
 10
1.181
 20
2.031314106811024
 30
0.0
  0
ENDBLK
  5
81E
330
813
100
AcDbEntity
  8
0
100
AcDbBlockEnd
  0
BLOCK
  5
9B7
330
9B6
100
AcDbEntity
  8
0
100
AcDbBlockBegin
  2
*U6
 70
     1
 10
0.0
 20
0.0
 30
0.0
  3
*U6
  1

  0
ENDBLK
  5
9B8
330
9B6
100
AcDbEntity
  8
0
100
AcDbBlockEnd
  0
BLOCK
  5
A92
330
A91
100
AcDbEntity
  8
0
100
AcDbBlockBegin
  2
*U7
 70
     1
 10
0.0
 20
0.0
 30
0.0
  3
*U7
  1

  0
ENDBLK
  5
A93
330
A91
100
AcDbEntity
  8
0
100
AcDbBlockEnd
  0
BLOCK
  5
B6A
330
B69
100
AcDbEntity
  8
0
100
AcDbBlockBegin
  2
*U8
 70
     1
 10
0.0
 20
0.0
 30
0.0
  3
*U8
  1

  0
ENDBLK
  5
B6B
330
B69
100
AcDbEntity
  8
0
100
AcDbBlockEnd
  0
BLOCK
  5
C45
330
C44
100
AcDbEntity
  8
0
100
AcDbBlockBegin
  2
*U9
 70
     1
 10
0.0
 20
0.0
 30
0.0
  3
*U9
  1

  0
ENDBLK
  5
C46
330
C44
100
AcDbEntity
  8
0
100
AcDbBlockEnd
  0
ENDSEC
  0
SECTION
  2
ENTITIES
  0
LINE
  5
5FC
330
1A
100
AcDbEntity
  8
KA
100
AcDbLine
 10
-1.003997991999999
 20
-0.5509988980000016
 30
0.0
 11
-0.505498989
 21
-0.5509988980000016
 31
0.0
  0
LINE
  5
5FD
330
1A
100
AcDbEntity
  8
KA
100
AcDbLine
 10
-1.180997638
 20
-0.5140546105183042
 30
0.0
 11
-1.180997638
 21
-0.0000000000000004
 31
0.0
  0
LINE
  5
5FE
330
1A
100
AcDbEntity
  8
KA
100
AcDbLine
 10
-1.003997991999999
 20
-0.5509988980000016
 30
0.0
 11
-1.003997991999999
 21
-0.0000000000000004
 31
0.0
  0
LINE
  5
5FF
330
1A
100
AcDbEntity
  8
KA
100
AcDbLine
 10
-1.003997991999999
 20
-0.5509988980000016
 30
0.0
 11
-1.102492732228445
 21
-0.5371563649945017
 31
0.0
  0
LINE
  5
600
330
1A
100
AcDbEntity
  8
KA
100
AcDbLine
 10
-1.14461461725851
 20
-0.5445835898036016
 30
0.0
 11
-1.102492732228445
 21
-0.5371563649945017
 31
0.0
  0
LINE
  5
601
330
1A
100
AcDbEntity
  8
KA
100
AcDbLine
 10
-1.102492732228445
 20
-0.5371563649945017
 30
0.0
 11
-1.102492732228445
 21
-0.0000000000000004
 31
0.0
  0
ARC
  5
602
330
1A
100
AcDbEntity
  8
KA
100
AcDbCircle
 10
-1.149997699999999
 20
-0.5140546105183044
 30
0.0
 40
0.030999938
100
AcDbArc
 50
180.0
 51
279.9999999999993
  0
LINE
  5
603
330
1A
100
AcDbEntity
  8
KA
100
AcDbLine
 10
-0.0589998820000004
 20
-0.5509988980000016
 30
0.0
 11
-0.0111762916921677
 21
-0.5381846055978603
 31
0.0
  0
ARC
  5
604
330
1A
100
AcDbEntity
  8
KA
100
AcDbCircle
 10
-0.0059999880000002
 20
-0.5575031014009193
 30
0.0
 40
0.01999996
100
AcDbArc
 50
72.54239687627722
 51
104.9998673340475
  0
LINE
  5
605
330
1A
100
AcDbEntity
  8
KA
100
AcDbLine
 10
-0.0589998820000018
 20
-0.5509988980000016
 30
0.0
 11
-0.0589998820000018
 21
-0.0000000000000004
 31
0.0
  0
LINE
  5
606
330
1A
100
AcDbEntity
  8
KA
100
AcDbLine
 10
-0.072499855
 20
-0.5509988980000016
 30
0.0
 11
-0.0589998820000022
 21
-0.5509988980000016
 31
0.0
  0
ARC
  5
607
330
1A
100
AcDbEntity
  8
KA
100
AcDbCircle
 10
-0.2889994220000002
 20
-1.52727956332776
 30
0.0
 40
0.9999979999999998
100
AcDbArc
 50
77.49645610533402
 51
102.5035438946659
  0
LWPOLYLINE
  5
608
330
1A
100
AcDbEntity
  8
KA
100
AcDbPolyline
 90
       16
 70
     1
 43
0.0
 10
-0.3061894485998331
 20
0.0000000000000014
 42
0.1099242059137625
 10
-0.3199594534380416
 20
0.0618772598726759
 42
0.1025149667635409
 10
-0.3606118108820033
 20
0.116221381458657
 42
0.0935248479519141
 10
-0.4198815254023529
 20
0.1515658209951218
 42
0.0880290951703918
 10
-0.4919990160000001
 20
0.1643618538965683
 42
0.088029095170384
 10
-0.5641165065976437
 20
0.1515658209951236
 42
0.0935248479519163
 10
-0.6233862211179968
 20
0.116221381458657
 42
0.1025149667635381
 10
-0.664038578561959
 20
0.0618772598726759
 42
0.109924205913759
 10
-0.677808583400167
 20
0.0000000000000014
 42
0.1099242059137625
 10
-0.6640385785619584
 20
-0.0618772598726731
 42
0.1025149667635408
 10
-0.6233862211179968
 20
-0.1162213814586543
 42
0.0935248479519104
 10
-0.5641165065976452
 20
-0.1515658209951209
 42
0.0880290951703821
 10
-0.4919990160000001
 20
-0.1643618538965657
 42
0.0880290951703709
 10
-0.4198815254023554
 20
-0.1515658209951227
 42
0.0935248479519015
 10
-0.3606118108820033
 20
-0.1162213814586543
 42
0.1025149667635463
 10
-0.3199594534380411
 20
-0.0618772598726713
 42
0.1099242059137621
  0
CIRCLE
  5
609
330
1A
100
AcDbEntity
  8
KA
100
AcDbCircle
 10
-0.4919990160000001
 20
0.0000000000000014
 30
0.0
 40
0.157499685
  0
ARC
  5
60A
330
1A
100
AcDbEntity
  8
KA
100
AcDbCircle
 10
-0.2889994220000002
 20
1.52727956332776
 30
0.0
 40
0.9999979999999998
100
AcDbArc
 50
257.496456105334
 51
282.503543894666
  0
LINE
  5
60B
330
1A
100
AcDbEntity
  8
KA
100
AcDbLine
 10
-0.072499855
 20
0.5509988980000016
 30
0.0
 11
-0.0589998820000022
 21
0.5509988980000016
 31
0.0
  0
LINE
  5
60C
330
1A
100
AcDbEntity
  8
KA
100
AcDbLine
 10
-0.0589998820000018
 20
0.5509988980000016
 30
0.0
 11
-0.0589998820000018
 21
0.0000000000000013
 31
0.0
  0
ARC
  5
60D
330
1A
100
AcDbEntity
  8
KA
100
AcDbCircle
 10
-0.0059999880000002
 20
0.5575031014009193
 30
0.0
 40
0.01999996
100
AcDbArc
 50
255.0001326659524
 51
287.4576031237225
  0
LINE
  5
60E
330
1A
100
AcDbEntity
  8
KA
100
AcDbLine
 10
-0.0589998820000004
 20
0.5509988980000016
 30
0.0
 11
-0.0111762916921677
 21
0.5381846055978603
 31
0.0
  0
ARC
  5
60F
330
1A
100
AcDbEntity
  8
KA
100
AcDbCircle
 10
-1.149997699999999
 20
0.5140546105183044
 30
0.0
 40
0.030999938
100
AcDbArc
 50
80.00000000000055
 51
180.0
  0
LINE
  5
610
330
1A
100
AcDbEntity
  8
KA
100
AcDbLine
 10
-1.102492732228445
 20
0.5371563649945017
 30
0.0
 11
-1.102492732228445
 21
0.0000000000000013
 31
0.0
  0
LINE
  5
611
330
1A
100
AcDbEntity
  8
KA
100
AcDbLine
 10
-1.14461461725851
 20
0.5445835898036016
 30
0.0
 11
-1.102492732228445
 21
0.5371563649945017
 31
0.0
  0
LINE
  5
612
330
1A
100
AcDbEntity
  8
KA
100
AcDbLine
 10
-1.003997991999999
 20
0.5509988980000016
 30
0.0
 11
-1.102492732228445
 21
0.5371563649945017
 31
0.0
  0
LINE
  5
613
330
1A
100
AcDbEntity
  8
KA
100
AcDbLine
 10
-1.003997991999999
 20
0.5509988980000016
 30
0.0
 11
-1.003997991999999
 21
0.0000000000000013
 31
0.0
  0
LINE
  5
614
330
1A
100
AcDbEntity
  8
KA
100
AcDbLine
 10
-1.180997638
 20
0.5140546105183044
 30
0.0
 11
-1.180997638
 21
0.0000000000000013
 31
0.0
  0
LINE
  5
615
330
1A
100
AcDbEntity
  8
KA
100
AcDbLine
 10
-1.003997991999999
 20
0.5509988980000016
 30
0.0
 11
-0.505498989
 21
0.5509988980000016
 31
0.0
  0
LINE
  5
617
330
1A
100
AcDbEntity
  8
KA
100
AcDbLine
 10
-0.1294301145334376
 20
0.6496049999999995
 30
0.0
 11
-0.448568729466561
 21
0.6496049999999995
 31
0.0
  0
LINE
  5
618
330
1A
100
AcDbEntity
  8
KA
100
AcDbLine
 10
-0.072499854999999
 20
0.5509988980000016
 30
0.0
 11
-0.1294301145334376
 21
0.6496049999999995
 31
0.0
  0
LINE
  5
619
330
1A
100
AcDbEntity
  8
KA
100
AcDbLine
 10
-0.5054989889999996
 20
0.5509988980000016
 30
0.0
 11
-0.448568729466561
 21
0.6496049999999998
 31
0.0
  0
LINE
  5
61A
330
1A
100
AcDbEntity
  8
KA
100
AcDbLine
 10
-0.5054989889999996
 20
-0.5509988980000025
 30
0.0
 11
-0.448568729466561
 21
-0.6496050000000004
 31
0.0
  0
LINE
  5
61B
330
1A
100
AcDbEntity
  8
KA
100
AcDbLine
 10
-0.1294301145334376
 20
-0.6496050000000004
 30
0.0
 11
-0.448568729466561
 21
-0.6496050000000004
 31
0.0
  0
LINE
  5
61C
330
1A
100
AcDbEntity
  8
KA
100
AcDbLine
 10
-0.072499854999999
 20
-0.5509988980000024
 30
0.0
 11
-0.1294301145334376
 21
-0.6496050000000004
 31
0.0
  0
LINE
  5
61E
330
1A
100
AcDbEntity
  8
LINE
100
AcDbLine
 10
0.0000000000000001
 20
0.9446299999999999
 30
0.0
 11
-0.0000000000000002
 21
-0.9446299999999999
 31
0.0
  0
LINE
  5
628
330
1A
100
AcDbEntity
  8
LINE
100
AcDbLine
 10
0.3939999999999999
 20
0.9446299999999999
 30
0.0
 11
0.3939999999999999
 21
-0.9446299999999999
 31
0.0
  0
LINE
  5
629
330
1A
100
AcDbEntity
  8
LINE
100
AcDbLine
 10
0.0393700000000001
 20
0.9839999999999999
 30
0.0
 11
0.35463
 21
0.9839999999999999
 31
0.0
  0
LINE
  5
62A
330
1A
100
AcDbEntity
  8
LINE
100
AcDbLine
 10
0.0393699999999998
 20
-0.9839999999999999
 30
0.0
 11
0.3546299999999999
 21
-0.9839999999999999
 31
0.0
  0
LINE
  5
62E
330
1A
100
AcDbEntity
  8
LINE
100
AcDbLine
 10
0.0000000000000001
 20
0.9446299999999999
 30
0.0
 11
0.0393700000000001
 21
0.9839999999999999
 31
0.0
1001
GENIUS_GENFIL_13
1070
     0
1040
0.03937
1040
0.03937
1040
0.0
1040
0.0
1002
{
1002
}
1001
GENIUS_GENOBJ-N-CHA_13
1002
{
1000
OWNER
1000
GEN
1002
}
1001
GENIUS_GENODEF_13
1002
{
1000
HIER
1070
     0
1002
}
1002
{
1000
MANEDIT
1070
     0
1002
}
1002
{
1000
NOSEL
1070
     0
1002
}
1002
{
1000
BEHIND
1070
     0
1002
}
1002
{
1000
OTHER
1070
     0
1002
}
1002
{
1000
REACTOR
1002
}
  0
LINE
  5
633
330
1A
100
AcDbEntity
  8
LINE
100
AcDbLine
 10
0.35463
 20
0.9839999999999999
 30
0.0
 11
0.3939999999999999
 21
0.9446299999999999
 31
0.0
1001
GENIUS_GENFIL_13
1070
     0
1040
0.03937
1040
0.03937
1040
0.0
1040
0.0
1002
{
1002
}
1001
GENIUS_GENOBJ-N-CHA_13
1002
{
1000
OWNER
1000
GEN
1002
}
1001
GENIUS_GENODEF_13
1002
{
1000
HIER
1070
     0
1002
}
1002
{
1000
MANEDIT
1070
     0
1002
}
1002
{
1000
NOSEL
1070
     0
1002
}
1002
{
1000
BEHIND
1070
     0
1002
}
1002
{
1000
OTHER
1070
     0
1002
}
1002
{
1000
REACTOR
1002
}
  0
LINE
  5
635
330
1A
100
AcDbEntity
  8
LINE
100
AcDbLine
 10
0.3939999999999999
 20
-0.9446299999999999
 30
0.0
 11
0.3546299999999999
 21
-0.9839999999999999
 31
0.0
1001
GENIUS_GENFIL_13
1070
     0
1040
0.03937
1040
0.03937
1040
0.0
1040
0.0
1002
{
1002
}
1001
GENIUS_GENOBJ-N-CHA_13
1002
{
1000
OWNER
1000
GEN
1002
}
1001
GENIUS_GENODEF_13
1002
{
1000
HIER
1070
     0
1002
}
1002
{
1000
MANEDIT
1070
     0
1002
}
1002
{
1000
NOSEL
1070
     0
1002
}
1002
{
1000
BEHIND
1070
     0
1002
}
1002
{
1000
OTHER
1070
     0
1002
}
1002
{
1000
REACTOR
1002
}
  0
LINE
  5
637
330
1A
100
AcDbEntity
  8
LINE
100
AcDbLine
 10
0.0393699999999998
 20
-0.9839999999999999
 30
0.0
 11
-0.0000000000000002
 21
-0.9446299999999999
 31
0.0
1001
GENIUS_GENFIL_13
1070
     0
1040
0.03937
1040
0.03937
1040
0.0
1040
0.0
1002
{
1002
}
1001
GENIUS_GENODEF_13
1002
{
1000
HIER
1070
     0
1002
}
1002
{
1000
MANEDIT
1070
     0
1002
}
1002
{
1000
NOSEL
1070
     0
1002
}
1002
{
1000
BEHIND
1070
     0
1002
}
1002
{
1000
OTHER
1070
     0
1002
}
1002
{
1000
REACTOR
1002
}
1001
GENIUS_GENOBJ-N-CHA_13
1002
{
1000
OWNER
1000
GEN
1002
}
  0
LINE
  5
63B
330
1A
100
AcDbEntity
  8
LINE
100
AcDbLine
 10
1.181
 20
0.5705
 30
0.0
 11
1.181
 21
-0.5704999999999975
 31
0.0
  0
LINE
  5
63C
330
1A
100
AcDbEntity
  8
LINE
100
AcDbLine
 10
0.9053700000000002
 20
-0.7675000000000001
 30
0.0
 11
0.3939999999999997
 21
-0.7675
 31
0.0
  0
LINE
  5
63D
330
1A
100
AcDbEntity
  8
LINE
100
AcDbLine
 10
0.9053700000000002
 20
0.7674999999999999
 30
0.0
 11
0.3939999999999998
 21
0.7675
 31
0.0
  0
LINE
  5
65E
330
1A
100
AcDbEntity
  8
HIDDEN
100
AcDbLine
 10
-1.180997638
 20
0.2755000000000013
 30
0.0
 11
-0.0227302800979957
 21
0.2755000000000012
 31
0.0
  0
LINE
  5
65F
330
1A
100
AcDbEntity
  8
HIDDEN
100
AcDbLine
 10
-1.180997638
 20
-0.2754999999999987
 30
0.0
 11
-0.0227302800979948
 21
-0.2754999999999989
 31
0.0
  0
LINE
  5
660
330
1A
100
AcDbEntity
  8
HIDDEN
100
AcDbLine
 10
-0.0227302800979957
 20
0.275500000000001
 30
0.0
 11
0.0568690015151775
 21
0.4133700000000001
 31
0.0
  0
LINE
  5
661
330
1A
100
AcDbEntity
  8
HIDDEN
100
AcDbLine
 10
-0.0227302800979948
 20
-0.275499999999999
 30
0.0
 11
0.0568690015151797
 21
-0.4133700000000002
 31
0.0
  0
LINE
  5
662
330
1A
100
AcDbEntity
  8
HIDDEN
100
AcDbLine
 10
0.0568690015151775
 20
0.4133700000000001
 30
0.0
 11
0.0568690015151797
 21
-0.4133700000000002
 31
0.0
  0
LINE
  5
664
330
1A
100
AcDbEntity
  8
HIDDEN
100
AcDbLine
 10
0.0568690015151775
 20
0.4133700000000001
 30
0.0
 11
0.3718690015151774
 21
0.4133700000000001
 31
0.0
  0
LINE
  5
665
330
1A
100
AcDbEntity
  8
HIDDEN
100
AcDbLine
 10
0.3718690015151774
 20
0.4133700000000001
 30
0.0
 11
0.3718690015151774
 21
-0.4133700000000001
 31
0.0
  0
LINE
  5
667
330
1A
100
AcDbEntity
  8
HIDDEN
100
AcDbLine
 10
0.3718690015151774
 20
-0.4133700000000001
 30
0.0
 11
0.0568690015151797
 21
-0.4133700000000002
 31
0.0
  0
LINE
  5
669
330
1A
100
AcDbEntity
  8
HIDDEN
100
AcDbLine
 10
-0.0227302800979957
 20
0.2755000000000012
 30
0.0
 11
-0.0227302800979948
 21
-0.2754999999999989
 31
0.0
  0
LINE
  5
66A
330
1A
100
AcDbEntity
  8
HIDDEN
100
AcDbLine
 10
0.9053700000000002
 20
0.7281299999999998
 30
0.0
 11
0.9053700000000002
 21
0.3346299999999999
 31
0.0
  0
LINE
  5
66C
330
1A
100
AcDbEntity
  8
HIDDEN
100
AcDbLine
 10
0.9053700000000002
 20
0.3346299999999999
 30
0.0
 11
1.181
 21
0.3346299999999999
 31
0.0
  0
LINE
  5
66F
330
1A
100
AcDbEntity
  8
HIDDEN
100
AcDbLine
 10
0.9053700000000002
 20
0.3739999999999997
 30
0.0
 11
0.3718690015151774
 21
0.374
 31
0.0
  0
LINE
  5
670
330
1A
100
AcDbEntity
  8
HIDDEN
100
AcDbLine
 10
0.8659999999999985
 20
-0.3740000000000001
 30
0.0
 11
0.3718690015151774
 21
-0.3740000000000001
 31
0.0
  0
DIMENSION
  5
673
330
1A
100
AcDbEntity
  8
DIM
100
AcDbDimension
  2
*D1
 10
1.181
 20
1.744983902964633
 30
0.0
 11
0.5905000000000003
 21
1.857483902964633
 31
0.0
 70
    32
 71
     5
 42
1.181
  3
STANDARD
100
AcDbAlignedDimension
 13
0.0000000000000001
 23
0.9446299999999999
 33
0.0
 14
1.181
 24
0.5705
 34
0.0
100
AcDbRotatedDimension
  0
DIMENSION
  5
681
330
1A
100
AcDbEntity
  8
DIM
100
AcDbDimension
  2
*D2
 10
2.250491285571513
 20
-0.7674999999999975
 30
0.0
 11
2.137991285571513
 21
0.0000000000000013
 31
0.0
 70
    32
  1
%%c<>
 71
     5
 42
1.534999999999995
  3
STANDARD
100
AcDbAlignedDimension
 13
0.9053700000000002
 23
0.7674999999999999
 33
0.0
 14
0.9053700000000002
 24
-0.7674999999999971
 34
0.0
 50
90.0
100
AcDbRotatedDimension
  0
LINE
  5
68E
330
1A
100
AcDbEntity
  8
CTRL
100
AcDbLine
 10
-1.314541184877774
 20
0.0000000000000013
 30
0.0
 11
1.33918431028536
 21
0.0000000000000013
 31
0.0
  0
DIMENSION
  5
698
330
1A
100
AcDbEntity
  8
DIM
100
AcDbDimension
  2
*D3
 10
-1.61344905797937
 20
-0.9839999999999996
 30
0.0
 11
-1.725949057979371
 21
0.0000000000000002
 31
0.0
 70
    32
  1
%%c<>
 71
     5
 42
1.968
  3
STANDARD
100
AcDbAlignedDimension
 13
0.0393700000000001
 23
0.9839999999999999
 33
0.0
 14
0.0393699999999998
 24
-0.9839999999999999
 34
0.0
 50
90.0
100
AcDbRotatedDimension
  0
DIMENSION
  5
6B7
330
1A
100
AcDbEntity
  8
DIM
100
AcDbDimension
  2
*D4
 10
1.922421437671289
 20
-0.3740000000000004
 30
0.0
 11
1.809921437671289
 21
-0.0000000000000001
 31
0.0
 70
    32
  1
%%c<>
 71
     5
 42
0.7480000000000003
  3
STANDARD
100
AcDbAlignedDimension
 13
0.9053700000000002
 23
0.3739999999999997
 33
0.0
 14
0.866
 24
-0.3740000000000001
 34
0.0
 50
90.0
100
AcDbRotatedDimension
  0
LINE
  5
6EB
330
1A
100
AcDbEntity
  8
HIDDEN
100
AcDbLine
 10
0.5583517847142594
 20
0.7009302377473965
 30
0.0
 11
0.5007051629899603
 21
0.374
 31
0.0
  0
LINE
  5
6EC
330
1A
100
AcDbEntity
  8
HIDDEN
100
AcDbLine
 10
0.6745590995697
 20
0.6804397527826989
 30
0.0
 11
0.6205255031924784
 21
0.374
 31
0.0
  0
LINE
  5
6EF
330
1A
100
AcDbEntity
  8
HIDDEN
100
AcDbLine
 10
0.5502890109669693
 20
0.7675000000000001
 30
0.0
 11
0.5391480335305216
 21
0.7043163772119017
 31
0.0
  0
LINE
  5
6F0
330
1A
100
AcDbEntity
  8
HIDDEN
100
AcDbLine
 10
0.5391480335305216
 20
0.7043163772119017
 30
0.0
 11
0.6937628507534204
 21
0.6770536133181967
 31
0.0
  0
LINE
  5
6F1
330
1A
100
AcDbEntity
  8
HIDDEN
100
AcDbLine
 10
0.6937628507534204
 20
0.6770536133181967
 30
0.0
 11
0.7097109890330346
 21
0.7675
 31
0.0
  0
LINE
  5
6F3
330
1A
100
AcDbEntity
  8
HIDDEN
100
AcDbLine
 10
0.5391480335305216
 20
-0.704316377211899
 30
0.0
 11
0.6937628507534204
 21
-0.677053613318194
 31
0.0
  0
LINE
  5
6F4
330
1A
100
AcDbEntity
  8
HIDDEN
100
AcDbLine
 10
0.5502890109669693
 20
-0.7674999999999974
 30
0.0
 11
0.5391480335305216
 21
-0.704316377211899
 31
0.0
  0
LINE
  5
6F5
330
1A
100
AcDbEntity
  8
HIDDEN
100
AcDbLine
 10
0.5583517847142594
 20
-0.700930237747394
 30
0.0
 11
0.5007051629899603
 21
-0.3739999999999974
 31
0.0
  0
LINE
  5
6F6
330
1A
100
AcDbEntity
  8
HIDDEN
100
AcDbLine
 10
0.6937628507534204
 20
-0.677053613318194
 30
0.0
 11
0.7097109890330346
 21
-0.7674999999999974
 31
0.0
  0
LINE
  5
6F7
330
1A
100
AcDbEntity
  8
HIDDEN
100
AcDbLine
 10
0.6745590995697
 20
-0.6804397527826965
 30
0.0
 11
0.6205255031924784
 21
-0.3739999999999974
 31
0.0
  0
LINE
  5
701
330
1A
100
AcDbEntity
  8
LINE
100
AcDbLine
 10
1.02337
 20
0.7281299999999998
 30
0.0
 11
1.02337
 21
-0.7281299999999971
 31
0.0
  0
LINE
  5
70D
330
1A
100
AcDbEntity
  8
LINE
100
AcDbLine
 10
1.02337
 20
0.7281299999999998
 30
0.0
 11
1.181
 21
0.5705
 31
0.0
1001
GENIUS_GENFIL_13
1070
     0
1040
0.197
1040
0.197
1040
0.0
1040
0.0
1002
{
1002
}
1001
GENIUS_GENOBJ-N-CHA_13
1002
{
1000
OWNER
1000
GEN
1002
}
1001
GENIUS_GENODEF_13
1002
{
1000
HIER
1070
     0
1002
}
1002
{
1000
MANEDIT
1070
     0
1002
}
1002
{
1000
NOSEL
1070
     0
1002
}
1002
{
1000
BEHIND
1070
     0
1002
}
1002
{
1000
OTHER
1070
     0
1002
}
1002
{
1000
REACTOR
1002
}
  0
LINE
  5
718
330
1A
100
AcDbEntity
  8
LINE
100
AcDbLine
 10
0.9053700000000002
 20
0.7281299999999998
 30
0.0
 11
1.02337
 21
0.7281299999999998
 31
0.0
  0
LINE
  5
722
330
1A
100
AcDbEntity
  8
LINE
100
AcDbLine
 10
1.02337
 20
-0.7281299999999971
 30
0.0
 11
1.181
 21
-0.5704999999999975
 31
0.0
1001
GENIUS_GENFIL_13
1070
     0
1040
0.197
1040
0.197
1040
0.0
1040
0.0
1002
{
1002
}
1001
GENIUS_GENOBJ-N-CHA_13
1002
{
1000
OWNER
1000
GEN
1002
}
1001
GENIUS_GENODEF_13
1002
{
1000
HIER
1070
     0
1002
}
1002
{
1000
MANEDIT
1070
     0
1002
}
1002
{
1000
NOSEL
1070
     0
1002
}
1002
{
1000
BEHIND
1070
     0
1002
}
1002
{
1000
OTHER
1070
     0
1002
}
1002
{
1000
REACTOR
1002
}
  0
LINE
  5
723
330
1A
100
AcDbEntity
  8
LINE
100
AcDbLine
 10
0.9053700000000002
 20
-0.7281299999999971
 30
0.0
 11
1.02337
 21
-0.7281299999999971
 31
0.0
  0
LINE
  5
724
330
1A
100
AcDbEntity
  8
HIDDEN
100
AcDbLine
 10
0.9053700000000002
 20
-0.7281299999999971
 30
0.0
 11
0.9053700000000002
 21
-0.3346299999999973
 31
0.0
  0
LINE
  5
725
330
1A
100
AcDbEntity
  8
HIDDEN
100
AcDbLine
 10
0.9053700000000002
 20
-0.3346299999999973
 30
0.0
 11
1.181
 21
-0.3346299999999973
 31
0.0
  0
DIMENSION
  5
812
330
1A
100
AcDbEntity
  8
DIM
100
AcDbDimension
  2
*D5
 10
1.181
 20
2.031314106811024
 30
0.0
 11
0.000001181
 21
2.143814106811027
 31
0.0
 70
    32
 71
     5
 42
2.361997638
  3
STANDARD
100
AcDbAlignedDimension
 13
-1.180997638
 23
0.5140546105183044
 33
0.0
 14
1.181
 24
0.5705
 34
0.0
100
AcDbRotatedDimension
  0
LINE
  5
902
330
1A
100
AcDbEntity
  8
LINE
100
AcDbLine
 10
0.9053700000000002
 20
0.7674999999999999
 30
0.0
 11
0.9053700000000002
 21
0.7281299999999998
 31
0.0
  0
LINE
  5
903
330
1A
100
AcDbEntity
  8
LINE
100
AcDbLine
 10
0.9053700000000002
 20
-0.7281299999999971
 30
0.0
 11
0.9053700000000002
 21
-0.7675000000000001
 31
0.0
  0
LINE
  5
B93
330
1A
100
AcDbEntity
  8
KA
100
AcDbLine
 10
-0.5054989890000038
 20
0.1569200481267414
 30
0.0
 11
-0.5054989890000038
 21
-0.1569200481267386
 31
0.0
  0
ENDSEC
  0
SECTION
  2
OBJECTS
  0
DICTIONARY
  5
C
330
0
100
AcDbDictionary
281
     1
  3
ACAD_GROUP
350
D
  3
ACAD_LAYOUT
350
317
  3
ACAD_MLINESTYLE
350
E
  3
ACAD_PLOTSETTINGS
350
318
  3
ACAD_PLOTSTYLENAME
350
315
  3
AcDbVariableDictionary
350
31F
  3
AcmDictionary
350
3E0
  3
AMG
350
326
  3
AMGSNAPSETTINGS
350
5F4
  3
DWGPROPS
350
C50
  3
MAPISURF_MODULE
350
C20
  0
DICTIONARY
  5
43F
330
1A
100
AcDbDictionary
280
     1
281
     1
  3
ACAD_INDEX
360
440
  0
DICTIONARY
  5
D
102
{ACAD_REACTORS
330
C
102
}
330
C
100
AcDbDictionary
281
     1
  0
DICTIONARY
  5
317
102
{ACAD_REACTORS
330
C
102
}
330
C
100
AcDbDictionary
281
     1
  3
Layout1
350
4B1
  3
Model
350
319
  0
DICTIONARY
  5
E
102
{ACAD_REACTORS
330
C
102
}
330
C
100
AcDbDictionary
281
     1
  3
STANDARD
350
13
  0
DICTIONARY
  5
318
102
{ACAD_REACTORS
330
C
102
}
330
C
100
AcDbDictionary
281
     1
  0
ACDBDICTIONARYWDFLT
  5
315
102
{ACAD_REACTORS
330
C
102
}
330
C
100
AcDbDictionary
281
     1
  3
Normal
350
316
100
AcDbDictionaryWithDefault
340
316
  0
DICTIONARY
  5
31F
102
{ACAD_REACTORS
330
C
102
}
330
C
100
AcDbDictionary
281
     1
  3
DIMASSOC
350
320
  3
INDEXCTL
350
44A
  0
DICTIONARY
  5
3E0
102
{ACAD_REACTORS
330
C
102
}
330
C
100
AcDbDictionary
281
     1
  3
AcmBOMDATA
350
C4E
  3
AcmStdDictionary
350
C5A
  0
DICTIONARY
  5
326
102
{ACAD_REACTORS
330
C
102
}
330
C
100
AcDbDictionary
281
     1
  3
AcMgSettings
350
327
  3
AMGLAYCFG
350
C5C
  0
DICTIONARY
  5
5F4
102
{ACAD_REACTORS
330
C
102
}
330
C
100
AcDbDictionary
281
     1
  3
DIMENSION
350
5F9
  3
FEA
350
5F8
  3
HATCH (1)
350
5F5
  3
HATCH (2)
350
5F6
  3
SIMPLE WELD
350
5FA
  3
SYMBOLS
350
5F7
  0
XRECORD
  5
C50
102
{ACAD_REACTORS
330
C
102
}
330
C
100
AcDbXrecord
280
     1
  1
DWGPROPS COOKIE
  2

  3

  4

  6

  7

  8

  9

300
AmdtFileType=84
301
=
302
=
303
=
304
=
305
=
306
=
307
=
308
=
309
=
 40
0.019516712962963
 41
2452719.395323032
 42
2452737.343822014
  1

 90
        1
  0
DICTIONARY
  5
440
102
{ACAD_REACTORS
330
43F
102
}
330
43F
100
AcDbDictionary
281
     1
  3
*A1
350
441
  0
LAYOUT
  5
4B1
102
{ACAD_REACTORS
330
317
102
}
330
317
100
AcDbPlotSettings
  1

  2
\\PRINT_SRV\HP LaserJet (Engineering)
  4

  6

 40
0.0
 41
0.0
 42
0.0
 43
0.0
 44
0.0
 45
0.0
 46
0.0
 47
0.0
 48
0.0
 49
0.0
140
0.0
141
0.0
142
1.0
143
1.0
 70
   688
 72
     0
 73
     0
 74
     5
  7
KPT.ctb
 75
    16
147
1.0
148
0.0
149
0.0
100
AcDbLayout
  1
Layout1
 70
     1
 71
     1
 10
0.0
 20
0.0
 11
12.0
 21
9.0
 12
0.0
 22
0.0
 32
0.0
 14
0.0
 24
0.0
 34
0.0
 15
0.0
 25
0.0
 35
0.0
146
0.0
 13
0.0
 23
0.0
 33
0.0
 16
1.0
 26
0.0
 36
0.0
 17
0.0
 27
1.0
 37
0.0
 76
     0
330
4B0
  0
LAYOUT
  5
319
102
{ACAD_REACTORS
330
317
102
}
330
317
100
AcDbPlotSettings
  1

  2
\\PRINT_SRV\HP LaserJet (Engineering)
  4
Letter
  6

 40
6.349999904632567
 41
4.233341693878172
 42
6.349990844726562
 43
4.23333740234375
 44
215.8999938964841
 45
279.3999938964843
 46
0.0
 47
0.0
 48
0.0
 49
0.0
140
0.0
141
0.0
142
1.0
143
73.68551521849855
 70
 11952
 72
     0
 73
     1
 74
     0
  7
KPT.ctb
 75
     0
147
0.0135711882726845
148
3658.355290520464
149
2374.418055633259
100
AcDbLayout
  1
Model
 70
     1
 71
     0
 10
0.0
 20
0.0
 11
12.0
 21
9.0
 12
0.0
 22
0.0
 32
0.0
 14
0.0
 24
0.0
 34
0.0
 15
0.0
 25
0.0
 35
0.0
146
0.0
 13
0.0
 23
0.0
 33
0.0
 16
1.0
 26
0.0
 36
0.0
 17
0.0
 27
1.0
 37
0.0
 76
     0
330
1A
  0
MLINESTYLE
  5
13
102
{ACAD_REACTORS
330
E
102
}
330
E
100
AcDbMlineStyle
  2
STANDARD
 70
     0
  3

 62
     0
 51
90.0
 52
90.0
 71
     2
 49
0.5
 62
   256
  6
BYLAYER
 49
-0.5
 62
   256
  6
BYLAYER
  0
ACDBPLACEHOLDER
  5
316
102
{ACAD_REACTORS
330
315
102
}
330
315
  0
DICTIONARYVAR
  5
320
102
{ACAD_REACTORS
330
31F
102
}
330
31F
100
DictionaryVariables
280
     0
  1
1
  0
DICTIONARYVAR
  5
44A
102
{ACAD_REACTORS
330
31F
102
}
330
31F
100
DictionaryVariables
280
     0
  1
1
  0
ACMDATADICTIONARY
  5
C4E
102
{ACAD_REACTORS
330
3E0
102
}
330
3E0
100
AcDbDictionary
281
     1
  3
*A1
350
C4F
100
AcmDataDictionary
  0
DICTIONARY
  5
C5A
102
{ACAD_REACTORS
330
3E0
102
}
330
3E0
100
AcDbDictionary
281
     1
  3
ISO
350
C5B
  0
DICTIONARY
  5
327
102
{ACAD_REACTORS
330
326
102
}
330
326
100
AcDbDictionary
281
     1
  3
DWGSETTINGS
350
B9D
  3
TRANSSETTINGS
350
BA1
  0
ACAMGFILTERDAT
  5
5F9
102
{ACAD_REACTORS
330
5F4
102
}
330
5F4
100
AcAmgFilterDat
 70
    15
  1
DIMENSION,AMDT_*_DIM
  2
*
  3
*
  4
*
  5
*
290
     1
  0
ACAMGFILTERDAT
  5
5F8
102
{ACAD_REACTORS
330
5F4
102
}
330
5F4
100
AcAmgFilterDat
 70
    15
  1
*
  2
AM_FEA-AM_*
  3
*
  4
*
  5
*
290
     1
  0
ACAMGFILTERDAT
  5
5F5
102
{ACAD_REACTORS
330
5F4
102
}
330
5F4
100
AcAmgFilterDat
 70
    15
  1
HATCH
  2
*
  3
*
  4
*
  5
*
290
     1
  0
ACAMGFILTERDAT
  5
5F6
102
{ACAD_REACTORS
330
5F4
102
}
330
5F4
100
AcAmgFilterDat
 70
    15
  1
LINE
  2
8,8N,*-8,*-8N,AM_8,AM_8N,*-AM_8,*-AM_8N
  3
*
  4
*
  5
INSERT,STDPART2D
290
     1
  0
ACAMGFILTERDAT
  5
5FA
102
{ACAD_REACTORS
330
5F4
102
}
330
5F4
100
AcAmgFilterDat
 70
    15
  1
ARC
  2
AM_5
  3
*
  4
2
  5
INSERT
290
     0
  0
ACAMGFILTERDAT
  5
5F7
102
{ACAD_REACTORS
330
5F4
102
}
330
5F4
100
AcAmgFilterDat
 70
    15
  1
ACMFCFRAME,ACMDATUMTARGET,ACMDATUMID,ACMWELDSYM,ACMSURFSYM,ACMFEATID,ACMPARTREF,ACMBALLOON,AMDTEDGESYM,AMGSCREWCALCTABLE
  2
*
  3
*
  4
*
  5
*
290
     1
  0
LAYER_INDEX
  5
441
102
{ACAD_REACTORS
330
440
102
}
330
440
100
AcDbIndex
 40
2452737.417763877
100
AcDbLayerIndex
  8
0
360
442
 90
        0
  8
LINE
360
5A6
 90
       18
  8
HIDDEN
360
5A7
 90
       25
  8
DIM
360
5A8
 90
        5
  8
CTRL
360
5AB
 90
        1
  8
KA
360
671
 90
       33
  8
Defpoints
360
6E8
 90
        0
  0
ACMDATAENTRYBLOCK
  5
C4F
102
{ACAD_REACTORS
330
C4E
102
}
330
C4E
100
AcmDataEntry
100
AcmDataEntryBlock
  0
IDBUFFER
  5
442
330
0
100
AcDbIdBuffer
  0
IDBUFFER
  5
5A6
330
0
100
AcDbIdBuffer
330
61E
330
628
330
629
330
62A
330
62E
330
633
330
635
330
637
330
63B
330
63C
330
63D
330
701
330
70D
330
718
330
722
330
723
330
902
330
903
  0
IDBUFFER
  5
5A7
330
0
100
AcDbIdBuffer
330
65E
330
65F
330
660
330
661
330
662
330
664
330
665
330
667
330
669
330
66A
330
66C
330
66F
330
670
330
6EB
330
6EC
330
6EF
330
6F0
330
6F1
330
6F3
330
6F4
330
6F5
330
6F6
330
6F7
330
724
330
725
  0
IDBUFFER
  5
5A8
330
0
100
AcDbIdBuffer
330
673
330
681
330
698
330
6B7
330
812
  0
IDBUFFER
  5
5AB
330
0
100
AcDbIdBuffer
330
68E
  0
IDBUFFER
  5
671
330
0
100
AcDbIdBuffer
330
B93
330
5FC
330
5FD
330
5FE
330
5FF
330
600
330
601
330
602
330
603
330
604
330
605
330
606
330
607
330
608
330
609
330
60A
330
60B
330
60C
330
60D
330
60E
330
60F
330
610
330
611
330
612
330
613
330
614
330
615
330
617
330
618
330
619
330
61A
330
61B
330
61C
  0
IDBUFFER
  5
6E8
330
0
100
AcDbIdBuffer
  0
ENDSEC
  0
EOF
