  0
SECTION
  2
HEADER
  9
$ACADVER
  1
AC1015
  9
$ACADMAINTVER
 70
    13
  9
$DWGCODEPAGE
  3
ANSI_1252
  9
$INSBASE
 10
499.0812642324167
 20
-4482.694076290274
 30
0.0
  9
$EXTMIN
 10
-66.32392703349271
 20
-45.0079999999989
 30
0.0
  9
$EXTMAX
 10
221.6745798094503
 20
101.9910211948399
 30
0.0
  9
$LIMMIN
 10
0.0
 20
0.0
  9
$LIMMAX
 10
12.0
 20
9.0
  9
$ORTHOMODE
 70
     1
  9
$REGENMODE
 70
     1
  9
$FILLMODE
 70
     1
  9
$QTEXTMODE
 70
     0
  9
$MIRRTEXT
 70
     0
  9
$LTSCALE
 40
10.0
  9
$ATTMODE
 70
     1
  9
$TEXTSIZE
 40
5.0
  9
$TRACEWID
 40
0.05
  9
$TEXTSTYLE
  7
ROMANS
  9
$CLAYER
  8
DIM
  9
$CELTYPE
  6
BYLAYER
  9
$CECOLOR
 62
     3
  9
$CELTSCALE
 40
1.0
  9
$DISPSILH
 70
     0
  9
$DIMSCALE
 40
25.0
  9
$DIMASZ
 40
0.18
  9
$DIMEXO
 40
0.0625
  9
$DIMDLI
 40
0.38
  9
$DIMRND
 40
0.0
  9
$DIMDLE
 40
0.0
  9
$DIMEXE
 40
0.18
  9
$DIMTP
 40
0.0
  9
$DIMTM
 40
0.0
  9
$DIMTXT
 40
0.18
  9
$DIMCEN
 40
0.09
  9
$DIMTSZ
 40
0.0
  9
$DIMTOL
 70
     0
  9
$DIMLIM
 70
     0
  9
$DIMTIH
 70
     0
  9
$DIMTOH
 70
     0
  9
$DIMSE1
 70
     0
  9
$DIMSE2
 70
     0
  9
$DIMTAD
 70
     1
  9
$DIMZIN
 70
     0
  9
$DIMBLK
  1

  9
$DIMASO
 70
     1
  9
$DIMSHO
 70
     1
  9
$DIMPOST
  1

  9
$DIMAPOST
  1

  9
$DIMALT
 70
     0
  9
$DIMALTD
 70
     2
  9
$DIMALTF
 40
25.4
  9
$DIMLFAC
 40
1.0
  9
$DIMTOFL
 70
     0
  9
$DIMTVP
 40
0.0
  9
$DIMTIX
 70
     0
  9
$DIMSOXD
 70
     0
  9
$DIMSAH
 70
     0
  9
$DIMBLK1
  1

  9
$DIMBLK2
  1

  9
$DIMSTYLE
  2
STANDARD
  9
$DIMCLRD
 70
   256
  9
$DIMCLRE
 70
   256
  9
$DIMCLRT
 70
   256
  9
$DIMTFAC
 40
1.0
  9
$DIMGAP
 40
0.09
  9
$DIMJUST
 70
     0
  9
$DIMSD1
 70
     0
  9
$DIMSD2
 70
     0
  9
$DIMTOLJ
 70
     1
  9
$DIMTZIN
 70
     0
  9
$DIMALTZ
 70
     0
  9
$DIMALTTZ
 70
     0
  9
$DIMUPT
 70
     0
  9
$DIMDEC
 70
     1
  9
$DIMTDEC
 70
     1
  9
$DIMALTU
 70
     2
  9
$DIMALTTD
 70
     2
  9
$DIMTXSTY
  7
ROMANS
  9
$DIMAUNIT
 70
     0
  9
$DIMADEC
 70
     0
  9
$DIMALTRND
 40
0.0
  9
$DIMAZIN
 70
     0
  9
$DIMDSEP
 70
    46
  9
$DIMATFIT
 70
     3
  9
$DIMFRAC
 70
     0
  9
$DIMLDRBLK
  1

  9
$DIMLUNIT
 70
     2
  9
$DIMLWD
 70
    -1
  9
$DIMLWE
 70
    -1
  9
$DIMTMOVE
 70
     0
  9
$LUNITS
 70
     2
  9
$LUPREC
 70
     4
  9
$SKETCHINC
 40
0.1
  9
$FILLETRAD
 40
0.0
  9
$AUNITS
 70
     0
  9
$AUPREC
 70
     0
  9
$MENU
  1
acad
  9
$ELEVATION
 40
0.0
  9
$PELEVATION
 40
0.0
  9
$THICKNESS
 40
0.0
  9
$LIMCHECK
 70
     0
  9
$CHAMFERA
 40
1.5
  9
$CHAMFERB
 40
1.5
  9
$CHAMFERC
 40
0.0
  9
$CHAMFERD
 40
0.0
  9
$SKPOLY
 70
     0
  9
$TDCREATE
 40
2449974.566112731
  9
$TDUCREATE
 40
2449974.816112731
  9
$TDUPDATE
 40
2452660.540928055
  9
$TDUUPDATE
 40
2452660.790928055
  9
$TDINDWG
 40
0.9920742477
  9
$TDUSRTIMER
 40
0.9920741319
  9
$USRTIMER
 70
     1
  9
$ANGBASE
 50
0.0
  9
$ANGDIR
 70
     0
  9
$PDMODE
 70
     0
  9
$PDSIZE
 40
0.0
  9
$PLINEWID
 40
0.0
  9
$SPLFRAME
 70
     0
  9
$SPLINETYPE
 70
     6
  9
$SPLINESEGS
 70
     8
  9
$HANDSEED
  5
E0
  9
$SURFTAB1
 70
     6
  9
$SURFTAB2
 70
     6
  9
$SURFTYPE
 70
     6
  9
$SURFU
 70
     6
  9
$SURFV
 70
     6
  9
$UCSBASE
  2

  9
$UCSNAME
  2

  9
$UCSORG
 10
0.0
 20
0.0
 30
0.0
  9
$UCSXDIR
 10
1.0
 20
0.0
 30
0.0
  9
$UCSYDIR
 10
0.0
 20
1.0
 30
0.0
  9
$UCSORTHOREF
  2

  9
$UCSORTHOVIEW
 70
     0
  9
$UCSORGTOP
 10
0.0
 20
0.0
 30
0.0
  9
$UCSORGBOTTOM
 10
0.0
 20
0.0
 30
0.0
  9
$UCSORGLEFT
 10
0.0
 20
0.0
 30
0.0
  9
$UCSORGRIGHT
 10
0.0
 20
0.0
 30
0.0
  9
$UCSORGFRONT
 10
0.0
 20
0.0
 30
0.0
  9
$UCSORGBACK
 10
0.0
 20
0.0
 30
0.0
  9
$PUCSBASE
  2

  9
$PUCSNAME
  2

  9
$PUCSORG
 10
0.0
 20
0.0
 30
0.0
  9
$PUCSXDIR
 10
1.0
 20
0.0
 30
0.0
  9
$PUCSYDIR
 10
0.0
 20
1.0
 30
0.0
  9
$PUCSORTHOREF
  2

  9
$PUCSORTHOVIEW
 70
     0
  9
$PUCSORGTOP
 10
0.0
 20
0.0
 30
0.0
  9
$PUCSORGBOTTOM
 10
0.0
 20
0.0
 30
0.0
  9
$PUCSORGLEFT
 10
0.0
 20
0.0
 30
0.0
  9
$PUCSORGRIGHT
 10
0.0
 20
0.0
 30
0.0
  9
$PUCSORGFRONT
 10
0.0
 20
0.0
 30
0.0
  9
$PUCSORGBACK
 10
0.0
 20
0.0
 30
0.0
  9
$USERI1
 70
     0
  9
$USERI2
 70
     0
  9
$USERI3
 70
     0
  9
$USERI4
 70
     0
  9
$USERI5
 70
     0
  9
$USERR1
 40
0.0
  9
$USERR2
 40
0.0
  9
$USERR3
 40
0.0
  9
$USERR4
 40
0.0
  9
$USERR5
 40
0.0
  9
$WORLDVIEW
 70
     1
  9
$SHADEDGE
 70
     3
  9
$SHADEDIF
 70
    70
  9
$TILEMODE
 70
     1
  9
$MAXACTVP
 70
    16
  9
$PINSBASE
 10
0.0
 20
0.0
 30
0.0
  9
$PLIMCHECK
 70
     0
  9
$PEXTMIN
 10
1.000000000000000E+20
 20
1.000000000000000E+20
 30
1.000000000000000E+20
  9
$PEXTMAX
 10
-1.000000000000000E+20
 20
-1.000000000000000E+20
 30
-1.000000000000000E+20
  9
$PLIMMIN
 10
0.0
 20
0.0
  9
$PLIMMAX
 10
12.0
 20
9.0
  9
$UNITMODE
 70
     0
  9
$VISRETAIN
 70
     0
  9
$PLINEGEN
 70
     0
  9
$PSLTSCALE
 70
     1
  9
$TREEDEPTH
 70
  3020
  9
$CMLSTYLE
  2
STANDARD
  9
$CMLJUST
 70
     0
  9
$CMLSCALE
 40
1.0
  9
$PROXYGRAPHICS
 70
     1
  9
$MEASUREMENT
 70
     0
  9
$CELWEIGHT
370
    -1
  9
$ENDCAPS
280
     0
  9
$JOINSTYLE
280
     0
  9
$LWDISPLAY
290
     0
  9
$INSUNITS
 70
     0
  9
$HYPERLINKBASE
  1

  9
$STYLESHEET
  1

  9
$XEDIT
290
     1
  9
$CEPSNTYPE
380
     0
  9
$PSTYLEMODE
290
     1
  9
$FINGERPRINTGUID
  2
{4D5DA658-6845-4251-8C46-F27E48E394BA}
  9
$VERSIONGUID
  2
{0F33ACBA-66C0-498F-8274-A6438B0AA3EF}
  9
$EXTNAMES
290
     1
  9
$PSVPSCALE
 40
0.0
  9
$OLESTARTUP
290
     0
  0
ENDSEC
  0
SECTION
  2
CLASSES
  0
CLASS
  1
DICTIONARYVAR
  2
AcDbDictionaryVar
  3
AutoCAD 2000
 90
        0
280
     0
281
     0
  0
CLASS
  1
LWPOLYLINE
  2
AcDbPolyline
  3
AutoCAD 2000
 90
    32768
280
     0
281
     1
  0
CLASS
  1
OLE2FRAME
  2
AcDbOle2Frame
  3
AutoCAD 2000
 90
    32768
280
     0
281
     1
  0
CLASS
  1
ACDBDICTIONARYWDFLT
  2
AcDbDictionaryWithDefault
  3
AutoCAD 2000
 90
        0
280
     0
281
     0
  0
CLASS
  1
ACDBPLACEHOLDER
  2
AcDbPlaceHolder
  3
AutoCAD 2000
 90
        0
280
     0
281
     0
  0
CLASS
  1
LAYOUT
  2
AcDbLayout
  3
AutoCAD 2000
 90
        0
280
     0
281
     0
  0
ENDSEC
  0
SECTION
  2
TABLES
  0
TABLE
  2
VPORT
  5
12
330
0
100
AcDbSymbolTable
 70
     2
  0
VPORT
  5
DF
330
12
100
AcDbSymbolTableRecord
100
AcDbViewportTableRecord
  2
*Active
 70
     0
 10
0.0
 20
0.0
 11
1.0
 21
1.0
 12
77.6753263879788
 22
28.49151059742053
 13
0.0
 23
0.0
 14
1.0
 24
1.0
 15
0.0
 25
0.0
 16
0.0
 26
0.0
 36
1.0
 17
0.0
 27
0.0
 37
0.0
 40
193.113956269432
 41
1.498756218905472
 42
50.0
 43
0.0
 44
0.0
 50
0.0
 51
0.0
 71
     0
 72
 10000
 73
     1
 74
     1
 75
     0
 76
     0
 77
     0
 78
     0
281
     0
 65
     1
110
0.0
120
0.0
130
0.0
111
1.0
121
0.0
131
0.0
112
0.0
122
1.0
132
0.0
 79
     0
146
0.0
  0
ENDTAB
  0
TABLE
  2
LTYPE
  5
D
330
0
100
AcDbSymbolTable
 70
     3
  0
LTYPE
  5
E
330
D
100
AcDbSymbolTableRecord
100
AcDbLinetypeTableRecord
  2
BYBLOCK
 70
     0
  3

 72
    65
 73
     0
 40
0.0
  0
LTYPE
  5
F
330
D
100
AcDbSymbolTableRecord
100
AcDbLinetypeTableRecord
  2
BYLAYER
 70
     0
  3

 72
    65
 73
     0
 40
0.0
  0
LTYPE
  5
5
330
D
100
AcDbSymbolTableRecord
100
AcDbLinetypeTableRecord
  2
CONTINUOUS
 70
     0
  3
Solid line
 72
    65
 73
     0
 40
0.0
  0
LTYPE
  5
29
330
D
100
AcDbSymbolTableRecord
100
AcDbLinetypeTableRecord
  2
HIDDEN
 70
     0
  3
_ _ _ _ _ _ _ _ _ _ _ _ _ _ _ _ _ _ _ _ _ _ _
 72
    65
 73
     2
 40
0.375
 49
0.25
 74
     0
 49
-0.125
 74
     0
  0
LTYPE
  5
21
330
D
100
AcDbSymbolTableRecord
100
AcDbLinetypeTableRecord
  2
CENTER
 70
     0
  3
____ _ ____ _ ____ _ ____ _ ____ _ ____ _ ____
 72
    65
 73
     4
 40
2.0
 49
1.25
 74
     0
 49
-0.25
 74
     0
 49
0.25
 74
     0
 49
-0.25
 74
     0
  0
ENDTAB
  0
TABLE
  2
LAYER
  5
A
330
0
100
AcDbSymbolTable
 70
     7
  0
LAYER
  5
4
330
A
100
AcDbSymbolTableRecord
100
AcDbLayerTableRecord
  2
0
 70
     0
 62
     7
  6
CONTINUOUS
370
    -3
390
66
  0
LAYER
  5
1B
330
A
100
AcDbSymbolTableRecord
100
AcDbLayerTableRecord
  2
LINE
 70
     0
 62
     3
  6
CONTINUOUS
370
    -3
390
66
  0
LAYER
  5
28
330
A
100
AcDbSymbolTableRecord
100
AcDbLayerTableRecord
  2
HIDDEN
 70
     0
 62
     2
  6
HIDDEN
370
    -3
390
66
  0
LAYER
  5
20
330
A
100
AcDbSymbolTableRecord
100
AcDbLayerTableRecord
  2
CTRL
 70
     0
 62
     1
  6
CENTER
370
    -3
390
66
  0
LAYER
  5
76
330
A
100
AcDbSymbolTableRecord
100
AcDbLayerTableRecord
  2
KA
 70
     0
 62
     3
  6
CONTINUOUS
370
    -3
390
66
  0
LAYER
  5
77
330
A
100
AcDbSymbolTableRecord
100
AcDbLayerTableRecord
  2
DIM
 70
     0
 62
     7
  6
CONTINUOUS
370
    -3
390
66
  0
LAYER
  5
79
330
A
100
AcDbSymbolTableRecord
100
AcDbLayerTableRecord
  2
Defpoints
 70
     0
 62
     7
  6
CONTINUOUS
290
     0
370
    -3
390
66
  0
ENDTAB
  0
TABLE
  2
STYLE
  5
B
330
0
100
AcDbSymbolTable
 70
     2
  0
STYLE
  5
C
330
B
100
AcDbSymbolTableRecord
100
AcDbTextStyleTableRecord
  2
STANDARD
 70
     0
 40
0.0
 41
1.0
 50
0.0
 71
     0
 42
0.2
  3
txt
  4

  0
STYLE
  5
1C
330
B
100
AcDbSymbolTableRecord
100
AcDbTextStyleTableRecord
  2
ROMANS
 70
     0
 40
0.0
 41
1.0
 50
0.0
 71
     0
 42
5.0
  3
romans
  4

  0
ENDTAB
  0
TABLE
  2
VIEW
  5
10
330
0
100
AcDbSymbolTable
 70
     0
  0
ENDTAB
  0
TABLE
  2
UCS
  5
11
330
0
100
AcDbSymbolTable
 70
     0
  0
ENDTAB
  0
TABLE
  2
APPID
  5
14
330
0
100
AcDbSymbolTable
 70
     1
  0
APPID
  5
15
330
14
100
AcDbSymbolTableRecord
100
AcDbRegAppTableRecord
  2
ACAD
 70
     0
  0
ENDTAB
  0
TABLE
  2
DIMSTYLE
  5
16
330
0
100
AcDbSymbolTable
 70
     1
100
AcDbDimStyleTable
 71
     1
340
1E
  0
DIMSTYLE
105
1E
102
{ACAD_REACTORS
330
78
330
8F
330
9C
102
}
330
16
100
AcDbSymbolTableRecord
100
AcDbDimStyleTableRecord
  2
STANDARD
 70
     0
 40
25.0
 73
     0
 74
     0
 77
     1
176
   256
177
   256
178
   256
271
     1
272
     1
340
1C
371
    -1
372
    -1
  0
ENDTAB
  0
TABLE
  2
BLOCK_RECORD
  5
1
330
0
100
AcDbSymbolTable
 70
     3
  0
BLOCK_RECORD
  5
2
330
1
100
AcDbSymbolTableRecord
100
AcDbBlockTableRecord
  2
*MODEL_SPACE
340
69
  0
BLOCK_RECORD
  5
7
330
1
100
AcDbSymbolTableRecord
100
AcDbBlockTableRecord
  2
*PAPER_SPACE
340
6A
  0
BLOCK_RECORD
  5
7A
330
1
100
AcDbSymbolTableRecord
100
AcDbBlockTableRecord
  2
*D0
340
0
  0
BLOCK_RECORD
  5
90
330
1
100
AcDbSymbolTableRecord
100
AcDbBlockTableRecord
  2
*D1
340
0
  0
BLOCK_RECORD
  5
9D
330
1
100
AcDbSymbolTableRecord
100
AcDbBlockTableRecord
  2
*D2
340
0
  0
ENDTAB
  0
ENDSEC
  0
SECTION
  2
BLOCKS
  0
BLOCK
  5
3
330
2
100
AcDbEntity
  8
0
100
AcDbBlockBegin
  2
*MODEL_SPACE
 70
     0
 10
0.0
 20
0.0
 30
0.0
  3
*MODEL_SPACE
  1

  0
ENDBLK
  5
6
330
2
100
AcDbEntity
  8
0
100
AcDbBlockEnd
  0
BLOCK
  5
8
330
7
100
AcDbEntity
 67
     1
  8
0
100
AcDbBlockBegin
  2
*PAPER_SPACE
 70
     0
 10
0.0
 20
0.0
 30
0.0
  3
*PAPER_SPACE
  1

  0
ENDBLK
  5
9
330
7
100
AcDbEntity
 67
     1
  8
0
100
AcDbBlockEnd
  0
BLOCK
  5
84
330
7A
100
AcDbEntity
  8
0
 62
     3
100
AcDbBlockBegin
  2
*D0
 70
     1
 10
0.0
 20
0.0
 30
0.0
  3
*D0
  1

  0
LINE
  5
D6
330
7A
100
AcDbEntity
  8
DIM
100
AcDbLine
 10
-50.01259999999991
 20
23.13948456116031
 30
0.0
 11
-50.0125999999999
 21
99.74102119483996
 31
0.0
  0
LINE
  5
D7
330
7A
100
AcDbEntity
  8
DIM
100
AcDbLine
 10
180.0000000000001
 20
45.52050000000145
 30
0.0
 11
180.0000000000001
 21
99.74102119483996
 31
0.0
  0
LINE
  5
D8
330
7A
100
AcDbEntity
  8
DIM
100
AcDbLine
 10
-45.5125999999999
 20
95.24102119483996
 30
0.0
 11
175.5000000000001
 21
95.24102119483996
 31
0.0
  0
SOLID
  5
D9
330
7A
100
AcDbEntity
  8
DIM
100
AcDbTrace
 10
-45.5125999999999
 20
95.99102119483996
 30
0.0
 11
-45.5125999999999
 21
94.49102119483995
 31
0.0
 12
-50.0125999999999
 22
95.24102119483996
 32
0.0
 13
-50.0125999999999
 23
95.24102119483996
 33
0.0
  0
SOLID
  5
DA
330
7A
100
AcDbEntity
  8
DIM
100
AcDbTrace
 10
175.5000000000001
 20
95.99102119483996
 30
0.0
 11
175.5000000000001
 21
94.49102119483995
 31
0.0
 12
180.0000000000001
 22
95.24102119483996
 32
0.0
 13
180.0000000000001
 23
95.24102119483996
 33
0.0
  0
MTEXT
  5
DB
330
7A
100
AcDbEntity
  8
DIM
100
AcDbMText
 10
64.99370000000013
 20
99.74102119483996
 30
0.0
 40
4.5
 41
0.0
 71
     5
 72
     1
  1
\A1;230.0
  7
ROMANS
 73
     1
 44
1.0
  0
POINT
  5
DC
330
7A
100
AcDbEntity
  8
Defpoints
 62
     0
100
AcDbPoint
 10
-50.01259999999991
 20
21.57698456116031
 30
0.0
  0
POINT
  5
DD
330
7A
100
AcDbEntity
  8
Defpoints
 62
     0
100
AcDbPoint
 10
180.0000000000001
 20
43.95800000000145
 30
0.0
  0
POINT
  5
DE
330
7A
100
AcDbEntity
  8
Defpoints
 62
     0
100
AcDbPoint
 10
180.0000000000001
 20
95.24102119483996
 30
0.0
  0
ENDBLK
  5
85
330
7A
100
AcDbEntity
  8
0
 62
     3
100
AcDbBlockEnd
  0
BLOCK
  5
9A
330
90
100
AcDbEntity
  8
0
 62
     3
100
AcDbBlockBegin
  2
*D1
 70
     1
 10
0.0
 20
0.0
 30
0.0
  3
*D1
  1

  0
LINE
  5
CD
330
90
100
AcDbEntity
  8
DIM
100
AcDbLine
 10
0.0000000000000001
 20
45.56800000000111
 30
0.0
 11
0.0000000000000017
 21
72.11267421003777
 31
0.0
  0
LINE
  5
CE
330
90
100
AcDbEntity
  8
DIM
100
AcDbLine
 10
180.0000000000001
 20
45.52050000000145
 30
0.0
 11
180.0000000000001
 21
72.11267421003777
 31
0.0
  0
LINE
  5
CF
330
90
100
AcDbEntity
  8
DIM
100
AcDbLine
 10
4.500000000000001
 20
67.61267421003776
 30
0.0
 11
175.5000000000001
 21
67.61267421003776
 31
0.0
  0
SOLID
  5
D0
330
90
100
AcDbEntity
  8
DIM
100
AcDbTrace
 10
4.500000000000001
 20
68.36267421003777
 30
0.0
 11
4.500000000000001
 21
66.86267421003776
 31
0.0
 12
0.0000000000000014
 22
67.61267421003776
 32
0.0
 13
0.0000000000000014
 23
67.61267421003776
 33
0.0
  0
SOLID
  5
D1
330
90
100
AcDbEntity
  8
DIM
100
AcDbTrace
 10
175.5000000000001
 20
68.36267421003777
 30
0.0
 11
175.5000000000001
 21
66.86267421003776
 31
0.0
 12
180.0000000000001
 22
67.61267421003776
 32
0.0
 13
180.0000000000001
 23
67.61267421003776
 33
0.0
  0
MTEXT
  5
D2
330
90
100
AcDbEntity
  8
DIM
100
AcDbMText
 10
90.00000000000008
 20
72.11267421003777
 30
0.0
 40
4.5
 41
0.0
 71
     5
 72
     1
  1
\A1;180.0
  7
ROMANS
 73
     1
 44
1.0
  0
POINT
  5
D3
330
90
100
AcDbEntity
  8
Defpoints
 62
     0
100
AcDbPoint
 10
0.0
 20
44.00550000000111
 30
0.0
  0
POINT
  5
D4
330
90
100
AcDbEntity
  8
Defpoints
 62
     0
100
AcDbPoint
 10
180.0000000000001
 20
43.95800000000145
 30
0.0
  0
POINT
  5
D5
330
90
100
AcDbEntity
  8
Defpoints
 62
     0
100
AcDbPoint
 10
180.0000000000001
 20
67.61267421003776
 30
0.0
  0
ENDBLK
  5
9B
330
90
100
AcDbEntity
  8
0
 62
     3
100
AcDbBlockEnd
  0
BLOCK
  5
A7
330
9D
100
AcDbEntity
  8
0
 62
     3
100
AcDbBlockBegin
  2
*D2
 70
     1
 10
0.0
 20
0.0
 30
0.0
  3
*D2
  1

  0
LINE
  5
C4
330
9D
100
AcDbEntity
  8
DIM
100
AcDbLine
 10
180.5625000000001
 20
45.00800000000163
 30
0.0
 11
221.6745798094503
 21
45.00800000000162
 31
0.0
  0
LINE
  5
C5
330
9D
100
AcDbEntity
  8
DIM
100
AcDbLine
 10
180.5625000000001
 20
-45.00799999999799
 30
0.0
 11
221.6745798094503
 21
-45.007999999998
 31
0.0
  0
LINE
  5
C6
330
9D
100
AcDbEntity
  8
DIM
100
AcDbLine
 10
217.1745798094503
 20
40.50800000000162
 30
0.0
 11
217.1745798094503
 21
-40.50799999999799
 31
0.0
  0
SOLID
  5
C7
330
9D
100
AcDbEntity
  8
DIM
100
AcDbTrace
 10
216.4245798094503
 20
40.50800000000162
 30
0.0
 11
217.9245798094503
 21
40.50800000000162
 31
0.0
 12
217.1745798094503
 22
45.00800000000162
 32
0.0
 13
217.1745798094503
 23
45.00800000000162
 33
0.0
  0
SOLID
  5
C8
330
9D
100
AcDbEntity
  8
DIM
100
AcDbTrace
 10
216.4245798094503
 20
-40.50799999999799
 30
0.0
 11
217.9245798094503
 21
-40.50799999999799
 31
0.0
 12
217.1745798094503
 22
-45.007999999998
 32
0.0
 13
217.1745798094503
 23
-45.007999999998
 33
0.0
  0
MTEXT
  5
C9
330
9D
100
AcDbEntity
  8
DIM
100
AcDbMText
 10
212.6745798094503
 20
0.0000000000018489
 30
0.0
 40
4.5
 41
0.0
 71
     5
 72
     1
  1
\A1;%%c90.0
  7
ROMANS
 11
0.0000000000000001
 21
1.0
 31
0.0
 73
     1
 44
1.0
  0
POINT
  5
CA
330
9D
100
AcDbEntity
  8
Defpoints
 62
     0
100
AcDbPoint
 10
179.0000000000001
 20
45.00800000000163
 30
0.0
  0
POINT
  5
CB
330
9D
100
AcDbEntity
  8
Defpoints
 62
     0
100
AcDbPoint
 10
179.0000000000001
 20
-45.00799999999799
 30
0.0
  0
POINT
  5
CC
330
9D
100
AcDbEntity
  8
Defpoints
 62
     0
100
AcDbPoint
 10
217.1745798094503
 20
-45.007999999998
 30
0.0
  0
ENDBLK
  5
A8
330
9D
100
AcDbEntity
  8
0
 62
     3
100
AcDbBlockEnd
  0
ENDSEC
  0
SECTION
  2
ENTITIES
  0
LINE
  5
1F
330
2
100
AcDbEntity
  8
CTRL
100
AcDbLine
 10
196.84966415181
 20
0.0000000000027285
 30
0.0
 11
-66.32392703349271
 21
0.0
 31
0.0
  0
LINE
  5
22
330
2
100
AcDbEntity
  8
LINE
100
AcDbLine
 10
9.207500000000095
 20
45.00800000000163
 30
0.0
 11
179.0000000000001
 21
45.00800000000163
 31
0.0
  0
LINE
  5
23
330
2
100
AcDbEntity
  8
LINE
100
AcDbLine
 10
9.207500000000095
 20
-45.0079999999989
 30
0.0
 11
179.0000000000001
 21
-45.00799999999799
 31
0.0
  0
ARC
  5
24
330
2
100
AcDbEntity
  8
KA
100
AcDbCircle
 10
-6.354121788592692
 20
-26.99999999999909
 30
0.0
 40
1.0
100
AcDbArc
 50
270.0
 51
329.9999999999998
  0
ARC
  5
25
330
2
100
AcDbEntity
  8
KA
100
AcDbCircle
 10
-6.354121788592692
 20
27.0
 30
0.0
 40
1.0
100
AcDbArc
 50
30.00000000000005
 51
90.0
  0
ARC
  5
26
330
2
100
AcDbEntity
  8
KA
100
AcDbCircle
 10
-11.71392929764982
 20
-101.1261991620131
 30
0.0
 40
78.6592638919996
100
AcDbArc
 50
83.54453649793866
 51
96.67230445581521
  0
LINE
  5
27
330
2
100
AcDbEntity
  8
HIDDEN
100
AcDbLine
 10
-2.870200000000011
 20
-11.50620000000071
 30
0.0
 11
-49.30869455180403
 21
-11.50619999999889
 31
0.0
  0
LINE
  5
2A
330
2
100
AcDbEntity
  8
HIDDEN
100
AcDbLine
 10
-2.870199999999897
 20
11.50620000000071
 30
0.0
 11
-49.30869455180385
 21
11.50620000000071
 31
0.0
  0
ARC
  5
2B
330
2
100
AcDbEntity
  8
KA
100
AcDbCircle
 10
-11.71392929764982
 20
101.1261991620121
 30
0.0
 40
78.6592638919996
100
AcDbArc
 50
263.3276955441846
 51
276.4554635020613
  0
LINE
  5
2C
330
2
100
AcDbEntity
  8
KA
100
AcDbLine
 10
-20.85339999999991
 20
-22.99969999999939
 30
0.0
 11
-44.01819999999992
 21
-22.99969999999939
 31
0.0
  0
LINE
  5
2D
330
2
100
AcDbEntity
  8
KA
100
AcDbLine
 10
-20.85339999999991
 20
22.99969999999939
 30
0.0
 11
-44.01819999999992
 21
22.99969999999939
 31
0.0
  0
LINE
  5
2E
330
2
100
AcDbEntity
  8
KA
100
AcDbLine
 10
-50.01259999999991
 20
-21.57698456116213
 30
0.0
 11
-50.01259999999991
 21
0.0
 31
0.0
  0
LINE
  5
2F
330
2
100
AcDbEntity
  8
KA
100
AcDbLine
 10
-44.01819999999992
 20
-22.99969999999939
 30
0.0
 11
-44.01820000000003
 21
0.0
 31
0.0
  0
LINE
  5
30
330
2
100
AcDbEntity
  8
KA
100
AcDbLine
 10
-44.01819999999992
 20
-22.99969999999939
 30
0.0
 11
-47.35389520712703
 21
-22.53089861127682
 31
0.0
  0
LINE
  5
31
330
2
100
AcDbEntity
  8
KA
100
AcDbLine
 10
-48.61149880550112
 20
-22.75264805670667
 30
0.0
 11
-47.35389520712703
 21
-22.53089861127682
 31
0.0
  0
ARC
  5
32
330
2
100
AcDbEntity
  8
KA
100
AcDbCircle
 10
-48.8187999999999
 20
-21.57698456116213
 30
0.0
 40
1.193799999999998
100
AcDbArc
 50
179.9999999999999
 51
279.9999999999998
  0
LINE
  5
33
330
2
100
AcDbEntity
  8
KA
100
AcDbLine
 10
-47.35389520712703
 20
-22.53089861127682
 30
0.0
 11
-47.35389520712709
 21
0.0
 31
0.0
  0
LINE
  5
34
330
2
100
AcDbEntity
  8
HIDDEN
100
AcDbLine
 10
-50.01260000000002
 20
-11.91259999999874
 30
0.0
 11
-49.30869455180403
 21
-11.50619999999889
 31
0.0
  0
LINE
  5
35
330
2
100
AcDbEntity
  8
HIDDEN
100
AcDbLine
 10
-49.30869455180403
 20
-11.50619999999889
 30
0.0
 11
-49.30869455180385
 21
0.0
 31
0.0
  0
LINE
  5
36
330
2
100
AcDbEntity
  8
HIDDEN
100
AcDbLine
 10
-49.30869455180385
 20
11.50620000000071
 30
0.0
 11
-49.30869455180385
 21
0.0
 31
0.0
  0
LINE
  5
37
330
2
100
AcDbEntity
  8
HIDDEN
100
AcDbLine
 10
-50.01259999999991
 20
11.91260000000147
 30
0.0
 11
-49.30869455180385
 21
11.50620000000071
 31
0.0
  0
LINE
  5
38
330
2
100
AcDbEntity
  8
KA
100
AcDbLine
 10
-47.35389520712703
 20
22.53089861127864
 30
0.0
 11
-47.35389520712709
 21
0.0
 31
0.0
  0
ARC
  5
39
330
2
100
AcDbEntity
  8
KA
100
AcDbCircle
 10
-48.8187999999999
 20
21.57698456116031
 30
0.0
 40
1.193799999999998
100
AcDbArc
 50
80.00000000000017
 51
179.9999999999999
  0
LINE
  5
3A
330
2
100
AcDbEntity
  8
KA
100
AcDbLine
 10
-48.61149880550112
 20
22.75264805670849
 30
0.0
 11
-47.35389520712703
 21
22.53089861127864
 31
0.0
  0
LINE
  5
3B
330
2
100
AcDbEntity
  8
KA
100
AcDbLine
 10
-44.01819999999992
 20
22.99969999999939
 30
0.0
 11
-47.35389520712703
 21
22.53089861127864
 31
0.0
  0
LINE
  5
3C
330
2
100
AcDbEntity
  8
KA
100
AcDbLine
 10
-44.01819999999992
 20
22.99969999999939
 30
0.0
 11
-44.01820000000003
 21
0.0
 31
0.0
  0
LINE
  5
3D
330
2
100
AcDbEntity
  8
KA
100
AcDbLine
 10
-50.01259999999991
 20
21.57698456116122
 30
0.0
 11
-50.01259999999991
 21
0.0
 31
0.0
  0
CIRCLE
  5
3E
330
2
100
AcDbEntity
  8
KA
100
AcDbCircle
 10
-18.21180000000003
 20
0.0
 30
0.0
 40
7.505699999999999
  0
LWPOLYLINE
  5
3F
330
2
100
AcDbEntity
  8
KA
100
AcDbPolyline
 90
       16
 70
     1
 43
0.0
 10
-8.843450454191099
 20
0.0
 42
0.1113810197097913
 10
-9.535243887633214
 20
3.067000246531279
 42
0.1029292064274467
 10
-11.58737650763259
 20
5.773006941621133
 42
0.0928680201097104
 10
-14.56998702290752
 20
7.527082589306701
 42
0.0868220045629864
 10
-18.21180000000003
 20
8.164264712514523
 42
0.0868220045629844
 10
-21.85361297709238
 20
7.527082589306701
 42
0.092868020109711
 10
-24.83622349236736
 20
5.773006941621133
 42
0.1029292064274487
 10
-26.88835611236686
 20
3.067000246531279
 42
0.1113810197097934
 10
-27.58014954580886
 20
0.0
 42
0.1113810197097798
 10
-26.88835611236686
 20
-3.067000246530369
 42
0.102929206427444
 10
-24.83622349236736
 20
-5.773006941621133
 42
0.0928680201097111
 10
-21.85361297709238
 20
-7.527082589305791
 42
0.0868220045629863
 10
-18.21180000000003
 20
-8.164264712514523
 42
0.0868220045629855
 10
-14.56998702290758
 20
-7.527082589305791
 42
0.092868020109711
 10
-11.58737650763259
 20
-5.773006941621133
 42
0.1029292064274494
 10
-9.535243887633214
 20
-3.067000246530369
 42
0.1113810197097874
  0
LINE
  5
40
330
2
100
AcDbEntity
  8
KA
100
AcDbLine
 10
-6.354121788592692
 20
-27.99999999999909
 30
0.0
 11
-17.36947821140739
 21
-27.99999999999909
 31
0.0
  0
ARC
  5
41
330
2
100
AcDbEntity
  8
KA
100
AcDbCircle
 10
-17.36947821140739
 20
-26.99999999999909
 30
0.0
 40
1.0
100
AcDbArc
 50
210.0
 51
270.0
  0
LINE
  5
42
330
2
100
AcDbEntity
  8
KA
100
AcDbLine
 10
-20.85340000000002
 20
-22.96567045256142
 30
0.0
 11
-18.2355036151917
 21
-27.5
 31
0.0
  0
LINE
  5
43
330
2
100
AcDbEntity
  8
KA
100
AcDbLine
 10
-20.85340000000002
 20
7.025488020771263
 30
0.0
 11
-20.85340000000002
 21
-7.025488020772172
 31
0.0
  0
LINE
  5
44
330
2
100
AcDbEntity
  8
KA
100
AcDbLine
 10
-20.85340000000002
 20
22.96567045256142
 30
0.0
 11
-18.2355036151917
 21
27.50000000000091
 31
0.0
  0
ARC
  5
45
330
2
100
AcDbEntity
  8
KA
100
AcDbCircle
 10
-17.36947821140739
 20
27.0
 30
0.0
 40
1.0
100
AcDbArc
 50
90.0
 51
149.9999999999999
  0
LINE
  5
46
330
2
100
AcDbEntity
  8
KA
100
AcDbLine
 10
-6.354121788592692
 20
28.00000000000091
 30
0.0
 11
-17.36947821140739
 21
28.00000000000091
 31
0.0
  0
LINE
  5
47
330
2
100
AcDbEntity
  8
KA
100
AcDbLine
 10
-2.870199999999897
 20
-22.96567045256142
 30
0.0
 11
-5.488096384808216
 21
-27.5
 31
0.0
  0
LINE
  5
48
330
2
100
AcDbEntity
  8
KA
100
AcDbLine
 10
-2.870199999999897
 20
22.96567045256142
 30
0.0
 11
-5.488096384808216
 21
27.50000000000091
 31
0.0
  0
LINE
  5
49
330
2
100
AcDbEntity
  8
LINE
100
AcDbLine
 10
-0.0000000000000568
 20
-44.05550000000039
 30
0.0
 11
0.0
 21
0.0
 31
0.0
  0
LINE
  5
4A
330
2
100
AcDbEntity
  8
LINE
100
AcDbLine
 10
9.207500000000095
 20
-45.0079999999989
 30
0.0
 11
0.9524999999999863
 21
-45.0079999999989
 31
0.0
  0
LINE
  5
4B
330
2
100
AcDbEntity
  8
LINE
100
AcDbLine
 10
0.0
 20
-44.05550000000039
 30
0.0
 11
0.9524999999999863
 21
-45.0079999999989
 31
0.0
  0
LINE
  5
4C
330
2
100
AcDbEntity
  8
LINE
100
AcDbLine
 10
0.9524999999999295
 20
-45.0079999999989
 30
0.0
 11
0.9524999999999863
 21
0.0
 31
0.0
  0
LINE
  5
4D
330
2
100
AcDbEntity
  8
KA
100
AcDbLine
 10
-2.997199999999907
 20
-22.95140510163491
 30
0.0
 11
-2.99720000000002
 21
0.0
 31
0.0
  0
LINE
  5
4E
330
2
100
AcDbEntity
  8
KA
100
AcDbLine
 10
-2.870199999999897
 20
-22.96567045256142
 30
0.0
 11
0.0
 21
-22.19660268044481
 31
0.0
  0
LINE
  5
4F
330
2
100
AcDbEntity
  8
HIDDEN
100
AcDbLine
 10
-2.006600000000048
 20
-11.50620000000071
 30
0.0
 11
-2.870200000000011
 21
-11.50620000000071
 31
0.0
  0
LINE
  5
50
330
2
100
AcDbEntity
  8
HIDDEN
100
AcDbLine
 10
-2.006600000000048
 20
-11.50620000000071
 30
0.0
 11
-2.006600000000048
 21
0.0
 31
0.0
  0
LINE
  5
51
330
2
100
AcDbEntity
  8
HIDDEN
100
AcDbLine
 10
-2.006600000000048
 20
-11.50620000000071
 30
0.0
 11
4.63650766734969
 21
0.0
 31
0.0
  0
LINE
  5
52
330
2
100
AcDbEntity
  8
HIDDEN
100
AcDbLine
 10
-2.006600000000048
 20
11.50620000000071
 30
0.0
 11
4.63650766734969
 21
0.0
 31
0.0
  0
LINE
  5
53
330
2
100
AcDbEntity
  8
HIDDEN
100
AcDbLine
 10
-2.006600000000048
 20
11.50620000000071
 30
0.0
 11
-2.006600000000048
 21
0.0
 31
0.0
  0
LINE
  5
54
330
2
100
AcDbEntity
  8
HIDDEN
100
AcDbLine
 10
-2.006600000000048
 20
11.50620000000071
 30
0.0
 11
-2.870200000000011
 21
11.50620000000071
 31
0.0
  0
LINE
  5
55
330
2
100
AcDbEntity
  8
KA
100
AcDbLine
 10
-2.870199999999897
 20
22.96567045256142
 30
0.0
 11
0.0
 21
22.19660268044481
 31
0.0
  0
LINE
  5
56
330
2
100
AcDbEntity
  8
KA
100
AcDbLine
 10
-2.99720000000002
 20
22.951405101634
 30
0.0
 11
-2.99720000000002
 21
0.0
 31
0.0
  0
LINE
  5
57
330
2
100
AcDbEntity
  8
LINE
100
AcDbLine
 10
0.9524999999999863
 20
45.00799999999981
 30
0.0
 11
0.9524999999999863
 21
0.0
 31
0.0
  0
LINE
  5
58
330
2
100
AcDbEntity
  8
LINE
100
AcDbLine
 10
0.0
 20
44.0555000000013
 30
0.0
 11
0.9524999999999863
 21
45.00800000000071
 31
0.0
  0
LINE
  5
59
330
2
100
AcDbEntity
  8
LINE
100
AcDbLine
 10
9.207499999999981
 20
45.00800000000071
 30
0.0
 11
0.9524999999999863
 21
45.00800000000071
 31
0.0
  0
LINE
  5
5A
330
2
100
AcDbEntity
  8
LINE
100
AcDbLine
 10
0.0
 20
44.0555000000013
 30
0.0
 11
0.0
 21
0.0
 31
0.0
  0
LINE
  5
5B
330
2
100
AcDbEntity
  8
LINE
100
AcDbLine
 10
179.0000000000001
 20
-45.00799999999708
 30
0.0
 11
179.0000000000001
 21
45.00800000000163
 31
0.0
  0
LINE
  5
5C
330
2
100
AcDbEntity
  8
LINE
100
AcDbLine
 10
179.0000000000001
 20
-45.00799999999708
 30
0.0
 11
180.0000000000001
 21
-44.00799999999708
 31
0.0
  0
LINE
  5
5D
330
2
100
AcDbEntity
  8
LINE
100
AcDbLine
 10
179.0000000000001
 20
45.00800000000163
 30
0.0
 11
180.0000000000001
 21
44.00800000000162
 31
0.0
  0
LINE
  5
5E
330
2
100
AcDbEntity
  8
LINE
100
AcDbLine
 10
180.0000000000001
 20
-44.00799999999708
 30
0.0
 11
180.0000000000001
 21
44.00800000000072
 31
0.0
  0
DIMENSION
  5
78
330
2
100
AcDbEntity
  8
DIM
 62
     3
100
AcDbDimension
  2
*D0
 10
180.0000000000001
 20
95.24102119483996
 30
0.0
 11
64.99370000000013
 21
99.74102119483996
 31
0.0
 70
    32
 71
     5
 42
230.0126000000001
  3
STANDARD
100
AcDbAlignedDimension
 13
-50.01259999999991
 23
21.57698456116031
 33
0.0
 14
180.0000000000001
 24
43.95800000000145
 34
0.0
100
AcDbRotatedDimension
  0
DIMENSION
  5
8F
330
2
100
AcDbEntity
  8
DIM
 62
     3
100
AcDbDimension
  2
*D1
 10
180.0000000000001
 20
67.61267421003776
 30
0.0
 11
90.00000000000008
 21
72.11267421003777
 31
0.0
 70
    32
 71
     5
 42
180.0000000000001
  3
STANDARD
100
AcDbAlignedDimension
 13
0.0
 23
44.00550000000111
 33
0.0
 14
180.0000000000001
 24
43.95800000000145
 34
0.0
100
AcDbRotatedDimension
  0
DIMENSION
  5
9C
330
2
100
AcDbEntity
  8
DIM
 62
     3
100
AcDbDimension
  2
*D2
 10
217.1745798094503
 20
-45.007999999998
 30
0.0
 11
212.6745798094503
 21
0.0000000000018489
 31
0.0
 70
    32
  1
%%c<>
 71
     5
 42
90.01599999999962
  3
STANDARD
100
AcDbAlignedDimension
 13
179.0000000000001
 23
45.00800000000163
 33
0.0
 14
179.0000000000001
 24
-45.00799999999799
 34
0.0
 50
90.0
100
AcDbRotatedDimension
  0
ENDSEC
  0
SECTION
  2
OBJECTS
  0
DICTIONARY
  5
1A
330
0
100
AcDbDictionary
281
     1
  3
ACAD_GROUP
350
18
  3
ACAD_LAYOUT
350
67
  3
ACAD_MLINESTYLE
350
19
  3
ACAD_PLOTSETTINGS
350
68
  3
ACAD_PLOTSTYLENAME
350
65
  3
AcDbVariableDictionary
350
6E
  0
DICTIONARY
  5
18
102
{ACAD_REACTORS
330
1A
102
}
330
1A
100
AcDbDictionary
281
     1
  0
DICTIONARY
  5
67
102
{ACAD_REACTORS
330
1A
102
}
330
1A
100
AcDbDictionary
281
     1
  3
Layout1
350
6A
  3
Model
350
69
  0
DICTIONARY
  5
19
102
{ACAD_REACTORS
330
1A
102
}
330
1A
100
AcDbDictionary
281
     1
  3
STANDARD
350
1D
  0
DICTIONARY
  5
68
102
{ACAD_REACTORS
330
1A
102
}
330
1A
100
AcDbDictionary
281
     1
  0
ACDBDICTIONARYWDFLT
  5
65
102
{ACAD_REACTORS
330
1A
102
}
330
1A
100
AcDbDictionary
281
     1
  3
Normal
350
66
100
AcDbDictionaryWithDefault
340
66
  0
DICTIONARY
  5
6E
102
{ACAD_REACTORS
330
1A
102
}
330
1A
100
AcDbDictionary
281
     1
  3
DIMASSOC
350
6F
  0
LAYOUT
  5
6A
102
{ACAD_REACTORS
330
67
102
}
330
67
100
AcDbPlotSettings
  1

  2
\\PRINT_SRV\HP LaserJet (Engineering)
  4

  6

 40
0.0
 41
0.0
 42
0.0
 43
0.0
 44
0.0
 45
0.0
 46
0.0
 47
0.0
 48
0.0
 49
0.0
140
0.0
141
0.0
142
1.0
143
1.0
 70
   688
 72
     0
 73
     0
 74
     5
  7
KPT.ctb
 75
    16
147
1.0
148
0.0
149
0.0
100
AcDbLayout
  1
Layout1
 70
     1
 71
     1
 10
0.0
 20
0.0
 11
12.0
 21
9.0
 12
0.0
 22
0.0
 32
0.0
 14
1.000000000000000E+20
 24
1.000000000000000E+20
 34
1.000000000000000E+20
 15
-1.000000000000000E+20
 25
-1.000000000000000E+20
 35
-1.000000000000000E+20
146
0.0
 13
0.0
 23
0.0
 33
0.0
 16
1.0
 26
0.0
 36
0.0
 17
0.0
 27
1.0
 37
0.0
 76
     0
330
7
  0
LAYOUT
  5
69
102
{ACAD_REACTORS
330
67
102
}
330
67
100
AcDbPlotSettings
  1

  2
\\PRINT_SRV\HP LaserJet (Engineering)
  4

  6

 40
0.0
 41
0.0
 42
0.0
 43
0.0
 44
0.0
 45
0.0
 46
0.0
 47
0.0
 48
0.0
 49
0.0
140
0.0
141
0.0
142
1.0
143
1.0
 70
  1712
 72
     0
 73
     0
 74
     0
  7
KPT.ctb
 75
     0
147
1.0
148
0.0
149
0.0
100
AcDbLayout
  1
Model
 70
     1
 71
     0
 10
0.0
 20
0.0
 11
12.0
 21
9.0
 12
0.0
 22
0.0
 32
0.0
 14
0.0
 24
0.0
 34
0.0
 15
0.0
 25
0.0
 35
0.0
146
0.0
 13
0.0
 23
0.0
 33
0.0
 16
1.0
 26
0.0
 36
0.0
 17
0.0
 27
1.0
 37
0.0
 76
     0
330
2
  0
MLINESTYLE
  5
1D
102
{ACAD_REACTORS
330
19
102
}
330
19
100
AcDbMlineStyle
  2
STANDARD
 70
     0
  3

 62
   256
 51
90.0
 52
90.0
 71
     2
 49
0.5
 62
   256
  6
BYLAYER
 49
-0.5
 62
   256
  6
BYLAYER
  0
ACDBPLACEHOLDER
  5
66
102
{ACAD_REACTORS
330
65
102
}
330
65
  0
DICTIONARYVAR
  5
6F
102
{ACAD_REACTORS
330
6E
102
}
330
6E
100
DictionaryVariables
280
     0
  1
1
  0
ENDSEC
  0
EOF
