  0
SECTION
  2
HEADER
  9
$ACADVER
  1
AC1015
  9
$ACADMAINTVER
 70
    13
  9
$DWGCODEPAGE
  3
ANSI_1252
  9
$INSBASE
 10
489.5000345337146
 20
-4106.120357866243
 30
0.0
  9
$EXTMIN
 10
-71.74672733843333
 20
-50.79999999999383
 30
0.0
  9
$EXTMAX
 10
266.7344676287486
 20
93.44136089956192
 30
0.0
  9
$LIMMIN
 10
0.0
 20
0.0
  9
$LIMMAX
 10
12.0
 20
9.0
  9
$ORTHOMODE
 70
     1
  9
$REGENMODE
 70
     1
  9
$FILLMODE
 70
     1
  9
$QTEXTMODE
 70
     0
  9
$MIRRTEXT
 70
     0
  9
$LTSCALE
 40
10.0
  9
$ATTMODE
 70
     1
  9
$TEXTSIZE
 40
5.0
  9
$TRACEWID
 40
0.05
  9
$TEXTSTYLE
  7
ROMANS
  9
$CLAYER
  8
DIM
  9
$CELTYPE
  6
BYLAYER
  9
$CECOLOR
 62
     3
  9
$CELTSCALE
 40
1.0
  9
$DISPSILH
 70
     0
  9
$DIMSCALE
 40
25.0
  9
$DIMASZ
 40
0.18
  9
$DIMEXO
 40
0.0625
  9
$DIMDLI
 40
0.38
  9
$DIMRND
 40
0.0
  9
$DIMDLE
 40
0.0
  9
$DIMEXE
 40
0.18
  9
$DIMTP
 40
0.0
  9
$DIMTM
 40
0.0
  9
$DIMTXT
 40
0.18
  9
$DIMCEN
 40
0.09
  9
$DIMTSZ
 40
0.0
  9
$DIMTOL
 70
     0
  9
$DIMLIM
 70
     0
  9
$DIMTIH
 70
     0
  9
$DIMTOH
 70
     0
  9
$DIMSE1
 70
     0
  9
$DIMSE2
 70
     0
  9
$DIMTAD
 70
     1
  9
$DIMZIN
 70
     0
  9
$DIMBLK
  1

  9
$DIMASO
 70
     1
  9
$DIMSHO
 70
     1
  9
$DIMPOST
  1

  9
$DIMAPOST
  1

  9
$DIMALT
 70
     0
  9
$DIMALTD
 70
     2
  9
$DIMALTF
 40
25.4
  9
$DIMLFAC
 40
1.0
  9
$DIMTOFL
 70
     0
  9
$DIMTVP
 40
0.0
  9
$DIMTIX
 70
     0
  9
$DIMSOXD
 70
     0
  9
$DIMSAH
 70
     0
  9
$DIMBLK1
  1

  9
$DIMBLK2
  1

  9
$DIMSTYLE
  2
STANDARD
  9
$DIMCLRD
 70
   256
  9
$DIMCLRE
 70
   256
  9
$DIMCLRT
 70
   256
  9
$DIMTFAC
 40
1.0
  9
$DIMGAP
 40
0.09
  9
$DIMJUST
 70
     0
  9
$DIMSD1
 70
     0
  9
$DIMSD2
 70
     0
  9
$DIMTOLJ
 70
     1
  9
$DIMTZIN
 70
     0
  9
$DIMALTZ
 70
     0
  9
$DIMALTTZ
 70
     0
  9
$DIMUPT
 70
     0
  9
$DIMDEC
 70
     1
  9
$DIMTDEC
 70
     1
  9
$DIMALTU
 70
     2
  9
$DIMALTTD
 70
     2
  9
$DIMTXSTY
  7
ROMANS
  9
$DIMAUNIT
 70
     0
  9
$DIMADEC
 70
     0
  9
$DIMALTRND
 40
0.0
  9
$DIMAZIN
 70
     0
  9
$DIMDSEP
 70
    46
  9
$DIMATFIT
 70
     3
  9
$DIMFRAC
 70
     0
  9
$DIMLDRBLK
  1

  9
$DIMLUNIT
 70
     2
  9
$DIMLWD
 70
    -1
  9
$DIMLWE
 70
    -1
  9
$DIMTMOVE
 70
     0
  9
$LUNITS
 70
     2
  9
$LUPREC
 70
     4
  9
$SKETCHINC
 40
0.1
  9
$FILLETRAD
 40
0.0
  9
$AUNITS
 70
     0
  9
$AUPREC
 70
     0
  9
$MENU
  1
acad
  9
$ELEVATION
 40
0.0
  9
$PELEVATION
 40
0.0
  9
$THICKNESS
 40
0.0
  9
$LIMCHECK
 70
     0
  9
$CHAMFERA
 40
1.5
  9
$CHAMFERB
 40
1.5
  9
$CHAMFERC
 40
0.0
  9
$CHAMFERD
 40
0.0
  9
$SKPOLY
 70
     0
  9
$TDCREATE
 40
2449974.566112731
  9
$TDUCREATE
 40
2449974.816112731
  9
$TDUPDATE
 40
2452660.532306400
  9
$TDUUPDATE
 40
2452660.782306400
  9
$TDINDWG
 40
0.9839258912
  9
$TDUSRTIMER
 40
0.9839258912
  9
$USRTIMER
 70
     1
  9
$ANGBASE
 50
0.0
  9
$ANGDIR
 70
     0
  9
$PDMODE
 70
     0
  9
$PDSIZE
 40
0.0
  9
$PLINEWID
 40
0.0
  9
$SPLFRAME
 70
     0
  9
$SPLINETYPE
 70
     6
  9
$SPLINESEGS
 70
     8
  9
$HANDSEED
  5
101
  9
$SURFTAB1
 70
     6
  9
$SURFTAB2
 70
     6
  9
$SURFTYPE
 70
     6
  9
$SURFU
 70
     6
  9
$SURFV
 70
     6
  9
$UCSBASE
  2

  9
$UCSNAME
  2

  9
$UCSORG
 10
0.0
 20
0.0
 30
0.0
  9
$UCSXDIR
 10
1.0
 20
0.0
 30
0.0
  9
$UCSYDIR
 10
0.0
 20
1.0
 30
0.0
  9
$UCSORTHOREF
  2

  9
$UCSORTHOVIEW
 70
     0
  9
$UCSORGTOP
 10
0.0
 20
0.0
 30
0.0
  9
$UCSORGBOTTOM
 10
0.0
 20
0.0
 30
0.0
  9
$UCSORGLEFT
 10
0.0
 20
0.0
 30
0.0
  9
$UCSORGRIGHT
 10
0.0
 20
0.0
 30
0.0
  9
$UCSORGFRONT
 10
0.0
 20
0.0
 30
0.0
  9
$UCSORGBACK
 10
0.0
 20
0.0
 30
0.0
  9
$PUCSBASE
  2

  9
$PUCSNAME
  2

  9
$PUCSORG
 10
0.0
 20
0.0
 30
0.0
  9
$PUCSXDIR
 10
1.0
 20
0.0
 30
0.0
  9
$PUCSYDIR
 10
0.0
 20
1.0
 30
0.0
  9
$PUCSORTHOREF
  2

  9
$PUCSORTHOVIEW
 70
     0
  9
$PUCSORGTOP
 10
0.0
 20
0.0
 30
0.0
  9
$PUCSORGBOTTOM
 10
0.0
 20
0.0
 30
0.0
  9
$PUCSORGLEFT
 10
0.0
 20
0.0
 30
0.0
  9
$PUCSORGRIGHT
 10
0.0
 20
0.0
 30
0.0
  9
$PUCSORGFRONT
 10
0.0
 20
0.0
 30
0.0
  9
$PUCSORGBACK
 10
0.0
 20
0.0
 30
0.0
  9
$USERI1
 70
     0
  9
$USERI2
 70
     0
  9
$USERI3
 70
     0
  9
$USERI4
 70
     0
  9
$USERI5
 70
     0
  9
$USERR1
 40
0.0
  9
$USERR2
 40
0.0
  9
$USERR3
 40
0.0
  9
$USERR4
 40
0.0
  9
$USERR5
 40
0.0
  9
$WORLDVIEW
 70
     1
  9
$SHADEDGE
 70
     3
  9
$SHADEDIF
 70
    70
  9
$TILEMODE
 70
     1
  9
$MAXACTVP
 70
    16
  9
$PINSBASE
 10
0.0
 20
0.0
 30
0.0
  9
$PLIMCHECK
 70
     0
  9
$PEXTMIN
 10
1.000000000000000E+20
 20
1.000000000000000E+20
 30
1.000000000000000E+20
  9
$PEXTMAX
 10
-1.000000000000000E+20
 20
-1.000000000000000E+20
 30
-1.000000000000000E+20
  9
$PLIMMIN
 10
0.0
 20
0.0
  9
$PLIMMAX
 10
12.0
 20
9.0
  9
$UNITMODE
 70
     0
  9
$VISRETAIN
 70
     0
  9
$PLINEGEN
 70
     0
  9
$PSLTSCALE
 70
     1
  9
$TREEDEPTH
 70
  3020
  9
$CMLSTYLE
  2
STANDARD
  9
$CMLJUST
 70
     0
  9
$CMLSCALE
 40
1.0
  9
$PROXYGRAPHICS
 70
     1
  9
$MEASUREMENT
 70
     0
  9
$CELWEIGHT
370
    -1
  9
$ENDCAPS
280
     0
  9
$JOINSTYLE
280
     0
  9
$LWDISPLAY
290
     0
  9
$INSUNITS
 70
     0
  9
$HYPERLINKBASE
  1

  9
$STYLESHEET
  1

  9
$XEDIT
290
     1
  9
$CEPSNTYPE
380
     0
  9
$PSTYLEMODE
290
     1
  9
$FINGERPRINTGUID
  2
{91BB80E8-6F6F-4575-92B1-1284E2881D9B}
  9
$VERSIONGUID
  2
{F982675F-64FD-4DAA-9986-36ED092600DB}
  9
$EXTNAMES
290
     1
  9
$PSVPSCALE
 40
0.0
  9
$OLESTARTUP
290
     0
  0
ENDSEC
  0
SECTION
  2
CLASSES
  0
CLASS
  1
DICTIONARYVAR
  2
AcDbDictionaryVar
  3
AutoCAD 2000
 90
        0
280
     0
281
     0
  0
CLASS
  1
LWPOLYLINE
  2
AcDbPolyline
  3
AutoCAD 2000
 90
    32768
280
     0
281
     1
  0
CLASS
  1
OLE2FRAME
  2
AcDbOle2Frame
  3
AutoCAD 2000
 90
    32768
280
     0
281
     1
  0
CLASS
  1
ACDBDICTIONARYWDFLT
  2
AcDbDictionaryWithDefault
  3
AutoCAD 2000
 90
        0
280
     0
281
     0
  0
CLASS
  1
ACDBPLACEHOLDER
  2
AcDbPlaceHolder
  3
AutoCAD 2000
 90
        0
280
     0
281
     0
  0
CLASS
  1
LAYOUT
  2
AcDbLayout
  3
AutoCAD 2000
 90
        0
280
     0
281
     0
  0
ENDSEC
  0
SECTION
  2
TABLES
  0
TABLE
  2
VPORT
  5
12
330
0
100
AcDbSymbolTable
 70
     2
  0
VPORT
  5
100
330
12
100
AcDbSymbolTableRecord
100
AcDbViewportTableRecord
  2
*Active
 70
     0
 10
0.0
 20
0.0
 11
1.0
 21
1.0
 12
97.49387014515766
 22
21.32068044978403
 13
0.0
 23
0.0
 14
1.0
 24
1.0
 15
0.0
 25
0.0
 16
0.0
 26
0.0
 36
1.0
 17
0.0
 27
0.0
 37
0.0
 40
226.964519363164
 41
1.498756218905472
 42
50.0
 43
0.0
 44
0.0
 50
0.0
 51
0.0
 71
     0
 72
 10000
 73
     1
 74
     1
 75
     0
 76
     0
 77
     0
 78
     0
281
     0
 65
     1
110
0.0
120
0.0
130
0.0
111
1.0
121
0.0
131
0.0
112
0.0
122
1.0
132
0.0
 79
     0
146
0.0
  0
ENDTAB
  0
TABLE
  2
LTYPE
  5
D
330
0
100
AcDbSymbolTable
 70
     3
  0
LTYPE
  5
E
330
D
100
AcDbSymbolTableRecord
100
AcDbLinetypeTableRecord
  2
BYBLOCK
 70
     0
  3

 72
    65
 73
     0
 40
0.0
  0
LTYPE
  5
F
330
D
100
AcDbSymbolTableRecord
100
AcDbLinetypeTableRecord
  2
BYLAYER
 70
     0
  3

 72
    65
 73
     0
 40
0.0
  0
LTYPE
  5
5
330
D
100
AcDbSymbolTableRecord
100
AcDbLinetypeTableRecord
  2
CONTINUOUS
 70
     0
  3
Solid line
 72
    65
 73
     0
 40
0.0
  0
LTYPE
  5
2A
330
D
100
AcDbSymbolTableRecord
100
AcDbLinetypeTableRecord
  2
HIDDEN
 70
     0
  3
_ _ _ _ _ _ _ _ _ _ _ _ _ _ _ _ _ _ _ _ _ _ _
 72
    65
 73
     2
 40
0.375
 49
0.25
 74
     0
 49
-0.125
 74
     0
  0
LTYPE
  5
23
330
D
100
AcDbSymbolTableRecord
100
AcDbLinetypeTableRecord
  2
CENTER
 70
     0
  3
____ _ ____ _ ____ _ ____ _ ____ _ ____ _ ____
 72
    65
 73
     4
 40
2.0
 49
1.25
 74
     0
 49
-0.25
 74
     0
 49
0.25
 74
     0
 49
-0.25
 74
     0
  0
ENDTAB
  0
TABLE
  2
LAYER
  5
A
330
0
100
AcDbSymbolTable
 70
     7
  0
LAYER
  5
4
330
A
100
AcDbSymbolTableRecord
100
AcDbLayerTableRecord
  2
0
 70
     0
 62
     7
  6
CONTINUOUS
370
    -3
390
68
  0
LAYER
  5
1B
330
A
100
AcDbSymbolTableRecord
100
AcDbLayerTableRecord
  2
LINE
 70
     0
 62
     3
  6
CONTINUOUS
370
    -3
390
68
  0
LAYER
  5
29
330
A
100
AcDbSymbolTableRecord
100
AcDbLayerTableRecord
  2
HIDDEN
 70
     0
 62
     2
  6
HIDDEN
370
    -3
390
68
  0
LAYER
  5
22
330
A
100
AcDbSymbolTableRecord
100
AcDbLayerTableRecord
  2
CTRL
 70
     0
 62
     1
  6
CENTER
370
    -3
390
68
  0
LAYER
  5
7B
330
A
100
AcDbSymbolTableRecord
100
AcDbLayerTableRecord
  2
DIM
 70
     0
 62
     7
  6
CONTINUOUS
370
    -3
390
68
  0
LAYER
  5
7C
330
A
100
AcDbSymbolTableRecord
100
AcDbLayerTableRecord
  2
KA
 70
     0
 62
     3
  6
CONTINUOUS
370
    -3
390
68
  0
LAYER
  5
7E
330
A
100
AcDbSymbolTableRecord
100
AcDbLayerTableRecord
  2
Defpoints
 70
     0
 62
     7
  6
CONTINUOUS
290
     0
370
    -3
390
68
  0
ENDTAB
  0
TABLE
  2
STYLE
  5
B
330
0
100
AcDbSymbolTable
 70
     2
  0
STYLE
  5
C
330
B
100
AcDbSymbolTableRecord
100
AcDbTextStyleTableRecord
  2
STANDARD
 70
     0
 40
0.0
 41
1.0
 50
0.0
 71
     0
 42
0.2
  3
txt
  4

  0
STYLE
  5
1C
330
B
100
AcDbSymbolTableRecord
100
AcDbTextStyleTableRecord
  2
ROMANS
 70
     0
 40
0.0
 41
1.0
 50
0.0
 71
     0
 42
5.0
  3
romans
  4

  0
ENDTAB
  0
TABLE
  2
VIEW
  5
10
330
0
100
AcDbSymbolTable
 70
     0
  0
ENDTAB
  0
TABLE
  2
UCS
  5
11
330
0
100
AcDbSymbolTable
 70
     0
  0
ENDTAB
  0
TABLE
  2
APPID
  5
14
330
0
100
AcDbSymbolTable
 70
     1
  0
APPID
  5
15
330
14
100
AcDbSymbolTableRecord
100
AcDbRegAppTableRecord
  2
ACAD
 70
     0
  0
ENDTAB
  0
TABLE
  2
DIMSTYLE
  5
16
330
0
100
AcDbSymbolTable
 70
     1
100
AcDbDimStyleTable
 71
     1
340
1E
  0
DIMSTYLE
105
1E
102
{ACAD_REACTORS
330
7D
330
8B
330
98
330
A6
330
B3
102
}
330
16
100
AcDbSymbolTableRecord
100
AcDbDimStyleTableRecord
  2
STANDARD
 70
     0
 40
25.0
 73
     0
 74
     0
 77
     1
176
   256
177
   256
178
   256
271
     1
272
     1
340
1C
371
    -1
372
    -1
  0
ENDTAB
  0
TABLE
  2
BLOCK_RECORD
  5
1
330
0
100
AcDbSymbolTable
 70
     5
  0
BLOCK_RECORD
  5
2
330
1
100
AcDbSymbolTableRecord
100
AcDbBlockTableRecord
  2
*MODEL_SPACE
340
6B
  0
BLOCK_RECORD
  5
7
330
1
100
AcDbSymbolTableRecord
100
AcDbBlockTableRecord
  2
*PAPER_SPACE
340
6C
  0
BLOCK_RECORD
  5
7F
330
1
100
AcDbSymbolTableRecord
100
AcDbBlockTableRecord
  2
*D0
340
0
  0
BLOCK_RECORD
  5
8C
330
1
100
AcDbSymbolTableRecord
100
AcDbBlockTableRecord
  2
*D1
340
0
  0
BLOCK_RECORD
  5
99
330
1
100
AcDbSymbolTableRecord
100
AcDbBlockTableRecord
  2
*D2
340
0
  0
BLOCK_RECORD
  5
A7
330
1
100
AcDbSymbolTableRecord
100
AcDbBlockTableRecord
  2
*D3
340
0
  0
BLOCK_RECORD
  5
B4
330
1
100
AcDbSymbolTableRecord
100
AcDbBlockTableRecord
  2
*D4
340
0
  0
ENDTAB
  0
ENDSEC
  0
SECTION
  2
BLOCKS
  0
BLOCK
  5
3
330
2
100
AcDbEntity
  8
0
100
AcDbBlockBegin
  2
*MODEL_SPACE
 70
     0
 10
0.0
 20
0.0
 30
0.0
  3
*MODEL_SPACE
  1

  0
ENDBLK
  5
6
330
2
100
AcDbEntity
  8
0
100
AcDbBlockEnd
  0
BLOCK
  5
8
330
7
100
AcDbEntity
 67
     1
  8
0
100
AcDbBlockBegin
  2
*PAPER_SPACE
 70
     0
 10
0.0
 20
0.0
 30
0.0
  3
*PAPER_SPACE
  1

  0
ENDBLK
  5
9
330
7
100
AcDbEntity
 67
     1
  8
0
100
AcDbBlockEnd
  0
BLOCK
  5
89
330
7F
100
AcDbEntity
  8
0
 62
     3
100
AcDbBlockBegin
  2
*D0
 70
     1
 10
0.0
 20
0.0
 30
0.0
  3
*D0
  1

  0
LINE
  5
F7
330
7F
100
AcDbEntity
  8
DIM
100
AcDbLine
 10
-40.00499999999999
 20
18.37784889117619
 30
0.0
 11
-40.00499999999998
 21
91.19136089956191
 31
0.0
  0
LINE
  5
F8
330
7F
100
AcDbEntity
  8
DIM
100
AcDbLine
 10
203.2000000000001
 20
50.86250000000518
 30
0.0
 11
203.2000000000001
 21
91.19136089956191
 31
0.0
  0
LINE
  5
F9
330
7F
100
AcDbEntity
  8
DIM
100
AcDbLine
 10
-35.50499999999999
 20
86.69136089956191
 30
0.0
 11
198.7000000000001
 21
86.69136089956191
 31
0.0
  0
SOLID
  5
FA
330
7F
100
AcDbEntity
  8
DIM
100
AcDbTrace
 10
-35.50499999999999
 20
87.44136089956191
 30
0.0
 11
-35.50499999999999
 21
85.94136089956192
 31
0.0
 12
-40.00499999999998
 22
86.69136089956191
 32
0.0
 13
-40.00499999999998
 23
86.69136089956191
 33
0.0
  0
SOLID
  5
FB
330
7F
100
AcDbEntity
  8
DIM
100
AcDbTrace
 10
198.7000000000001
 20
87.44136089956191
 30
0.0
 11
198.7000000000001
 21
85.94136089956192
 31
0.0
 12
203.2000000000001
 22
86.69136089956191
 32
0.0
 13
203.2000000000001
 23
86.69136089956191
 33
0.0
  0
MTEXT
  5
FC
330
7F
100
AcDbEntity
  8
DIM
100
AcDbMText
 10
81.59750000000007
 20
91.19136089956191
 30
0.0
 40
4.5
 41
0.0
 71
     5
 72
     1
  1
\A1;243.2
  7
ROMANS
 73
     1
 44
1.0
  0
POINT
  5
FD
330
7F
100
AcDbEntity
  8
Defpoints
 62
     0
100
AcDbPoint
 10
-40.00499999999999
 20
16.8153488911762
 30
0.0
  0
POINT
  5
FE
330
7F
100
AcDbEntity
  8
Defpoints
 62
     0
100
AcDbPoint
 10
203.2000000000001
 20
49.30000000000518
 30
0.0
  0
POINT
  5
FF
330
7F
100
AcDbEntity
  8
Defpoints
 62
     0
100
AcDbPoint
 10
203.2000000000001
 20
86.69136089956191
 30
0.0
  0
ENDBLK
  5
8A
330
7F
100
AcDbEntity
  8
0
 62
     3
100
AcDbBlockEnd
  0
BLOCK
  5
96
330
8C
100
AcDbEntity
  8
0
 62
     3
100
AcDbBlockBegin
  2
*D1
 70
     1
 10
0.0
 20
0.0
 30
0.0
  3
*D1
  1

  0
LINE
  5
EE
330
8C
100
AcDbEntity
  8
DIM
100
AcDbLine
 10
0.0000000000001138
 20
32.56320000000141
 30
0.0
 11
0.0000000000001166
 21
77.91077500884739
 31
0.0
  0
LINE
  5
EF
330
8C
100
AcDbEntity
  8
DIM
100
AcDbLine
 10
203.2000000000001
 20
50.86250000000518
 30
0.0
 11
203.2000000000001
 21
77.91077500884739
 31
0.0
  0
LINE
  5
F0
330
8C
100
AcDbEntity
  8
DIM
100
AcDbLine
 10
4.500000000000116
 20
73.4107750088474
 30
0.0
 11
198.7000000000001
 21
73.4107750088474
 31
0.0
  0
SOLID
  5
F1
330
8C
100
AcDbEntity
  8
DIM
100
AcDbTrace
 10
4.500000000000116
 20
74.16077500884739
 30
0.0
 11
4.500000000000116
 21
72.6607750088474
 31
0.0
 12
0.0000000000001163
 22
73.4107750088474
 32
0.0
 13
0.0000000000001163
 23
73.4107750088474
 33
0.0
  0
SOLID
  5
F2
330
8C
100
AcDbEntity
  8
DIM
100
AcDbTrace
 10
198.7000000000001
 20
74.16077500884739
 30
0.0
 11
198.7000000000001
 21
72.6607750088474
 31
0.0
 12
203.2000000000001
 22
73.4107750088474
 32
0.0
 13
203.2000000000001
 23
73.4107750088474
 33
0.0
  0
MTEXT
  5
F3
330
8C
100
AcDbEntity
  8
DIM
100
AcDbMText
 10
101.6000000000001
 20
77.91077500884739
 30
0.0
 40
4.5
 41
0.0
 71
     5
 72
     1
  1
\A1;203.2
  7
ROMANS
 73
     1
 44
1.0
  0
POINT
  5
F4
330
8C
100
AcDbEntity
  8
Defpoints
 62
     0
100
AcDbPoint
 10
0.0000000000001137
 20
31.00070000000141
 30
0.0
  0
POINT
  5
F5
330
8C
100
AcDbEntity
  8
Defpoints
 62
     0
100
AcDbPoint
 10
203.2000000000001
 20
49.30000000000518
 30
0.0
  0
POINT
  5
F6
330
8C
100
AcDbEntity
  8
Defpoints
 62
     0
100
AcDbPoint
 10
203.2000000000001
 20
73.4107750088474
 30
0.0
  0
ENDBLK
  5
97
330
8C
100
AcDbEntity
  8
0
 62
     3
100
AcDbBlockEnd
  0
BLOCK
  5
A4
330
99
100
AcDbEntity
  8
0
 62
     3
100
AcDbBlockBegin
  2
*D2
 70
     1
 10
0.0
 20
0.0
 30
0.0
  3
*D2
  1

  0
LINE
  5
E4
330
99
100
AcDbEntity
  8
DIM
100
AcDbLine
 10
0.0000000000001138
 20
32.56320000000141
 30
0.0
 11
0.0000000000001158
 21
65.61393567483083
 31
0.0
  0
LINE
  5
E5
330
99
100
AcDbEntity
  8
DIM
100
AcDbLine
 10
10.00000000000017
 20
33.56650000000309
 30
0.0
 11
10.00000000000017
 21
65.61393567483083
 31
0.0
  0
LINE
  5
E6
330
99
100
AcDbEntity
  8
DIM
100
AcDbLine
 10
-4.499999999999884
 20
61.11393567483083
 30
0.0
 11
-8.999999999999884
 21
61.11393567483083
 31
0.0
  0
LINE
  5
E7
330
99
100
AcDbEntity
  8
DIM
100
AcDbLine
 10
14.50000000000017
 20
61.11393567483083
 30
0.0
 11
36.57142857142874
 21
61.11393567483083
 31
0.0
  0
SOLID
  5
E8
330
99
100
AcDbEntity
  8
DIM
100
AcDbTrace
 10
-4.499999999999884
 20
61.86393567483083
 30
0.0
 11
-4.499999999999884
 21
60.36393567483083
 31
0.0
 12
0.0000000000001155
 22
61.11393567483083
 32
0.0
 13
0.0000000000001155
 23
61.11393567483083
 33
0.0
  0
SOLID
  5
E9
330
99
100
AcDbEntity
  8
DIM
100
AcDbTrace
 10
14.50000000000017
 20
61.86393567483083
 30
0.0
 11
14.50000000000017
 21
60.36393567483083
 31
0.0
 12
10.00000000000017
 22
61.11393567483083
 32
0.0
 13
10.00000000000017
 23
61.11393567483083
 33
0.0
  0
MTEXT
  5
EA
330
99
100
AcDbEntity
  8
DIM
100
AcDbMText
 10
27.78571428571445
 20
65.61393567483083
 30
0.0
 40
4.5
 41
0.0
 71
     5
 72
     1
  1
\A1;10.0
  7
ROMANS
 73
     1
 44
1.0
  0
POINT
  5
EB
330
99
100
AcDbEntity
  8
Defpoints
 62
     0
100
AcDbPoint
 10
0.0000000000001137
 20
31.00070000000141
 30
0.0
  0
POINT
  5
EC
330
99
100
AcDbEntity
  8
Defpoints
 62
     0
100
AcDbPoint
 10
10.00000000000017
 20
32.00400000000309
 30
0.0
  0
POINT
  5
ED
330
99
100
AcDbEntity
  8
Defpoints
 62
     0
100
AcDbPoint
 10
10.00000000000017
 20
61.11393567483083
 30
0.0
  0
ENDBLK
  5
A5
330
99
100
AcDbEntity
  8
0
 62
     3
100
AcDbBlockEnd
  0
BLOCK
  5
B1
330
A7
100
AcDbEntity
  8
0
 62
     3
100
AcDbBlockBegin
  2
*D3
 70
     1
 10
0.0
 20
0.0
 30
0.0
  3
*D3
  1

  0
LINE
  5
DB
330
A7
100
AcDbEntity
  8
DIM
100
AcDbLine
 10
203.2625000000001
 20
50.80000000000518
 30
0.0
 11
266.7344676287486
 21
50.80000000000516
 31
0.0
  0
LINE
  5
DC
330
A7
100
AcDbEntity
  8
DIM
100
AcDbLine
 10
203.2624999999991
 20
-50.79999999999381
 30
0.0
 11
266.7344676287486
 21
-50.79999999999383
 31
0.0
  0
LINE
  5
DD
330
A7
100
AcDbEntity
  8
DIM
100
AcDbLine
 10
262.2344676287486
 20
46.30000000000516
 30
0.0
 11
262.2344676287486
 21
-46.29999999999383
 31
0.0
  0
SOLID
  5
DE
330
A7
100
AcDbEntity
  8
DIM
100
AcDbTrace
 10
261.4844676287486
 20
46.30000000000516
 30
0.0
 11
262.9844676287486
 21
46.30000000000516
 31
0.0
 12
262.2344676287486
 22
50.80000000000516
 32
0.0
 13
262.2344676287486
 23
50.80000000000516
 33
0.0
  0
SOLID
  5
DF
330
A7
100
AcDbEntity
  8
DIM
100
AcDbTrace
 10
261.4844676287486
 20
-46.29999999999383
 30
0.0
 11
262.9844676287486
 21
-46.29999999999383
 31
0.0
 12
262.2344676287486
 22
-50.79999999999383
 32
0.0
 13
262.2344676287486
 23
-50.79999999999383
 33
0.0
  0
MTEXT
  5
E0
330
A7
100
AcDbEntity
  8
DIM
100
AcDbMText
 10
257.7344676287486
 20
0.0000000000057044
 30
0.0
 40
4.5
 41
0.0
 71
     5
 72
     1
  1
\A1;%%c101.6
  7
ROMANS
 11
0.0000000000000001
 21
1.0
 31
0.0
 73
     1
 44
1.0
  0
POINT
  5
E1
330
A7
100
AcDbEntity
  8
Defpoints
 62
     0
100
AcDbPoint
 10
201.7000000000001
 20
50.80000000000518
 30
0.0
  0
POINT
  5
E2
330
A7
100
AcDbEntity
  8
Defpoints
 62
     0
100
AcDbPoint
 10
201.6999999999991
 20
-50.79999999999381
 30
0.0
  0
POINT
  5
E3
330
A7
100
AcDbEntity
  8
Defpoints
 62
     0
100
AcDbPoint
 10
262.2344676287486
 20
-50.79999999999383
 30
0.0
  0
ENDBLK
  5
B2
330
A7
100
AcDbEntity
  8
0
 62
     3
100
AcDbBlockEnd
  0
BLOCK
  5
BE
330
B4
100
AcDbEntity
  8
0
 62
     3
100
AcDbBlockBegin
  2
*D4
 70
     1
 10
0.0
 20
0.0
 30
0.0
  3
*D4
  1

  0
LINE
  5
D2
330
B4
100
AcDbEntity
  8
DIM
100
AcDbLine
 10
-0.5591999999999758
 20
32.00400000000036
 30
0.0
 11
-69.4967273384333
 21
32.00400000000038
 31
0.0
  0
LINE
  5
D3
330
B4
100
AcDbEntity
  8
DIM
100
AcDbLine
 10
-0.559200000007138
 20
-32.0039999999999
 30
0.0
 11
-69.49672733843335
 21
-32.00399999999988
 31
0.0
  0
LINE
  5
D4
330
B4
100
AcDbEntity
  8
DIM
100
AcDbLine
 10
-64.99672733843333
 20
27.50400000000038
 30
0.0
 11
-64.99672733843333
 21
-27.50399999999988
 31
0.0
  0
SOLID
  5
D5
330
B4
100
AcDbEntity
  8
DIM
100
AcDbTrace
 10
-65.74672733843333
 20
27.50400000000038
 30
0.0
 11
-64.24672733843333
 21
27.50400000000038
 31
0.0
 12
-64.99672733843332
 22
32.00400000000038
 32
0.0
 13
-64.99672733843332
 23
32.00400000000038
 33
0.0
  0
SOLID
  5
D6
330
B4
100
AcDbEntity
  8
DIM
100
AcDbTrace
 10
-65.74672733843333
 20
-27.50399999999988
 30
0.0
 11
-64.24672733843333
 21
-27.50399999999988
 31
0.0
 12
-64.99672733843334
 22
-32.00399999999988
 32
0.0
 13
-64.99672733843334
 23
-32.00399999999988
 33
0.0
  0
MTEXT
  5
D7
330
B4
100
AcDbEntity
  8
DIM
100
AcDbMText
 10
-69.49672733843333
 20
0.000000000000239
 30
0.0
 40
4.5
 41
0.0
 71
     5
 72
     1
  1
\A1;%%c64.0
  7
ROMANS
 11
0.0000000000000001
 21
1.0
 31
0.0
 73
     1
 44
1.0
  0
POINT
  5
D8
330
B4
100
AcDbEntity
  8
Defpoints
 62
     0
100
AcDbPoint
 10
1.003300000000024
 20
32.00400000000036
 30
0.0
  0
POINT
  5
D9
330
B4
100
AcDbEntity
  8
Defpoints
 62
     0
100
AcDbPoint
 10
1.003299999992862
 20
-32.0039999999999
 30
0.0
  0
POINT
  5
DA
330
B4
100
AcDbEntity
  8
Defpoints
 62
     0
100
AcDbPoint
 10
-64.99672733843334
 20
-32.00399999999988
 30
0.0
  0
ENDBLK
  5
BF
330
B4
100
AcDbEntity
  8
0
 62
     3
100
AcDbBlockEnd
  0
ENDSEC
  0
SECTION
  2
ENTITIES
  0
LINE
  5
1F
330
2
100
AcDbEntity
  8
LINE
 62
     3
100
AcDbLine
 10
201.6999999999991
 20
-50.79999999999381
 30
0.0
 11
13.10582854123197
 21
-50.79999999999199
 31
0.0
  0
LINE
  5
20
330
2
100
AcDbEntity
  8
LINE
 62
     3
100
AcDbLine
 10
201.7000000000001
 20
50.80000000000518
 30
0.0
 11
13.10582854123032
 21
50.80000000000746
 31
0.0
  0
LINE
  5
21
330
2
100
AcDbEntity
  8
CTRL
100
AcDbLine
 10
-55.39440497509713
 20
0.0
 30
0.0
 11
212.5346918678746
 21
0.000000000003638
 31
0.0
  0
ARC
  5
24
330
2
100
AcDbEntity
  8
KA
100
AcDbCircle
 10
-8.934449999999912
 20
-41.82122517417428
 30
0.0
 40
24.80503851352892
100
AcDbArc
 50
73.84313558935748
 51
106.1568644106427
  0
ARC
  5
25
330
2
100
AcDbEntity
  8
KA
100
AcDbCircle
 10
-8.934449999999912
 20
41.82122517417474
 30
0.0
 40
24.80503851352892
100
AcDbArc
 50
253.8431355893572
 51
286.1568644106425
  0
LINE
  5
26
330
2
100
AcDbEntity
  8
KA
100
AcDbLine
 10
-13.58286681405672
 20
-21.5000000000009
 30
0.0
 11
-4.095533185943168
 21
-21.5000000000009
 31
0.0
  0
LINE
  5
27
330
2
100
AcDbEntity
  8
KA
100
AcDbLine
 10
-13.58286681405672
 20
21.49999999999999
 30
0.0
 11
-4.095533185943168
 21
21.49999999999999
 31
0.0
  0
LINE
  5
28
330
2
100
AcDbEntity
  8
HIDDEN
100
AcDbLine
 10
-37.751860345023
 20
7.9375
 30
0.0
 11
-1.350975479668022
 21
7.9375
 31
0.0
  0
LINE
  5
2B
330
2
100
AcDbEntity
  8
HIDDEN
100
AcDbLine
 10
-37.751860345023
 20
-7.9375
 30
0.0
 11
-1.350975479668022
 21
-7.9375
 31
0.0
  0
LINE
  5
2C
330
2
100
AcDbEntity
  8
KA
100
AcDbLine
 10
-34.92500000000001
 20
17.99590000000034
 30
0.0
 11
-15.8368999999999
 21
17.99590000000034
 31
0.0
  0
LINE
  5
2D
330
2
100
AcDbEntity
  8
KA
100
AcDbLine
 10
-34.92500000000001
 20
-17.99589999999989
 30
0.0
 11
-15.83690000000001
 21
-17.99589999999989
 31
0.0
  0
LINE
  5
2E
330
2
100
AcDbEntity
  8
KA
100
AcDbLine
 10
-40.00499999999999
 20
16.8153488911762
 30
0.0
 11
-40.00499999999999
 21
0.0
 31
0.0
  0
LINE
  5
2F
330
2
100
AcDbEntity
  8
KA
100
AcDbLine
 10
-34.92500000000001
 20
17.99590000000034
 30
0.0
 11
-34.92500000000001
 21
0.0
 31
0.0
  0
LINE
  5
30
330
2
100
AcDbEntity
  8
KA
100
AcDbLine
 10
-38.84238411520309
 20
17.79089945130999
 30
0.0
 11
-37.75186034502292
 21
17.59861068752388
 31
0.0
  0
LINE
  5
31
330
2
100
AcDbEntity
  8
KA
100
AcDbLine
 10
-34.92500000000001
 20
17.99590000000034
 30
0.0
 11
-37.75186034502292
 21
17.59861068752388
 31
0.0
  0
ARC
  5
32
330
2
100
AcDbEntity
  8
KA
100
AcDbCircle
 10
-39.01439999999993
 20
16.81534889117711
 30
0.0
 40
0.9905999999999998
100
AcDbArc
 50
79.99999999999968
 51
179.9999999999999
  0
LINE
  5
33
330
2
100
AcDbEntity
  8
KA
100
AcDbLine
 10
-37.75186034502292
 20
17.59861068752388
 30
0.0
 11
-37.751860345023
 21
0.0
 31
0.0
  0
LINE
  5
34
330
2
100
AcDbEntity
  8
HIDDEN
100
AcDbLine
 10
-37.751860345023
 20
7.9375
 30
0.0
 11
-40.00499999999999
 21
9.23835078632328
 31
0.0
  0
LINE
  5
35
330
2
100
AcDbEntity
  8
HIDDEN
100
AcDbLine
 10
-37.751860345023
 20
-7.9375
 30
0.0
 11
-40.00499999999999
 21
-9.23835078632328
 31
0.0
  0
LINE
  5
36
330
2
100
AcDbEntity
  8
KA
100
AcDbLine
 10
-37.75186034502292
 20
-17.59861068752343
 30
0.0
 11
-37.751860345023
 21
0.0
 31
0.0
  0
ARC
  5
37
330
2
100
AcDbEntity
  8
KA
100
AcDbCircle
 10
-39.01439999999993
 20
-16.81534889117574
 30
0.0
 40
0.9905999999999998
100
AcDbArc
 50
180.0
 51
280.0000000000002
  0
LINE
  5
38
330
2
100
AcDbEntity
  8
KA
100
AcDbLine
 10
-34.92500000000001
 20
-17.99589999999989
 30
0.0
 11
-37.75186034502292
 21
-17.59861068752343
 31
0.0
  0
LINE
  5
39
330
2
100
AcDbEntity
  8
KA
100
AcDbLine
 10
-38.84238411520309
 20
-17.7908994513109
 30
0.0
 11
-37.75186034502292
 21
-17.59861068752343
 31
0.0
  0
LINE
  5
3A
330
2
100
AcDbEntity
  8
KA
100
AcDbLine
 10
-34.92500000000001
 20
-17.99589999999989
 30
0.0
 11
-34.92500000000001
 21
0.0
 31
0.0
  0
LINE
  5
3B
330
2
100
AcDbEntity
  8
KA
100
AcDbLine
 10
-40.00499999999994
 20
-16.81534889117574
 30
0.0
 11
-40.00499999999999
 21
0.0
 31
0.0
  0
LINE
  5
3C
330
2
100
AcDbEntity
  8
KA
100
AcDbLine
 10
-15.8368999999999
 20
4.486916490197472
 30
0.0
 11
-15.83690000000001
 21
-4.486916490197472
 31
0.0
  0
LINE
  5
3D
330
2
100
AcDbEntity
  8
KA
100
AcDbLine
 10
-15.83690000000001
 20
-17.99589999999989
 30
0.0
 11
-13.92927697557058
 21
-21.30000000000018
 31
0.0
  0
ARC
  5
3E
330
2
100
AcDbEntity
  8
KA
100
AcDbCircle
 10
-13.58286681405672
 20
-21.10000000000127
 30
0.0
 40
0.4
100
AcDbArc
 50
210.0
 51
270.0
  0
ARC
  5
3F
330
2
100
AcDbEntity
  8
KA
100
AcDbCircle
 10
-13.58286681405672
 20
21.10000000000127
 30
0.0
 40
0.4
100
AcDbArc
 50
90.0
 51
149.9999999999998
  0
LINE
  5
40
330
2
100
AcDbEntity
  8
KA
100
AcDbLine
 10
-15.8368999999999
 20
17.99590000000034
 30
0.0
 11
-13.92927697557053
 21
21.29999999999881
 31
0.0
  0
LWPOLYLINE
  5
41
330
2
100
AcDbEntity
  8
KA
100
AcDbPolyline
 90
       16
 70
     1
 43
0.0
 10
-9.609409599878915
 20
0.0
 42
0.1115408558816133
 10
-10.04377805716035
 20
1.922902233633067
 42
0.1029733543267754
 10
-11.33296622356908
 20
3.620330557136185
 42
0.0927957371124016
 10
-13.20606121840813
 20
4.720228740587117
 42
0.0866911325972541
 10
-15.49399999999991
 20
5.11992057417683
 42
0.086691132597254
 10
-17.78193878159191
 20
4.720228740587117
 42
0.0927957371124026
 10
-19.65503377643068
 20
3.620330557136185
 42
0.1029733543267735
 10
-20.94422194283964
 20
1.922902233633067
 42
0.1115408558816151
 10
-21.37859040012091
 20
0.0
 42
0.1115408558816122
 10
-20.9442219428397
 20
-1.922902233633976
 42
0.1029733543267726
 10
-19.65503377643079
 20
-3.620330557136185
 42
0.0927957371123996
 10
-17.78193878159191
 20
-4.720228740587117
 42
0.0866911325972534
 10
-15.49400000000002
 20
-5.119920574175921
 42
0.0866911325972539
 10
-13.20606121840802
 20
-4.720228740587117
 42
0.0927957371124012
 10
-11.3329662235692
 20
-3.620330557136185
 42
0.1029733543267761
 10
-10.04377805716035
 20
-1.922902233633976
 42
0.1115408558816135
  0
CIRCLE
  5
42
330
2
100
AcDbEntity
  8
KA
100
AcDbCircle
 10
-15.49399999999991
 20
0.0
 30
0.0
 40
4.5
  0
LINE
  5
43
330
2
100
AcDbEntity
  8
LINE
100
AcDbLine
 10
1.003300000000024
 20
32.00400000000036
 30
0.0
 11
9.156700000000114
 21
32.00400000000036
 31
0.0
  0
LINE
  5
44
330
2
100
AcDbEntity
  8
LINE
100
AcDbLine
 10
1.003300000000024
 20
-32.0039999999999
 30
0.0
 11
9.1567
 21
-32.00400000000081
 31
0.0
  0
LINE
  5
45
330
2
100
AcDbEntity
  8
HIDDEN
100
AcDbLine
 10
-1.350975479668136
 20
-7.9375
 30
0.0
 11
3.231742282024583
 21
0.0
 31
0.0
  0
LINE
  5
46
330
2
100
AcDbEntity
  8
HIDDEN
100
AcDbLine
 10
-1.350975479668022
 20
7.9375
 30
0.0
 11
3.231742282024583
 21
0.0
 31
0.0
  0
LINE
  5
47
330
2
100
AcDbEntity
  8
HIDDEN
100
AcDbLine
 10
-1.350975479668022
 20
7.9375
 30
0.0
 11
-1.350975479668022
 21
-7.9375
 31
0.0
  0
LINE
  5
48
330
2
100
AcDbEntity
  8
KA
100
AcDbLine
 10
-1.841499999999996
 20
-17.99589999999989
 30
0.0
 11
-3.749123024429422
 21
-21.30000000000018
 31
0.0
  0
LINE
  5
49
330
2
100
AcDbEntity
  8
KA
100
AcDbLine
 10
-1.841499999999996
 20
-17.99589999999989
 30
0.0
 11
-1.841499999999996
 21
-17.94485567884203
 31
0.0
  0
ARC
  5
4A
330
2
100
AcDbEntity
  8
KA
100
AcDbCircle
 10
-4.095533185943168
 20
-21.10000000000127
 30
0.0
 40
0.4
100
AcDbArc
 50
270.0
 51
329.9999999999998
  0
ARC
  5
4B
330
2
100
AcDbEntity
  8
KA
100
AcDbCircle
 10
-4.095533185943168
 20
21.10000000000127
 30
0.0
 40
0.4
100
AcDbArc
 50
30.00000000000016
 51
90.0
  0
LINE
  5
4C
330
2
100
AcDbEntity
  8
KA
100
AcDbLine
 10
-1.841499999999882
 20
17.99590000000034
 30
0.0
 11
-1.841499999999882
 21
17.94485567884112
 31
0.0
  0
LINE
  5
4D
330
2
100
AcDbEntity
  8
KA
100
AcDbLine
 10
-1.841499999999996
 20
17.99590000000034
 30
0.0
 11
-3.749123024429309
 21
21.29999999999881
 31
0.0
  0
LINE
  5
4E
330
2
100
AcDbEntity
  8
LINE
100
AcDbLine
 10
0.0000000000001137
 20
31.00070000000141
 30
0.0
 11
0.0
 21
0.0
 31
0.0
  0
LINE
  5
4F
330
2
100
AcDbEntity
  8
LINE
100
AcDbLine
 10
0.0000000000001137
 20
31.00070000000141
 30
0.0
 11
1.003300000000024
 21
32.00400000000036
 31
0.0
  0
LINE
  5
50
330
2
100
AcDbEntity
  8
LINE
100
AcDbLine
 10
1.003300000000024
 20
32.00400000000036
 30
0.0
 11
1.003300000000024
 21
0.0
 31
0.0
  0
LINE
  5
51
330
2
100
AcDbEntity
  8
KA
100
AcDbLine
 10
-2.031999999999868
 20
17.99590000000034
 30
0.0
 11
0.0
 21
17.45142724098059
 31
0.0
  0
LINE
  5
52
330
2
100
AcDbEntity
  8
KA
100
AcDbLine
 10
-2.031999999999868
 20
17.99590000000034
 30
0.0
 11
-2.031999999999982
 21
0.0
 31
0.0
  0
LINE
  5
53
330
2
100
AcDbEntity
  8
KA
100
AcDbLine
 10
-2.031999999999982
 20
-17.99589999999989
 30
0.0
 11
-2.031999999999982
 21
0.0
 31
0.0
  0
LINE
  5
54
330
2
100
AcDbEntity
  8
KA
100
AcDbLine
 10
-2.031999999999982
 20
-17.99589999999989
 30
0.0
 11
0.0
 21
-17.45142724097877
 31
0.0
  0
LINE
  5
55
330
2
100
AcDbEntity
  8
LINE
100
AcDbLine
 10
1.003300000000024
 20
-32.0039999999999
 30
0.0
 11
1.003300000000024
 21
0.0
 31
0.0
  0
LINE
  5
56
330
2
100
AcDbEntity
  8
LINE
100
AcDbLine
 10
0.0
 20
-31.00070000000141
 30
0.0
 11
1.003300000000024
 21
-32.0039999999999
 31
0.0
  0
LINE
  5
57
330
2
100
AcDbEntity
  8
LINE
100
AcDbLine
 10
0.0
 20
-31.00070000000141
 30
0.0
 11
0.0
 21
0.0
 31
0.0
  0
LINE
  5
58
330
2
100
AcDbEntity
  8
LINE
 62
     3
100
AcDbLine
 10
10.00000000000011
 20
-32.00399999999717
 30
0.0
 11
13.10582854123134
 21
-50.79999999998745
 31
0.0
  0
LINE
  5
59
330
2
100
AcDbEntity
  8
LINE
 62
     3
100
AcDbLine
 10
10.00000000000017
 20
32.00400000000309
 30
0.0
 11
13.10582854123049
 21
50.80000000000791
 31
0.0
  0
LINE
  5
5A
330
2
100
AcDbEntity
  8
LINE
 62
     3
100
AcDbLine
 10
13.1058285412306
 20
43.59510991547312
 30
0.0
 11
13.10582854123049
 21
50.80000000000746
 31
0.0
  0
LINE
  5
5B
330
2
100
AcDbEntity
  8
LINE
 62
     3
100
AcDbLine
 10
13.1058285412318
 20
-43.59510991546085
 30
0.0
 11
13.10582854123151
 21
-50.79999999998927
 31
0.0
  0
LINE
  5
5C
330
2
100
AcDbEntity
  8
LINE
100
AcDbLine
 10
13.10582854123083
 20
43.59510991547449
 30
0.0
 11
13.10582854123185
 21
-43.59510991546267
 31
0.0
  0
LINE
  5
5D
330
2
100
AcDbEntity
  8
LINE
100
AcDbLine
 10
9.156700000000114
 20
32.00400000000127
 30
0.0
 11
10.00000000000028
 21
32.00400000000127
 31
0.0
  0
LINE
  5
5E
330
2
100
AcDbEntity
  8
LINE
100
AcDbLine
 10
9.156700000000171
 20
-32.00399999999899
 30
0.0
 11
10.00000000000028
 21
-32.00399999999899
 31
0.0
  0
LINE
  5
5F
330
2
100
AcDbEntity
  8
LINE
100
AcDbLine
 10
10.00000000000011
 20
-31.00069999999687
 30
0.0
 11
10.00000000000028
 21
-32.00399999999899
 31
0.0
  0
LINE
  5
60
330
2
100
AcDbEntity
  8
LINE
100
AcDbLine
 10
10.00000000000011
 20
-31.00069999999778
 30
0.0
 11
10.00000000000028
 21
32.00400000000127
 31
0.0
  0
LINE
  5
61
330
2
100
AcDbEntity
  8
LINE
 62
     3
100
AcDbLine
 10
201.7
 20
50.80000000000609
 30
0.0
 11
201.6999999999986
 21
-50.79999999999199
 31
0.0
  0
LINE
  5
62
330
2
100
AcDbEntity
  8
LINE
 62
     3
100
AcDbLine
 10
203.199999999999
 20
-49.2999999999929
 30
0.0
 11
201.6999999999991
 21
-50.79999999999381
 31
0.0
  0
LINE
  5
63
330
2
100
AcDbEntity
  8
LINE
 62
     3
100
AcDbLine
 10
203.1999999999996
 20
-31.00069999999414
 30
0.0
 11
203.199999999999
 21
-49.2999999999929
 31
0.0
  0
LINE
  5
64
330
2
100
AcDbEntity
  8
LINE
 62
     3
100
AcDbLine
 10
201.7000000000001
 20
50.80000000000518
 30
0.0
 11
203.2000000000001
 21
49.30000000000518
 31
0.0
  0
LINE
  5
65
330
2
100
AcDbEntity
  8
LINE
 62
     3
100
AcDbLine
 10
203.1999999999996
 20
-31.00069999999595
 30
0.0
 11
203.2000000000001
 21
49.30000000000518
 31
0.0
  0
DIMENSION
  5
7D
330
2
100
AcDbEntity
  8
DIM
 62
     3
100
AcDbDimension
  2
*D0
 10
203.2000000000001
 20
86.69136089956191
 30
0.0
 11
81.59750000000007
 21
91.19136089956191
 31
0.0
 70
    32
 71
     5
 42
243.2050000000001
  3
STANDARD
100
AcDbAlignedDimension
 13
-40.00499999999999
 23
16.8153488911762
 33
0.0
 14
203.2000000000001
 24
49.30000000000518
 34
0.0
100
AcDbRotatedDimension
  0
DIMENSION
  5
8B
330
2
100
AcDbEntity
  8
DIM
 62
     3
100
AcDbDimension
  2
*D1
 10
203.2000000000001
 20
73.4107750088474
 30
0.0
 11
101.6000000000001
 21
77.91077500884739
 31
0.0
 70
    32
 71
     5
 42
203.2
  3
STANDARD
100
AcDbAlignedDimension
 13
0.0000000000001137
 23
31.00070000000141
 33
0.0
 14
203.2000000000001
 24
49.30000000000518
 34
0.0
100
AcDbRotatedDimension
  0
DIMENSION
  5
98
330
2
100
AcDbEntity
  8
DIM
 62
     3
100
AcDbDimension
  2
*D2
 10
10.00000000000017
 20
61.11393567483083
 30
0.0
 11
27.78571428571445
 21
65.61393567483083
 31
0.0
 70
    32
 71
     5
 42
10.00000000000005
  3
STANDARD
100
AcDbAlignedDimension
 13
0.0000000000001137
 23
31.00070000000141
 33
0.0
 14
10.00000000000017
 24
32.00400000000309
 34
0.0
100
AcDbRotatedDimension
  0
DIMENSION
  5
A6
330
2
100
AcDbEntity
  8
DIM
 62
     3
100
AcDbDimension
  2
*D3
 10
262.2344676287486
 20
-50.79999999999383
 30
0.0
 11
257.7344676287486
 21
0.0000000000057044
 31
0.0
 70
    32
  1
%%c<>
 71
     5
 42
101.599999999999
  3
STANDARD
100
AcDbAlignedDimension
 13
201.7000000000001
 23
50.80000000000518
 33
0.0
 14
201.6999999999991
 24
-50.79999999999381
 34
0.0
 50
90.0
100
AcDbRotatedDimension
  0
DIMENSION
  5
B3
330
2
100
AcDbEntity
  8
DIM
 62
     3
100
AcDbDimension
  2
*D4
 10
-64.99672733843334
 20
-32.00399999999988
 30
0.0
 11
-69.49672733843333
 21
0.000000000000239
 31
0.0
 70
    32
  1
%%c<>
 71
     5
 42
64.00800000000026
  3
STANDARD
100
AcDbAlignedDimension
 13
1.003300000000024
 23
32.00400000000036
 33
0.0
 14
1.003299999992862
 24
-32.0039999999999
 34
0.0
 50
90.0
100
AcDbRotatedDimension
  0
ENDSEC
  0
SECTION
  2
OBJECTS
  0
DICTIONARY
  5
1A
330
0
100
AcDbDictionary
281
     1
  3
ACAD_GROUP
350
18
  3
ACAD_LAYOUT
350
69
  3
ACAD_MLINESTYLE
350
19
  3
ACAD_PLOTSETTINGS
350
6A
  3
ACAD_PLOTSTYLENAME
350
67
  3
AcDbVariableDictionary
350
70
  0
DICTIONARY
  5
18
102
{ACAD_REACTORS
330
1A
102
}
330
1A
100
AcDbDictionary
281
     1
  0
DICTIONARY
  5
69
102
{ACAD_REACTORS
330
1A
102
}
330
1A
100
AcDbDictionary
281
     1
  3
Layout1
350
6C
  3
Model
350
6B
  0
DICTIONARY
  5
19
102
{ACAD_REACTORS
330
1A
102
}
330
1A
100
AcDbDictionary
281
     1
  3
STANDARD
350
1D
  0
DICTIONARY
  5
6A
102
{ACAD_REACTORS
330
1A
102
}
330
1A
100
AcDbDictionary
281
     1
  0
ACDBDICTIONARYWDFLT
  5
67
102
{ACAD_REACTORS
330
1A
102
}
330
1A
100
AcDbDictionary
281
     1
  3
Normal
350
68
100
AcDbDictionaryWithDefault
340
68
  0
DICTIONARY
  5
70
102
{ACAD_REACTORS
330
1A
102
}
330
1A
100
AcDbDictionary
281
     1
  3
DIMASSOC
350
71
  0
LAYOUT
  5
6C
102
{ACAD_REACTORS
330
69
102
}
330
69
100
AcDbPlotSettings
  1

  2
\\PRINT_SRV\HP LaserJet (Engineering)
  4

  6

 40
0.0
 41
0.0
 42
0.0
 43
0.0
 44
0.0
 45
0.0
 46
0.0
 47
0.0
 48
0.0
 49
0.0
140
0.0
141
0.0
142
1.0
143
1.0
 70
   688
 72
     0
 73
     0
 74
     5
  7
KPT.ctb
 75
    16
147
1.0
148
0.0
149
0.0
100
AcDbLayout
  1
Layout1
 70
     1
 71
     1
 10
0.0
 20
0.0
 11
12.0
 21
9.0
 12
0.0
 22
0.0
 32
0.0
 14
1.000000000000000E+20
 24
1.000000000000000E+20
 34
1.000000000000000E+20
 15
-1.000000000000000E+20
 25
-1.000000000000000E+20
 35
-1.000000000000000E+20
146
0.0
 13
0.0
 23
0.0
 33
0.0
 16
1.0
 26
0.0
 36
0.0
 17
0.0
 27
1.0
 37
0.0
 76
     0
330
7
  0
LAYOUT
  5
6B
102
{ACAD_REACTORS
330
69
102
}
330
69
100
AcDbPlotSettings
  1

  2
\\PRINT_SRV\HP LaserJet (Engineering)
  4

  6

 40
0.0
 41
0.0
 42
0.0
 43
0.0
 44
0.0
 45
0.0
 46
0.0
 47
0.0
 48
0.0
 49
0.0
140
0.0
141
0.0
142
1.0
143
1.0
 70
  1712
 72
     0
 73
     0
 74
     0
  7
KPT.ctb
 75
     0
147
1.0
148
0.0
149
0.0
100
AcDbLayout
  1
Model
 70
     1
 71
     0
 10
0.0
 20
0.0
 11
12.0
 21
9.0
 12
0.0
 22
0.0
 32
0.0
 14
0.0
 24
0.0
 34
0.0
 15
0.0
 25
0.0
 35
0.0
146
0.0
 13
0.0
 23
0.0
 33
0.0
 16
1.0
 26
0.0
 36
0.0
 17
0.0
 27
1.0
 37
0.0
 76
     0
330
2
  0
MLINESTYLE
  5
1D
102
{ACAD_REACTORS
330
19
102
}
330
19
100
AcDbMlineStyle
  2
STANDARD
 70
     0
  3

 62
   256
 51
90.0
 52
90.0
 71
     2
 49
0.5
 62
   256
  6
BYLAYER
 49
-0.5
 62
   256
  6
BYLAYER
  0
ACDBPLACEHOLDER
  5
68
102
{ACAD_REACTORS
330
67
102
}
330
67
  0
DICTIONARYVAR
  5
71
102
{ACAD_REACTORS
330
70
102
}
330
70
100
DictionaryVariables
280
     0
  1
1
  0
ENDSEC
  0
EOF
