  0
SECTION
  2
HEADER
  9
$ACADVER
  1
AC1015
  9
$ACADMAINTVER
 70
    13
  9
$DWGCODEPAGE
  3
ANSI_1252
  9
$INSBASE
 10
535.5863928967506
 20
-3699.313856850423
 30
0.0
  9
$EXTMIN
 10
-55.3944049750973
 20
-32.00400000000172
 30
0.0
  9
$EXTMAX
 10
255.6756829027654
 20
89.35695751484535
 30
0.0
  9
$LIMMIN
 10
0.0
 20
0.0
  9
$LIMMAX
 10
12.0
 20
9.0
  9
$ORTHOMODE
 70
     1
  9
$REGENMODE
 70
     1
  9
$FILLMODE
 70
     1
  9
$QTEXTMODE
 70
     0
  9
$MIRRTEXT
 70
     0
  9
$LTSCALE
 40
10.0
  9
$ATTMODE
 70
     1
  9
$TEXTSIZE
 40
5.0
  9
$TRACEWID
 40
0.05
  9
$TEXTSTYLE
  7
ROMANS
  9
$CLAYER
  8
DIM
  9
$CELTYPE
  6
BYLAYER
  9
$CECOLOR
 62
     3
  9
$CELTSCALE
 40
1.0
  9
$DISPSILH
 70
     0
  9
$DIMSCALE
 40
25.0
  9
$DIMASZ
 40
0.18
  9
$DIMEXO
 40
0.0625
  9
$DIMDLI
 40
0.38
  9
$DIMRND
 40
0.0
  9
$DIMDLE
 40
0.0
  9
$DIMEXE
 40
0.18
  9
$DIMTP
 40
0.0
  9
$DIMTM
 40
0.0
  9
$DIMTXT
 40
0.18
  9
$DIMCEN
 40
0.09
  9
$DIMTSZ
 40
0.0
  9
$DIMTOL
 70
     0
  9
$DIMLIM
 70
     0
  9
$DIMTIH
 70
     0
  9
$DIMTOH
 70
     0
  9
$DIMSE1
 70
     0
  9
$DIMSE2
 70
     0
  9
$DIMTAD
 70
     1
  9
$DIMZIN
 70
     0
  9
$DIMBLK
  1

  9
$DIMASO
 70
     1
  9
$DIMSHO
 70
     1
  9
$DIMPOST
  1

  9
$DIMAPOST
  1

  9
$DIMALT
 70
     0
  9
$DIMALTD
 70
     2
  9
$DIMALTF
 40
25.4
  9
$DIMLFAC
 40
1.0
  9
$DIMTOFL
 70
     0
  9
$DIMTVP
 40
0.0
  9
$DIMTIX
 70
     0
  9
$DIMSOXD
 70
     0
  9
$DIMSAH
 70
     0
  9
$DIMBLK1
  1

  9
$DIMBLK2
  1

  9
$DIMSTYLE
  2
STANDARD
  9
$DIMCLRD
 70
   256
  9
$DIMCLRE
 70
   256
  9
$DIMCLRT
 70
   256
  9
$DIMTFAC
 40
1.0
  9
$DIMGAP
 40
0.09
  9
$DIMJUST
 70
     0
  9
$DIMSD1
 70
     0
  9
$DIMSD2
 70
     0
  9
$DIMTOLJ
 70
     1
  9
$DIMTZIN
 70
     0
  9
$DIMALTZ
 70
     0
  9
$DIMALTTZ
 70
     0
  9
$DIMUPT
 70
     0
  9
$DIMDEC
 70
     1
  9
$DIMTDEC
 70
     1
  9
$DIMALTU
 70
     2
  9
$DIMALTTD
 70
     2
  9
$DIMTXSTY
  7
ROMANS
  9
$DIMAUNIT
 70
     0
  9
$DIMADEC
 70
     0
  9
$DIMALTRND
 40
0.0
  9
$DIMAZIN
 70
     0
  9
$DIMDSEP
 70
    46
  9
$DIMATFIT
 70
     3
  9
$DIMFRAC
 70
     0
  9
$DIMLDRBLK
  1

  9
$DIMLUNIT
 70
     2
  9
$DIMLWD
 70
    -1
  9
$DIMLWE
 70
    -1
  9
$DIMTMOVE
 70
     0
  9
$LUNITS
 70
     2
  9
$LUPREC
 70
     4
  9
$SKETCHINC
 40
0.1
  9
$FILLETRAD
 40
0.0
  9
$AUNITS
 70
     0
  9
$AUPREC
 70
     0
  9
$MENU
  1
acad
  9
$ELEVATION
 40
0.0
  9
$PELEVATION
 40
0.0
  9
$THICKNESS
 40
0.0
  9
$LIMCHECK
 70
     0
  9
$CHAMFERA
 40
1.5
  9
$CHAMFERB
 40
1.5
  9
$CHAMFERC
 40
0.0
  9
$CHAMFERD
 40
0.0
  9
$SKPOLY
 70
     0
  9
$TDCREATE
 40
2449974.566112731
  9
$TDUCREATE
 40
2449974.816112731
  9
$TDUPDATE
 40
2452660.530636748
  9
$TDUUPDATE
 40
2452660.780636747
  9
$TDINDWG
 40
0.9824969792
  9
$TDUSRTIMER
 40
0.9824968634
  9
$USRTIMER
 70
     1
  9
$ANGBASE
 50
0.0
  9
$ANGDIR
 70
     0
  9
$PDMODE
 70
     0
  9
$PDSIZE
 40
0.0
  9
$PLINEWID
 40
0.0
  9
$SPLFRAME
 70
     0
  9
$SPLINETYPE
 70
     6
  9
$SPLINESEGS
 70
     8
  9
$HANDSEED
  5
BD
  9
$SURFTAB1
 70
     6
  9
$SURFTAB2
 70
     6
  9
$SURFTYPE
 70
     6
  9
$SURFU
 70
     6
  9
$SURFV
 70
     6
  9
$UCSBASE
  2

  9
$UCSNAME
  2

  9
$UCSORG
 10
0.0
 20
0.0
 30
0.0
  9
$UCSXDIR
 10
1.0
 20
0.0
 30
0.0
  9
$UCSYDIR
 10
0.0
 20
1.0
 30
0.0
  9
$UCSORTHOREF
  2

  9
$UCSORTHOVIEW
 70
     0
  9
$UCSORGTOP
 10
0.0
 20
0.0
 30
0.0
  9
$UCSORGBOTTOM
 10
0.0
 20
0.0
 30
0.0
  9
$UCSORGLEFT
 10
0.0
 20
0.0
 30
0.0
  9
$UCSORGRIGHT
 10
0.0
 20
0.0
 30
0.0
  9
$UCSORGFRONT
 10
0.0
 20
0.0
 30
0.0
  9
$UCSORGBACK
 10
0.0
 20
0.0
 30
0.0
  9
$PUCSBASE
  2

  9
$PUCSNAME
  2

  9
$PUCSORG
 10
0.0
 20
0.0
 30
0.0
  9
$PUCSXDIR
 10
1.0
 20
0.0
 30
0.0
  9
$PUCSYDIR
 10
0.0
 20
1.0
 30
0.0
  9
$PUCSORTHOREF
  2

  9
$PUCSORTHOVIEW
 70
     0
  9
$PUCSORGTOP
 10
0.0
 20
0.0
 30
0.0
  9
$PUCSORGBOTTOM
 10
0.0
 20
0.0
 30
0.0
  9
$PUCSORGLEFT
 10
0.0
 20
0.0
 30
0.0
  9
$PUCSORGRIGHT
 10
0.0
 20
0.0
 30
0.0
  9
$PUCSORGFRONT
 10
0.0
 20
0.0
 30
0.0
  9
$PUCSORGBACK
 10
0.0
 20
0.0
 30
0.0
  9
$USERI1
 70
     0
  9
$USERI2
 70
     0
  9
$USERI3
 70
     0
  9
$USERI4
 70
     0
  9
$USERI5
 70
     0
  9
$USERR1
 40
0.0
  9
$USERR2
 40
0.0
  9
$USERR3
 40
0.0
  9
$USERR4
 40
0.0
  9
$USERR5
 40
0.0
  9
$WORLDVIEW
 70
     1
  9
$SHADEDGE
 70
     3
  9
$SHADEDIF
 70
    70
  9
$TILEMODE
 70
     1
  9
$MAXACTVP
 70
    16
  9
$PINSBASE
 10
0.0
 20
0.0
 30
0.0
  9
$PLIMCHECK
 70
     0
  9
$PEXTMIN
 10
1.000000000000000E+20
 20
1.000000000000000E+20
 30
1.000000000000000E+20
  9
$PEXTMAX
 10
-1.000000000000000E+20
 20
-1.000000000000000E+20
 30
-1.000000000000000E+20
  9
$PLIMMIN
 10
0.0
 20
0.0
  9
$PLIMMAX
 10
12.0
 20
9.0
  9
$UNITMODE
 70
     0
  9
$VISRETAIN
 70
     0
  9
$PLINEGEN
 70
     0
  9
$PSLTSCALE
 70
     1
  9
$TREEDEPTH
 70
  3020
  9
$CMLSTYLE
  2
STANDARD
  9
$CMLJUST
 70
     0
  9
$CMLSCALE
 40
1.0
  9
$PROXYGRAPHICS
 70
     1
  9
$MEASUREMENT
 70
     0
  9
$CELWEIGHT
370
    -1
  9
$ENDCAPS
280
     0
  9
$JOINSTYLE
280
     0
  9
$LWDISPLAY
290
     0
  9
$INSUNITS
 70
     0
  9
$HYPERLINKBASE
  1

  9
$STYLESHEET
  1

  9
$XEDIT
290
     1
  9
$CEPSNTYPE
380
     0
  9
$PSTYLEMODE
290
     1
  9
$FINGERPRINTGUID
  2
{0B436441-3939-49B5-8AD9-9055993B8DFB}
  9
$VERSIONGUID
  2
{B0EA88E3-5817-4A4B-8970-B249D907320E}
  9
$EXTNAMES
290
     1
  9
$PSVPSCALE
 40
0.0
  9
$OLESTARTUP
290
     0
  0
ENDSEC
  0
SECTION
  2
CLASSES
  0
CLASS
  1
DICTIONARYVAR
  2
AcDbDictionaryVar
  3
AutoCAD 2000
 90
        0
280
     0
281
     0
  0
CLASS
  1
LWPOLYLINE
  2
AcDbPolyline
  3
AutoCAD 2000
 90
    32768
280
     0
281
     1
  0
CLASS
  1
OLE2FRAME
  2
AcDbOle2Frame
  3
AutoCAD 2000
 90
    32768
280
     0
281
     1
  0
CLASS
  1
ACDBDICTIONARYWDFLT
  2
AcDbDictionaryWithDefault
  3
AutoCAD 2000
 90
        0
280
     0
281
     0
  0
CLASS
  1
ACDBPLACEHOLDER
  2
AcDbPlaceHolder
  3
AutoCAD 2000
 90
        0
280
     0
281
     0
  0
CLASS
  1
LAYOUT
  2
AcDbLayout
  3
AutoCAD 2000
 90
        0
280
     0
281
     0
  0
ENDSEC
  0
SECTION
  2
TABLES
  0
TABLE
  2
VPORT
  5
12
330
0
100
AcDbSymbolTable
 70
     2
  0
VPORT
  5
BC
330
12
100
AcDbSymbolTableRecord
100
AcDbViewportTableRecord
  2
*Active
 70
     0
 10
0.0
 20
0.0
 11
1.0
 21
1.0
 12
100.140638963834
 22
28.6764787574218
 13
0.0
 23
0.0
 14
1.0
 24
1.0
 15
0.0
 25
0.0
 16
0.0
 26
0.0
 36
1.0
 17
0.0
 27
0.0
 37
0.0
 40
208.584329153948
 41
1.498756218905472
 42
50.0
 43
0.0
 44
0.0
 50
0.0
 51
0.0
 71
     0
 72
 10000
 73
     1
 74
     1
 75
     0
 76
     0
 77
     0
 78
     0
281
     0
 65
     1
110
0.0
120
0.0
130
0.0
111
1.0
121
0.0
131
0.0
112
0.0
122
1.0
132
0.0
 79
     0
146
0.0
  0
ENDTAB
  0
TABLE
  2
LTYPE
  5
D
330
0
100
AcDbSymbolTable
 70
     3
  0
LTYPE
  5
E
330
D
100
AcDbSymbolTableRecord
100
AcDbLinetypeTableRecord
  2
BYBLOCK
 70
     0
  3

 72
    65
 73
     0
 40
0.0
  0
LTYPE
  5
F
330
D
100
AcDbSymbolTableRecord
100
AcDbLinetypeTableRecord
  2
BYLAYER
 70
     0
  3

 72
    65
 73
     0
 40
0.0
  0
LTYPE
  5
5
330
D
100
AcDbSymbolTableRecord
100
AcDbLinetypeTableRecord
  2
CONTINUOUS
 70
     0
  3
Solid line
 72
    65
 73
     0
 40
0.0
  0
LTYPE
  5
27
330
D
100
AcDbSymbolTableRecord
100
AcDbLinetypeTableRecord
  2
HIDDEN
 70
     0
  3
_ _ _ _ _ _ _ _ _ _ _ _ _ _ _ _ _ _ _ _ _ _ _
 72
    65
 73
     2
 40
0.375
 49
0.25
 74
     0
 49
-0.125
 74
     0
  0
LTYPE
  5
23
330
D
100
AcDbSymbolTableRecord
100
AcDbLinetypeTableRecord
  2
CENTER
 70
     0
  3
____ _ ____ _ ____ _ ____ _ ____ _ ____ _ ____
 72
    65
 73
     4
 40
2.0
 49
1.25
 74
     0
 49
-0.25
 74
     0
 49
0.25
 74
     0
 49
-0.25
 74
     0
  0
ENDTAB
  0
TABLE
  2
LAYER
  5
A
330
0
100
AcDbSymbolTable
 70
     7
  0
LAYER
  5
4
330
A
100
AcDbSymbolTableRecord
100
AcDbLayerTableRecord
  2
0
 70
     0
 62
     7
  6
CONTINUOUS
370
    -3
390
5E
  0
LAYER
  5
1B
330
A
100
AcDbSymbolTableRecord
100
AcDbLayerTableRecord
  2
LINE
 70
     0
 62
     3
  6
CONTINUOUS
370
    -3
390
5E
  0
LAYER
  5
26
330
A
100
AcDbSymbolTableRecord
100
AcDbLayerTableRecord
  2
HIDDEN
 70
     0
 62
     2
  6
HIDDEN
370
    -3
390
5E
  0
LAYER
  5
22
330
A
100
AcDbSymbolTableRecord
100
AcDbLayerTableRecord
  2
CTRL
 70
     0
 62
     1
  6
CENTER
370
    -3
390
5E
  0
LAYER
  5
6E
330
A
100
AcDbSymbolTableRecord
100
AcDbLayerTableRecord
  2
DIM
 70
     0
 62
     7
  6
CONTINUOUS
370
    -3
390
5E
  0
LAYER
  5
6F
330
A
100
AcDbSymbolTableRecord
100
AcDbLayerTableRecord
  2
KA
 70
     0
 62
     3
  6
CONTINUOUS
370
    -3
390
5E
  0
LAYER
  5
71
330
A
100
AcDbSymbolTableRecord
100
AcDbLayerTableRecord
  2
Defpoints
 70
     0
 62
     7
  6
CONTINUOUS
290
     0
370
    -3
390
5E
  0
ENDTAB
  0
TABLE
  2
STYLE
  5
B
330
0
100
AcDbSymbolTable
 70
     2
  0
STYLE
  5
C
330
B
100
AcDbSymbolTableRecord
100
AcDbTextStyleTableRecord
  2
STANDARD
 70
     0
 40
0.0
 41
1.0
 50
0.0
 71
     0
 42
0.2
  3
txt
  4

  0
STYLE
  5
1C
330
B
100
AcDbSymbolTableRecord
100
AcDbTextStyleTableRecord
  2
ROMANS
 70
     0
 40
0.0
 41
1.0
 50
0.0
 71
     0
 42
5.0
  3
romans
  4

  0
ENDTAB
  0
TABLE
  2
VIEW
  5
10
330
0
100
AcDbSymbolTable
 70
     0
  0
ENDTAB
  0
TABLE
  2
UCS
  5
11
330
0
100
AcDbSymbolTable
 70
     0
  0
ENDTAB
  0
TABLE
  2
APPID
  5
14
330
0
100
AcDbSymbolTable
 70
     1
  0
APPID
  5
15
330
14
100
AcDbSymbolTableRecord
100
AcDbRegAppTableRecord
  2
ACAD
 70
     0
  0
ENDTAB
  0
TABLE
  2
DIMSTYLE
  5
16
330
0
100
AcDbSymbolTable
 70
     1
100
AcDbDimStyleTable
 71
     1
340
1E
  0
DIMSTYLE
105
1E
102
{ACAD_REACTORS
330
70
330
7E
330
8B
102
}
330
16
100
AcDbSymbolTableRecord
100
AcDbDimStyleTableRecord
  2
STANDARD
 70
     0
 40
25.0
 73
     0
 74
     0
 77
     1
176
   256
177
   256
178
   256
271
     1
272
     1
340
1C
371
    -1
372
    -1
  0
ENDTAB
  0
TABLE
  2
BLOCK_RECORD
  5
1
330
0
100
AcDbSymbolTable
 70
     3
  0
BLOCK_RECORD
  5
2
330
1
100
AcDbSymbolTableRecord
100
AcDbBlockTableRecord
  2
*MODEL_SPACE
340
61
  0
BLOCK_RECORD
  5
7
330
1
100
AcDbSymbolTableRecord
100
AcDbBlockTableRecord
  2
*PAPER_SPACE
340
62
  0
BLOCK_RECORD
  5
72
330
1
100
AcDbSymbolTableRecord
100
AcDbBlockTableRecord
  2
*D0
340
0
  0
BLOCK_RECORD
  5
7F
330
1
100
AcDbSymbolTableRecord
100
AcDbBlockTableRecord
  2
*D1
340
0
  0
BLOCK_RECORD
  5
8C
330
1
100
AcDbSymbolTableRecord
100
AcDbBlockTableRecord
  2
*D2
340
0
  0
ENDTAB
  0
ENDSEC
  0
SECTION
  2
BLOCKS
  0
BLOCK
  5
3
330
2
100
AcDbEntity
  8
0
100
AcDbBlockBegin
  2
*MODEL_SPACE
 70
     0
 10
0.0
 20
0.0
 30
0.0
  3
*MODEL_SPACE
  1

  0
ENDBLK
  5
6
330
2
100
AcDbEntity
  8
0
100
AcDbBlockEnd
  0
BLOCK
  5
8
330
7
100
AcDbEntity
 67
     1
  8
0
100
AcDbBlockBegin
  2
*PAPER_SPACE
 70
     0
 10
0.0
 20
0.0
 30
0.0
  3
*PAPER_SPACE
  1

  0
ENDBLK
  5
9
330
7
100
AcDbEntity
 67
     1
  8
0
100
AcDbBlockEnd
  0
BLOCK
  5
7C
330
72
100
AcDbEntity
  8
0
 62
     3
100
AcDbBlockBegin
  2
*D0
 70
     1
 10
0.0
 20
0.0
 30
0.0
  3
*D0
  1

  0
LINE
  5
B3
330
72
100
AcDbEntity
  8
DIM
100
AcDbLine
 10
-40.00500000000005
 20
18.37784889117483
 30
0.0
 11
-40.00500000000005
 21
87.10695751484536
 31
0.0
  0
LINE
  5
B4
330
72
100
AcDbEntity
  8
DIM
100
AcDbLine
 10
224.9633820925223
 20
32.06611885670872
 30
0.0
 11
224.9633820925223
 21
87.10695751484536
 31
0.0
  0
LINE
  5
B5
330
72
100
AcDbEntity
  8
DIM
100
AcDbLine
 10
-35.50500000000004
 20
82.60695751484536
 30
0.0
 11
220.4633820925223
 21
82.60695751484536
 31
0.0
  0
SOLID
  5
B6
330
72
100
AcDbEntity
  8
DIM
100
AcDbTrace
 10
-35.50500000000004
 20
83.35695751484536
 30
0.0
 11
-35.50500000000004
 21
81.85695751484535
 31
0.0
 12
-40.00500000000005
 22
82.60695751484536
 32
0.0
 13
-40.00500000000005
 23
82.60695751484536
 33
0.0
  0
SOLID
  5
B7
330
72
100
AcDbEntity
  8
DIM
100
AcDbTrace
 10
220.4633820925223
 20
83.35695751484536
 30
0.0
 11
220.4633820925223
 21
81.85695751484535
 31
0.0
 12
224.9633820925223
 22
82.60695751484536
 32
0.0
 13
224.9633820925223
 23
82.60695751484536
 33
0.0
  0
MTEXT
  5
B8
330
72
100
AcDbEntity
  8
DIM
100
AcDbMText
 10
92.47919104626111
 20
87.10695751484536
 30
0.0
 40
4.5
 41
0.0
 71
     5
 72
     1
  1
\A1;265.0
  7
ROMANS
 73
     1
 44
1.0
  0
POINT
  5
B9
330
72
100
AcDbEntity
  8
Defpoints
 62
     0
100
AcDbPoint
 10
-40.00500000000005
 20
16.81534889117483
 30
0.0
  0
POINT
  5
BA
330
72
100
AcDbEntity
  8
Defpoints
 62
     0
100
AcDbPoint
 10
224.9633820925223
 20
30.50361885670872
 30
0.0
  0
POINT
  5
BB
330
72
100
AcDbEntity
  8
Defpoints
 62
     0
100
AcDbPoint
 10
224.9633820925223
 20
82.60695751484536
 30
0.0
  0
ENDBLK
  5
7D
330
72
100
AcDbEntity
  8
0
 62
     3
100
AcDbBlockEnd
  0
BLOCK
  5
89
330
7F
100
AcDbEntity
  8
0
 62
     3
100
AcDbBlockBegin
  2
*D1
 70
     1
 10
0.0
 20
0.0
 30
0.0
  3
*D1
  1

  0
LINE
  5
AA
330
7F
100
AcDbEntity
  8
DIM
100
AcDbLine
 10
0.0000000000000001
 20
32.56319999999914
 30
0.0
 11
0.0000000000000019
 21
62.49169753810065
 31
0.0
  0
LINE
  5
AB
330
7F
100
AcDbEntity
  8
DIM
100
AcDbLine
 10
224.9633820925223
 20
32.06611885670872
 30
0.0
 11
224.9633820925223
 21
62.49169753810065
 31
0.0
  0
LINE
  5
AC
330
7F
100
AcDbEntity
  8
DIM
100
AcDbLine
 10
4.500000000000001
 20
57.99169753810065
 30
0.0
 11
220.4633820925223
 21
57.99169753810065
 31
0.0
  0
SOLID
  5
AD
330
7F
100
AcDbEntity
  8
DIM
100
AcDbTrace
 10
4.500000000000001
 20
58.74169753810065
 30
0.0
 11
4.500000000000001
 21
57.24169753810065
 31
0.0
 12
0.0000000000000017
 22
57.99169753810065
 32
0.0
 13
0.0000000000000017
 23
57.99169753810065
 33
0.0
  0
SOLID
  5
AE
330
7F
100
AcDbEntity
  8
DIM
100
AcDbTrace
 10
220.4633820925223
 20
58.74169753810065
 30
0.0
 11
220.4633820925223
 21
57.24169753810065
 31
0.0
 12
224.9633820925223
 22
57.99169753810065
 32
0.0
 13
224.9633820925223
 23
57.99169753810065
 33
0.0
  0
MTEXT
  5
AF
330
7F
100
AcDbEntity
  8
DIM
100
AcDbMText
 10
112.4816910462611
 20
62.49169753810065
 30
0.0
 40
4.5
 41
0.0
 71
     5
 72
     1
  1
\A1;225.0
  7
ROMANS
 73
     1
 44
1.0
  0
POINT
  5
B0
330
7F
100
AcDbEntity
  8
Defpoints
 62
     0
100
AcDbPoint
 10
0.0
 20
31.00069999999914
 30
0.0
  0
POINT
  5
B1
330
7F
100
AcDbEntity
  8
Defpoints
 62
     0
100
AcDbPoint
 10
224.9633820925223
 20
30.50361885670872
 30
0.0
  0
POINT
  5
B2
330
7F
100
AcDbEntity
  8
Defpoints
 62
     0
100
AcDbPoint
 10
224.9633820925223
 20
57.99169753810065
 30
0.0
  0
ENDBLK
  5
8A
330
7F
100
AcDbEntity
  8
0
 62
     3
100
AcDbBlockEnd
  0
BLOCK
  5
96
330
8C
100
AcDbEntity
  8
0
 62
     3
100
AcDbBlockBegin
  2
*D2
 70
     1
 10
0.0
 20
0.0
 30
0.0
  3
*D2
  1

  0
LINE
  5
A1
330
8C
100
AcDbEntity
  8
DIM
100
AcDbLine
 10
225.0258820925247
 20
32.00362150590808
 30
0.0
 11
255.6756829027654
 21
32.00362150590807
 31
0.0
  0
LINE
  5
A2
330
8C
100
AcDbEntity
  8
DIM
100
AcDbLine
 10
225.0258820925227
 20
-32.00399999999763
 30
0.0
 11
255.6756829027654
 21
-32.00399999999763
 31
0.0
  0
LINE
  5
A3
330
8C
100
AcDbEntity
  8
DIM
100
AcDbLine
 10
251.1756829027654
 20
27.50362150590808
 30
0.0
 11
251.1756829027654
 21
-27.50399999999764
 31
0.0
  0
SOLID
  5
A4
330
8C
100
AcDbEntity
  8
DIM
100
AcDbTrace
 10
250.4256829027654
 20
27.50362150590808
 30
0.0
 11
251.9256829027654
 21
27.50362150590808
 31
0.0
 12
251.1756829027654
 22
32.00362150590807
 32
0.0
 13
251.1756829027654
 23
32.00362150590807
 33
0.0
  0
SOLID
  5
A5
330
8C
100
AcDbEntity
  8
DIM
100
AcDbTrace
 10
250.4256829027654
 20
-27.50399999999764
 30
0.0
 11
251.9256829027654
 21
-27.50399999999764
 31
0.0
 12
251.1756829027654
 22
-32.00399999999763
 32
0.0
 13
251.1756829027654
 23
-32.00399999999763
 33
0.0
  0
MTEXT
  5
A6
330
8C
100
AcDbEntity
  8
DIM
100
AcDbMText
 10
246.6756829027654
 20
-0.0001892470447379
 30
0.0
 40
4.5
 41
0.0
 71
     5
 72
     1
  1
\A1;%%c64.0
  7
ROMANS
 11
0.0000000000000001
 21
1.0
 31
0.0
 73
     1
 44
1.0
  0
POINT
  5
A7
330
8C
100
AcDbEntity
  8
Defpoints
 62
     0
100
AcDbPoint
 10
223.4633820925247
 20
32.00362150590808
 30
0.0
  0
POINT
  5
A8
330
8C
100
AcDbEntity
  8
Defpoints
 62
     0
100
AcDbPoint
 10
223.4633820925227
 20
-32.00399999999763
 30
0.0
  0
POINT
  5
A9
330
8C
100
AcDbEntity
  8
Defpoints
 62
     0
100
AcDbPoint
 10
251.1756829027654
 20
-32.00399999999763
 30
0.0
  0
ENDBLK
  5
97
330
8C
100
AcDbEntity
  8
0
 62
     3
100
AcDbBlockEnd
  0
ENDSEC
  0
SECTION
  2
ENTITIES
  0
LINE
  5
1F
330
2
100
AcDbEntity
  8
LINE
 62
     3
100
AcDbLine
 10
9.1567
 20
-32.00400000000081
 30
0.0
 11
223.4633820925227
 21
-32.00399999999763
 31
0.0
  0
LINE
  5
20
330
2
100
AcDbEntity
  8
LINE
 62
     3
100
AcDbLine
 10
223.4633820925247
 20
32.00362150590808
 30
0.0
 11
9.156699999999943
 21
32.00399999999945
 31
0.0
  0
LINE
  5
21
330
2
100
AcDbEntity
  8
CTRL
100
AcDbLine
 10
-55.3944049750973
 20
-0.0000000000004547
 30
0.0
 11
236.8962621889351
 21
0.0000000000013642
 31
0.0
  0
LINE
  5
24
330
2
100
AcDbEntity
  8
KA
100
AcDbLine
 10
-15.83690000000001
 20
4.486916490195199
 30
0.0
 11
-15.83690000000001
 21
-4.486916490197927
 31
0.0
  0
LINE
  5
25
330
2
100
AcDbEntity
  8
HIDDEN
100
AcDbLine
 10
-1.350975479668079
 20
7.937499999998181
 30
0.0
 11
3.23174228202447
 21
-0.0000000000004547
 31
0.0
  0
LINE
  5
28
330
2
100
AcDbEntity
  8
HIDDEN
100
AcDbLine
 10
-1.350975479668079
 20
7.937499999998181
 30
0.0
 11
-1.350975479668079
 21
-7.937500000000454
 31
0.0
  0
LWPOLYLINE
  5
29
330
2
100
AcDbEntity
  8
KA
100
AcDbPolyline
 90
       16
 70
     1
 43
0.0
 10
-9.609409599879029
 20
-0.0000000000004547
 42
0.1115408558816133
 10
-10.04377805716041
 20
1.922902233632157
 42
0.1029733543267754
 10
-11.3329662235692
 20
3.620330557134366
 42
0.0927957371124016
 10
-13.20606121840808
 20
4.720228740585753
 42
0.0866911325972541
 10
-15.49400000000002
 20
5.119920574174102
 42
0.086691132597254
 10
-17.78193878159174
 20
4.720228740585753
 42
0.0927957371124026
 10
-19.65503377643085
 20
3.620330557134366
 42
0.1029733543267735
 10
-20.9442219428397
 20
1.922902233632157
 42
0.1115408558816151
 10
-21.37859040012108
 20
-0.0000000000004547
 42
0.1115408558816122
 10
-20.9442219428397
 20
-1.922902233634886
 42
0.1029733543267726
 10
-19.65503377643085
 20
-3.620330557138004
 42
0.0927957371123996
 10
-17.78193878159203
 20
-4.720228740588936
 42
0.0866911325972534
 10
-15.49400000000002
 20
-5.11992057417683
 42
0.0866911325972539
 10
-13.20606121840808
 20
-4.720228740588936
 42
0.0927957371124012
 10
-11.3329662235692
 20
-3.620330557138004
 42
0.1029733543267761
 10
-10.04377805716041
 20
-1.922902233634886
 42
0.1115408558816135
  0
CIRCLE
  5
2A
330
2
100
AcDbEntity
  8
KA
100
AcDbCircle
 10
-15.49400000000002
 20
-0.0000000000004547
 30
0.0
 40
4.5
  0
LINE
  5
2B
330
2
100
AcDbEntity
  8
KA
100
AcDbLine
 10
-40.00500000000005
 20
16.81534889117483
 30
0.0
 11
-40.00500000000005
 21
-0.0000000000004547
 31
0.0
  0
LINE
  5
2C
330
2
100
AcDbEntity
  8
LINE
100
AcDbLine
 10
0.0
 20
31.00069999999914
 30
0.0
 11
0.0
 21
-0.0000000000004547
 31
0.0
  0
LINE
  5
2D
330
2
100
AcDbEntity
  8
KA
100
AcDbLine
 10
-34.92500000000001
 20
17.99589999999807
 30
0.0
 11
-34.92500000000006
 21
-0.0000000000004547
 31
0.0
  0
LINE
  5
2E
330
2
100
AcDbEntity
  8
KA
100
AcDbLine
 10
-37.75186034502297
 20
17.59861068752206
 30
0.0
 11
-37.75186034502297
 21
-0.0000000000004547
 31
0.0
  0
LINE
  5
2F
330
2
100
AcDbEntity
  8
LINE
100
AcDbLine
 10
1.003299999999967
 20
32.00399999999808
 30
0.0
 11
1.003299999999967
 21
-0.0000000000004547
 31
0.0
  0
LINE
  5
30
330
2
100
AcDbEntity
  8
KA
100
AcDbLine
 10
-2.032000000000039
 20
17.99589999999807
 30
0.0
 11
-2.032000000000039
 21
-0.0000000000004547
 31
0.0
  0
LINE
  5
31
330
2
100
AcDbEntity
  8
LINE
100
AcDbLine
 10
1.00329999999991
 20
-32.00400000000081
 30
0.0
 11
9.1567
 21
-32.00400000000172
 31
0.0
  0
LINE
  5
32
330
2
100
AcDbEntity
  8
KA
100
AcDbLine
 10
-34.92500000000001
 20
-17.99590000000171
 30
0.0
 11
-15.83690000000001
 21
-17.99590000000171
 31
0.0
  0
LINE
  5
33
330
2
100
AcDbEntity
  8
HIDDEN
100
AcDbLine
 10
-37.75186034502297
 20
-7.937500000000454
 30
0.0
 11
-1.350975479668079
 21
-7.937500000000454
 31
0.0
  0
LINE
  5
34
330
2
100
AcDbEntity
  8
HIDDEN
100
AcDbLine
 10
-37.75186034502297
 20
-7.937500000000454
 30
0.0
 11
-40.00500000000005
 21
-9.238350786323735
 31
0.0
  0
LINE
  5
35
330
2
100
AcDbEntity
  8
KA
100
AcDbLine
 10
-37.75186034502286
 20
-17.59861068752525
 30
0.0
 11
-37.75186034502297
 21
-0.0000000000004547
 31
0.0
  0
ARC
  5
36
330
2
100
AcDbEntity
  8
KA
100
AcDbCircle
 10
-39.01439999999996
 20
-16.81534889117665
 30
0.0
 40
0.9905999999999998
100
AcDbArc
 50
180.0
 51
280.0000000000002
  0
LINE
  5
37
330
2
100
AcDbEntity
  8
KA
100
AcDbLine
 10
-34.92500000000001
 20
-17.99590000000171
 30
0.0
 11
-37.75186034502286
 21
-17.59861068752525
 31
0.0
  0
LINE
  5
38
330
2
100
AcDbEntity
  8
KA
100
AcDbLine
 10
-38.84238411520306
 20
-17.7908994513109
 30
0.0
 11
-37.75186034502286
 21
-17.59861068752525
 31
0.0
  0
LINE
  5
39
330
2
100
AcDbEntity
  8
KA
100
AcDbLine
 10
-34.92500000000001
 20
-17.99590000000171
 30
0.0
 11
-34.92500000000006
 21
-0.0000000000004547
 31
0.0
  0
LINE
  5
3A
330
2
100
AcDbEntity
  8
KA
100
AcDbLine
 10
-40.00499999999999
 20
-16.81534889117665
 30
0.0
 11
-40.00500000000005
 21
-0.0000000000004547
 31
0.0
  0
ARC
  5
3B
330
2
100
AcDbEntity
  8
KA
100
AcDbCircle
 10
-8.934450000000026
 20
-41.8212251741761
 30
0.0
 40
24.80503851352892
100
AcDbArc
 50
73.84313558935748
 51
106.1568644106427
  0
LINE
  5
3C
330
2
100
AcDbEntity
  8
KA
100
AcDbLine
 10
-15.83690000000001
 20
-17.99590000000171
 30
0.0
 11
-13.92927697557053
 21
-21.30000000000063
 31
0.0
  0
LINE
  5
3D
330
2
100
AcDbEntity
  8
HIDDEN
100
AcDbLine
 10
-1.350975479668079
 20
-7.937500000000454
 30
0.0
 11
3.23174228202447
 21
-0.0000000000004547
 31
0.0
  0
LINE
  5
3E
330
2
100
AcDbEntity
  8
KA
100
AcDbLine
 10
-13.58286681405678
 20
-21.50000000000045
 30
0.0
 11
-4.095533185943224
 21
-21.50000000000045
 31
0.0
  0
LINE
  5
3F
330
2
100
AcDbEntity
  8
KA
100
AcDbLine
 10
-1.841499999999882
 20
-17.99590000000171
 30
0.0
 11
-3.749123024429366
 21
-21.30000000000063
 31
0.0
  0
LINE
  5
40
330
2
100
AcDbEntity
  8
KA
100
AcDbLine
 10
-1.841499999999882
 20
-17.99590000000171
 30
0.0
 11
-1.841499999999882
 21
-17.94485567884385
 31
0.0
  0
ARC
  5
41
330
2
100
AcDbEntity
  8
KA
100
AcDbCircle
 10
-13.58286681405678
 20
-21.10000000000082
 30
0.0
 40
0.4
100
AcDbArc
 50
210.0
 51
270.0
  0
ARC
  5
42
330
2
100
AcDbEntity
  8
KA
100
AcDbCircle
 10
-4.095533185943224
 20
-21.10000000000082
 30
0.0
 40
0.4
100
AcDbArc
 50
270.0
 51
329.9999999999998
  0
LINE
  5
43
330
2
100
AcDbEntity
  8
KA
100
AcDbLine
 10
-2.032000000000039
 20
-17.99590000000171
 30
0.0
 11
-2.032000000000039
 21
-0.0000000000004547
 31
0.0
  0
LINE
  5
44
330
2
100
AcDbEntity
  8
KA
100
AcDbLine
 10
-2.032000000000039
 20
-17.99590000000171
 30
0.0
 11
0.0
 21
-17.45142724098195
 31
0.0
  0
LINE
  5
45
330
2
100
AcDbEntity
  8
LINE
100
AcDbLine
 10
1.00329999999991
 20
-32.00400000000081
 30
0.0
 11
1.003299999999967
 21
-0.0000000000004547
 31
0.0
  0
LINE
  5
46
330
2
100
AcDbEntity
  8
LINE
100
AcDbLine
 10
0.0
 20
-31.0007000000005
 30
0.0
 11
1.003299999999967
 21
-32.00400000000081
 31
0.0
  0
LINE
  5
47
330
2
100
AcDbEntity
  8
LINE
100
AcDbLine
 10
0.0
 20
-31.0007000000005
 30
0.0
 11
0.0
 21
-0.0000000000004547
 31
0.0
  0
LINE
  5
48
330
2
100
AcDbEntity
  8
LINE
100
AcDbLine
 10
1.003299999999967
 20
32.00399999999808
 30
0.0
 11
9.1567
 21
32.00399999999808
 31
0.0
  0
LINE
  5
49
330
2
100
AcDbEntity
  8
KA
100
AcDbLine
 10
-34.92500000000001
 20
17.99589999999807
 30
0.0
 11
-15.83690000000001
 21
17.99589999999807
 31
0.0
  0
LINE
  5
4A
330
2
100
AcDbEntity
  8
HIDDEN
100
AcDbLine
 10
-37.75186034502297
 20
7.937499999998181
 30
0.0
 11
-1.350975479668079
 21
7.937499999998181
 31
0.0
  0
LINE
  5
4B
330
2
100
AcDbEntity
  8
KA
100
AcDbLine
 10
-38.84238411520317
 20
17.79089945130908
 30
0.0
 11
-37.75186034502297
 21
17.59861068752206
 31
0.0
  0
LINE
  5
4C
330
2
100
AcDbEntity
  8
KA
100
AcDbLine
 10
-34.92500000000001
 20
17.99589999999807
 30
0.0
 11
-37.75186034502297
 21
17.59861068752206
 31
0.0
  0
ARC
  5
4D
330
2
100
AcDbEntity
  8
KA
100
AcDbCircle
 10
-39.01439999999996
 20
16.8153488911762
 30
0.0
 40
0.9905999999999998
100
AcDbArc
 50
79.99999999999968
 51
179.9999999999999
  0
LINE
  5
4E
330
2
100
AcDbEntity
  8
HIDDEN
100
AcDbLine
 10
-37.75186034502297
 20
7.937499999998181
 30
0.0
 11
-40.00500000000005
 21
9.238350786321916
 31
0.0
  0
ARC
  5
4F
330
2
100
AcDbEntity
  8
KA
100
AcDbCircle
 10
-8.934450000000026
 20
41.82122517417428
 30
0.0
 40
24.80503851352892
100
AcDbArc
 50
253.8431355893572
 51
286.1568644106425
  0
LINE
  5
50
330
2
100
AcDbEntity
  8
KA
100
AcDbLine
 10
-15.83690000000001
 20
17.99589999999807
 30
0.0
 11
-13.92927697557058
 21
21.29999999999927
 31
0.0
  0
ARC
  5
51
330
2
100
AcDbEntity
  8
KA
100
AcDbCircle
 10
-4.095533185943224
 20
21.09999999999945
 30
0.0
 40
0.4
100
AcDbArc
 50
30.00000000000016
 51
90.0
  0
ARC
  5
52
330
2
100
AcDbEntity
  8
KA
100
AcDbCircle
 10
-13.58286681405667
 20
21.09999999999945
 30
0.0
 40
0.4
100
AcDbArc
 50
90.0
 51
149.9999999999998
  0
LINE
  5
53
330
2
100
AcDbEntity
  8
KA
100
AcDbLine
 10
-1.841499999999996
 20
17.99589999999807
 30
0.0
 11
-1.841499999999996
 21
17.94485567884021
 31
0.0
  0
LINE
  5
54
330
2
100
AcDbEntity
  8
KA
100
AcDbLine
 10
-1.841499999999996
 20
17.99589999999807
 30
0.0
 11
-3.749123024429366
 21
21.29999999999927
 31
0.0
  0
LINE
  5
55
330
2
100
AcDbEntity
  8
KA
100
AcDbLine
 10
-13.58286681405678
 20
21.49999999999954
 30
0.0
 11
-4.095533185943224
 21
21.49999999999954
 31
0.0
  0
LINE
  5
56
330
2
100
AcDbEntity
  8
LINE
100
AcDbLine
 10
0.0
 20
31.00069999999914
 30
0.0
 11
1.003299999999967
 21
32.00399999999808
 31
0.0
  0
LINE
  5
57
330
2
100
AcDbEntity
  8
KA
100
AcDbLine
 10
-2.032000000000039
 20
17.99589999999807
 30
0.0
 11
0.0
 21
17.45142724097831
 31
0.0
  0
LINE
  5
58
330
2
100
AcDbEntity
  8
LINE
 62
     3
100
AcDbLine
 10
223.4633820925244
 20
32.00362150590945
 30
0.0
 11
223.4633820925226
 21
-32.00399999999763
 31
0.0
  0
LINE
  5
59
330
2
100
AcDbEntity
  8
LINE
 62
     3
100
AcDbLine
 10
224.9633820925227
 20
-30.50399999999763
 30
0.0
 11
224.9633820925223
 21
30.50361885670872
 31
0.0
  0
LINE
  5
5A
330
2
100
AcDbEntity
  8
LINE
 62
     3
100
AcDbLine
 10
224.9633820925227
 20
-30.50399999999763
 30
0.0
 11
223.4633820925227
 21
-32.00399999999763
 31
0.0
  0
LINE
  5
5B
330
2
100
AcDbEntity
  8
LINE
 62
     3
100
AcDbLine
 10
223.4633820925247
 20
32.00362150590808
 30
0.0
 11
224.9633820925223
 21
30.50361885670872
 31
0.0
  0
DIMENSION
  5
70
330
2
100
AcDbEntity
  8
DIM
 62
     3
100
AcDbDimension
  2
*D0
 10
224.9633820925223
 20
82.60695751484536
 30
0.0
 11
92.47919104626111
 21
87.10695751484536
 31
0.0
 70
    32
 71
     5
 42
264.9683820925223
  3
STANDARD
100
AcDbAlignedDimension
 13
-40.00500000000005
 23
16.81534889117483
 33
0.0
 14
224.9633820925223
 24
30.50361885670872
 34
0.0
100
AcDbRotatedDimension
  0
DIMENSION
  5
7E
330
2
100
AcDbEntity
  8
DIM
 62
     3
100
AcDbDimension
  2
*D1
 10
224.9633820925223
 20
57.99169753810065
 30
0.0
 11
112.4816910462611
 21
62.49169753810065
 31
0.0
 70
    32
 71
     5
 42
224.9633820925223
  3
STANDARD
100
AcDbAlignedDimension
 13
0.0
 23
31.00069999999914
 33
0.0
 14
224.9633820925223
 24
30.50361885670872
 34
0.0
100
AcDbRotatedDimension
  0
DIMENSION
  5
8B
330
2
100
AcDbEntity
  8
DIM
 62
     3
100
AcDbDimension
  2
*D2
 10
251.1756829027654
 20
-32.00399999999763
 30
0.0
 11
246.6756829027654
 21
-0.0001892470447379
 31
0.0
 70
    32
  1
%%c<>
 71
     5
 42
64.00762150590572
  3
STANDARD
100
AcDbAlignedDimension
 13
223.4633820925247
 23
32.00362150590808
 33
0.0
 14
223.4633820925227
 24
-32.00399999999763
 34
0.0
 50
90.0
100
AcDbRotatedDimension
  0
ENDSEC
  0
SECTION
  2
OBJECTS
  0
DICTIONARY
  5
1A
330
0
100
AcDbDictionary
281
     1
  3
ACAD_GROUP
350
18
  3
ACAD_LAYOUT
350
5F
  3
ACAD_MLINESTYLE
350
19
  3
ACAD_PLOTSETTINGS
350
60
  3
ACAD_PLOTSTYLENAME
350
5D
  3
AcDbVariableDictionary
350
66
  0
DICTIONARY
  5
18
102
{ACAD_REACTORS
330
1A
102
}
330
1A
100
AcDbDictionary
281
     1
  0
DICTIONARY
  5
5F
102
{ACAD_REACTORS
330
1A
102
}
330
1A
100
AcDbDictionary
281
     1
  3
Layout1
350
62
  3
Model
350
61
  0
DICTIONARY
  5
19
102
{ACAD_REACTORS
330
1A
102
}
330
1A
100
AcDbDictionary
281
     1
  3
STANDARD
350
1D
  0
DICTIONARY
  5
60
102
{ACAD_REACTORS
330
1A
102
}
330
1A
100
AcDbDictionary
281
     1
  0
ACDBDICTIONARYWDFLT
  5
5D
102
{ACAD_REACTORS
330
1A
102
}
330
1A
100
AcDbDictionary
281
     1
  3
Normal
350
5E
100
AcDbDictionaryWithDefault
340
5E
  0
DICTIONARY
  5
66
102
{ACAD_REACTORS
330
1A
102
}
330
1A
100
AcDbDictionary
281
     1
  3
DIMASSOC
350
67
  0
LAYOUT
  5
62
102
{ACAD_REACTORS
330
5F
102
}
330
5F
100
AcDbPlotSettings
  1

  2
\\PRINT_SRV\HP LaserJet (Engineering)
  4

  6

 40
0.0
 41
0.0
 42
0.0
 43
0.0
 44
0.0
 45
0.0
 46
0.0
 47
0.0
 48
0.0
 49
0.0
140
0.0
141
0.0
142
1.0
143
1.0
 70
   688
 72
     0
 73
     0
 74
     5
  7
KPT.ctb
 75
    16
147
1.0
148
0.0
149
0.0
100
AcDbLayout
  1
Layout1
 70
     1
 71
     1
 10
0.0
 20
0.0
 11
12.0
 21
9.0
 12
0.0
 22
0.0
 32
0.0
 14
1.000000000000000E+20
 24
1.000000000000000E+20
 34
1.000000000000000E+20
 15
-1.000000000000000E+20
 25
-1.000000000000000E+20
 35
-1.000000000000000E+20
146
0.0
 13
0.0
 23
0.0
 33
0.0
 16
1.0
 26
0.0
 36
0.0
 17
0.0
 27
1.0
 37
0.0
 76
     0
330
7
  0
LAYOUT
  5
61
102
{ACAD_REACTORS
330
5F
102
}
330
5F
100
AcDbPlotSettings
  1

  2
\\PRINT_SRV\HP LaserJet (Engineering)
  4

  6

 40
0.0
 41
0.0
 42
0.0
 43
0.0
 44
0.0
 45
0.0
 46
0.0
 47
0.0
 48
0.0
 49
0.0
140
0.0
141
0.0
142
1.0
143
1.0
 70
  1712
 72
     0
 73
     0
 74
     0
  7
KPT.ctb
 75
     0
147
1.0
148
0.0
149
0.0
100
AcDbLayout
  1
Model
 70
     1
 71
     0
 10
0.0
 20
0.0
 11
12.0
 21
9.0
 12
0.0
 22
0.0
 32
0.0
 14
0.0
 24
0.0
 34
0.0
 15
0.0
 25
0.0
 35
0.0
146
0.0
 13
0.0
 23
0.0
 33
0.0
 16
1.0
 26
0.0
 36
0.0
 17
0.0
 27
1.0
 37
0.0
 76
     0
330
2
  0
MLINESTYLE
  5
1D
102
{ACAD_REACTORS
330
19
102
}
330
19
100
AcDbMlineStyle
  2
STANDARD
 70
     0
  3

 62
   256
 51
90.0
 52
90.0
 71
     2
 49
0.5
 62
   256
  6
BYLAYER
 49
-0.5
 62
   256
  6
BYLAYER
  0
ACDBPLACEHOLDER
  5
5E
102
{ACAD_REACTORS
330
5D
102
}
330
5D
  0
DICTIONARYVAR
  5
67
102
{ACAD_REACTORS
330
66
102
}
330
66
100
DictionaryVariables
280
     0
  1
1
  0
ENDSEC
  0
EOF
