  0
SECTION
  2
HEADER
  9
$ACADVER
  1
AC1015
  9
$ACADMAINTVER
 70
    13
  9
$DWGCODEPAGE
  3
ANSI_1252
  9
$INSBASE
 10
396.4910299922763
 20
-3351.04036087009
 30
0.0
  9
$EXTMIN
 10
-70.60364459459714
 20
-48.49999999999681
 30
0.0
  9
$EXTMAX
 10
127.4681118470848
 20
89.62314789173751
 30
0.0
  9
$LIMMIN
 10
0.0
 20
0.0
  9
$LIMMAX
 10
12.0
 20
9.0
  9
$ORTHOMODE
 70
     1
  9
$REGENMODE
 70
     1
  9
$FILLMODE
 70
     1
  9
$QTEXTMODE
 70
     0
  9
$MIRRTEXT
 70
     0
  9
$LTSCALE
 40
10.0
  9
$ATTMODE
 70
     1
  9
$TEXTSIZE
 40
5.0
  9
$TRACEWID
 40
0.05
  9
$TEXTSTYLE
  7
ROMANS
  9
$CLAYER
  8
DIM
  9
$CELTYPE
  6
BYLAYER
  9
$CECOLOR
 62
     3
  9
$CELTSCALE
 40
1.0
  9
$DISPSILH
 70
     0
  9
$DIMSCALE
 40
25.0
  9
$DIMASZ
 40
0.18
  9
$DIMEXO
 40
0.0625
  9
$DIMDLI
 40
0.38
  9
$DIMRND
 40
0.0
  9
$DIMDLE
 40
0.0
  9
$DIMEXE
 40
0.18
  9
$DIMTP
 40
0.0
  9
$DIMTM
 40
0.0
  9
$DIMTXT
 40
0.18
  9
$DIMCEN
 40
0.09
  9
$DIMTSZ
 40
0.0
  9
$DIMTOL
 70
     0
  9
$DIMLIM
 70
     0
  9
$DIMTIH
 70
     0
  9
$DIMTOH
 70
     0
  9
$DIMSE1
 70
     0
  9
$DIMSE2
 70
     0
  9
$DIMTAD
 70
     1
  9
$DIMZIN
 70
     0
  9
$DIMBLK
  1

  9
$DIMASO
 70
     1
  9
$DIMSHO
 70
     1
  9
$DIMPOST
  1

  9
$DIMAPOST
  1

  9
$DIMALT
 70
     0
  9
$DIMALTD
 70
     2
  9
$DIMALTF
 40
25.4
  9
$DIMLFAC
 40
1.0
  9
$DIMTOFL
 70
     0
  9
$DIMTVP
 40
0.0
  9
$DIMTIX
 70
     0
  9
$DIMSOXD
 70
     0
  9
$DIMSAH
 70
     0
  9
$DIMBLK1
  1

  9
$DIMBLK2
  1

  9
$DIMSTYLE
  2
STANDARD
  9
$DIMCLRD
 70
   256
  9
$DIMCLRE
 70
   256
  9
$DIMCLRT
 70
   256
  9
$DIMTFAC
 40
1.0
  9
$DIMGAP
 40
0.09
  9
$DIMJUST
 70
     0
  9
$DIMSD1
 70
     0
  9
$DIMSD2
 70
     0
  9
$DIMTOLJ
 70
     1
  9
$DIMTZIN
 70
     0
  9
$DIMALTZ
 70
     0
  9
$DIMALTTZ
 70
     0
  9
$DIMUPT
 70
     0
  9
$DIMDEC
 70
     1
  9
$DIMTDEC
 70
     1
  9
$DIMALTU
 70
     2
  9
$DIMALTTD
 70
     2
  9
$DIMTXSTY
  7
ROMANS
  9
$DIMAUNIT
 70
     0
  9
$DIMADEC
 70
     0
  9
$DIMALTRND
 40
0.0
  9
$DIMAZIN
 70
     0
  9
$DIMDSEP
 70
    46
  9
$DIMATFIT
 70
     3
  9
$DIMFRAC
 70
     0
  9
$DIMLDRBLK
  1

  9
$DIMLUNIT
 70
     2
  9
$DIMLWD
 70
    -1
  9
$DIMLWE
 70
    -1
  9
$DIMTMOVE
 70
     0
  9
$LUNITS
 70
     2
  9
$LUPREC
 70
     4
  9
$SKETCHINC
 40
0.1
  9
$FILLETRAD
 40
0.0
  9
$AUNITS
 70
     0
  9
$AUPREC
 70
     0
  9
$MENU
  1
acad
  9
$ELEVATION
 40
0.0
  9
$PELEVATION
 40
0.0
  9
$THICKNESS
 40
0.0
  9
$LIMCHECK
 70
     0
  9
$CHAMFERA
 40
1.5
  9
$CHAMFERB
 40
1.5
  9
$CHAMFERC
 40
0.0
  9
$CHAMFERD
 40
0.0
  9
$SKPOLY
 70
     0
  9
$TDCREATE
 40
2449974.566112731
  9
$TDUCREATE
 40
2449974.816112731
  9
$TDUPDATE
 40
2452660.529401296
  9
$TDUUPDATE
 40
2452660.779401296
  9
$TDINDWG
 40
0.9815609028
  9
$TDUSRTIMER
 40
0.9815609028
  9
$USRTIMER
 70
     1
  9
$ANGBASE
 50
0.0
  9
$ANGDIR
 70
     0
  9
$PDMODE
 70
     0
  9
$PDSIZE
 40
0.0
  9
$PLINEWID
 40
0.0
  9
$SPLFRAME
 70
     0
  9
$SPLINETYPE
 70
     6
  9
$SPLINESEGS
 70
     8
  9
$HANDSEED
  5
127
  9
$SURFTAB1
 70
     6
  9
$SURFTAB2
 70
     6
  9
$SURFTYPE
 70
     6
  9
$SURFU
 70
     6
  9
$SURFV
 70
     6
  9
$UCSBASE
  2

  9
$UCSNAME
  2

  9
$UCSORG
 10
0.0
 20
0.0
 30
0.0
  9
$UCSXDIR
 10
1.0
 20
0.0
 30
0.0
  9
$UCSYDIR
 10
0.0
 20
1.0
 30
0.0
  9
$UCSORTHOREF
  2

  9
$UCSORTHOVIEW
 70
     0
  9
$UCSORGTOP
 10
0.0
 20
0.0
 30
0.0
  9
$UCSORGBOTTOM
 10
0.0
 20
0.0
 30
0.0
  9
$UCSORGLEFT
 10
0.0
 20
0.0
 30
0.0
  9
$UCSORGRIGHT
 10
0.0
 20
0.0
 30
0.0
  9
$UCSORGFRONT
 10
0.0
 20
0.0
 30
0.0
  9
$UCSORGBACK
 10
0.0
 20
0.0
 30
0.0
  9
$PUCSBASE
  2

  9
$PUCSNAME
  2

  9
$PUCSORG
 10
0.0
 20
0.0
 30
0.0
  9
$PUCSXDIR
 10
1.0
 20
0.0
 30
0.0
  9
$PUCSYDIR
 10
0.0
 20
1.0
 30
0.0
  9
$PUCSORTHOREF
  2

  9
$PUCSORTHOVIEW
 70
     0
  9
$PUCSORGTOP
 10
0.0
 20
0.0
 30
0.0
  9
$PUCSORGBOTTOM
 10
0.0
 20
0.0
 30
0.0
  9
$PUCSORGLEFT
 10
0.0
 20
0.0
 30
0.0
  9
$PUCSORGRIGHT
 10
0.0
 20
0.0
 30
0.0
  9
$PUCSORGFRONT
 10
0.0
 20
0.0
 30
0.0
  9
$PUCSORGBACK
 10
0.0
 20
0.0
 30
0.0
  9
$USERI1
 70
     0
  9
$USERI2
 70
     0
  9
$USERI3
 70
     0
  9
$USERI4
 70
     0
  9
$USERI5
 70
     0
  9
$USERR1
 40
0.0
  9
$USERR2
 40
0.0
  9
$USERR3
 40
0.0
  9
$USERR4
 40
0.0
  9
$USERR5
 40
0.0
  9
$WORLDVIEW
 70
     1
  9
$SHADEDGE
 70
     3
  9
$SHADEDIF
 70
    70
  9
$TILEMODE
 70
     1
  9
$MAXACTVP
 70
    16
  9
$PINSBASE
 10
0.0
 20
0.0
 30
0.0
  9
$PLIMCHECK
 70
     0
  9
$PEXTMIN
 10
1.000000000000000E+20
 20
1.000000000000000E+20
 30
1.000000000000000E+20
  9
$PEXTMAX
 10
-1.000000000000000E+20
 20
-1.000000000000000E+20
 30
-1.000000000000000E+20
  9
$PLIMMIN
 10
0.0
 20
0.0
  9
$PLIMMAX
 10
12.0
 20
9.0
  9
$UNITMODE
 70
     0
  9
$VISRETAIN
 70
     0
  9
$PLINEGEN
 70
     0
  9
$PSLTSCALE
 70
     1
  9
$TREEDEPTH
 70
  3020
  9
$CMLSTYLE
  2
STANDARD
  9
$CMLJUST
 70
     0
  9
$CMLSCALE
 40
1.0
  9
$PROXYGRAPHICS
 70
     1
  9
$MEASUREMENT
 70
     0
  9
$CELWEIGHT
370
    -1
  9
$ENDCAPS
280
     0
  9
$JOINSTYLE
280
     0
  9
$LWDISPLAY
290
     0
  9
$INSUNITS
 70
     0
  9
$HYPERLINKBASE
  1

  9
$STYLESHEET
  1

  9
$XEDIT
290
     1
  9
$CEPSNTYPE
380
     0
  9
$PSTYLEMODE
290
     1
  9
$FINGERPRINTGUID
  2
{DC03E80B-8DA0-4A95-B30F-D35C53334BD6}
  9
$VERSIONGUID
  2
{C10B713D-127C-4AFA-8E85-101EE2303638}
  9
$EXTNAMES
290
     1
  9
$PSVPSCALE
 40
0.0
  9
$OLESTARTUP
290
     0
  0
ENDSEC
  0
SECTION
  2
CLASSES
  0
CLASS
  1
DICTIONARYVAR
  2
AcDbDictionaryVar
  3
AutoCAD 2000
 90
        0
280
     0
281
     0
  0
CLASS
  1
LWPOLYLINE
  2
AcDbPolyline
  3
AutoCAD 2000
 90
    32768
280
     0
281
     1
  0
CLASS
  1
OLE2FRAME
  2
AcDbOle2Frame
  3
AutoCAD 2000
 90
    32768
280
     0
281
     1
  0
CLASS
  1
ACDBDICTIONARYWDFLT
  2
AcDbDictionaryWithDefault
  3
AutoCAD 2000
 90
        0
280
     0
281
     0
  0
CLASS
  1
ACDBPLACEHOLDER
  2
AcDbPlaceHolder
  3
AutoCAD 2000
 90
        0
280
     0
281
     0
  0
CLASS
  1
LAYOUT
  2
AcDbLayout
  3
AutoCAD 2000
 90
        0
280
     0
281
     0
  0
ENDSEC
  0
SECTION
  2
TABLES
  0
TABLE
  2
VPORT
  5
12
330
0
100
AcDbSymbolTable
 70
     2
  0
VPORT
  5
126
330
12
100
AcDbSymbolTableRecord
100
AcDbViewportTableRecord
  2
*Active
 70
     0
 10
0.0
 20
0.0
 11
1.0
 21
1.0
 12
28.43223362624385
 22
20.56157394587035
 13
0.0
 23
0.0
 14
1.0
 24
1.0
 15
0.0
 25
0.0
 16
0.0
 26
0.0
 36
1.0
 17
0.0
 27
0.0
 37
0.0
 40
139.1526371927907
 41
1.498756218905472
 42
50.0
 43
0.0
 44
0.0
 50
0.0
 51
0.0
 71
     0
 72
 10000
 73
     1
 74
     1
 75
     0
 76
     0
 77
     0
 78
     0
281
     0
 65
     1
110
0.0
120
0.0
130
0.0
111
1.0
121
0.0
131
0.0
112
0.0
122
1.0
132
0.0
 79
     0
146
0.0
  0
ENDTAB
  0
TABLE
  2
LTYPE
  5
D
330
0
100
AcDbSymbolTable
 70
     3
  0
LTYPE
  5
E
330
D
100
AcDbSymbolTableRecord
100
AcDbLinetypeTableRecord
  2
BYBLOCK
 70
     0
  3

 72
    65
 73
     0
 40
0.0
  0
LTYPE
  5
F
330
D
100
AcDbSymbolTableRecord
100
AcDbLinetypeTableRecord
  2
BYLAYER
 70
     0
  3

 72
    65
 73
     0
 40
0.0
  0
LTYPE
  5
5
330
D
100
AcDbSymbolTableRecord
100
AcDbLinetypeTableRecord
  2
CONTINUOUS
 70
     0
  3
Solid line
 72
    65
 73
     0
 40
0.0
  0
LTYPE
  5
2A
330
D
100
AcDbSymbolTableRecord
100
AcDbLinetypeTableRecord
  2
HIDDEN
 70
     0
  3
_ _ _ _ _ _ _ _ _ _ _ _ _ _ _ _ _ _ _ _ _ _ _
 72
    65
 73
     2
 40
0.375
 49
0.25
 74
     0
 49
-0.125
 74
     0
  0
LTYPE
  5
27
330
D
100
AcDbSymbolTableRecord
100
AcDbLinetypeTableRecord
  2
CENTER
 70
     0
  3
____ _ ____ _ ____ _ ____ _ ____ _ ____ _ ____
 72
    65
 73
     4
 40
2.0
 49
1.25
 74
     0
 49
-0.25
 74
     0
 49
0.25
 74
     0
 49
-0.25
 74
     0
  0
ENDTAB
  0
TABLE
  2
LAYER
  5
A
330
0
100
AcDbSymbolTable
 70
     7
  0
LAYER
  5
4
330
A
100
AcDbSymbolTableRecord
100
AcDbLayerTableRecord
  2
0
 70
     0
 62
     7
  6
CONTINUOUS
370
    -3
390
6A
  0
LAYER
  5
1B
330
A
100
AcDbSymbolTableRecord
100
AcDbLayerTableRecord
  2
LINE
 70
     0
 62
     3
  6
CONTINUOUS
370
    -3
390
6A
  0
LAYER
  5
29
330
A
100
AcDbSymbolTableRecord
100
AcDbLayerTableRecord
  2
HIDDEN
 70
     0
 62
     2
  6
HIDDEN
370
    -3
390
6A
  0
LAYER
  5
26
330
A
100
AcDbSymbolTableRecord
100
AcDbLayerTableRecord
  2
CTRL
 70
     0
 62
     1
  6
CENTER
370
    -3
390
6A
  0
LAYER
  5
7D
330
A
100
AcDbSymbolTableRecord
100
AcDbLayerTableRecord
  2
DIM
 70
     0
 62
     7
  6
CONTINUOUS
370
    -3
390
6A
  0
LAYER
  5
7E
330
A
100
AcDbSymbolTableRecord
100
AcDbLayerTableRecord
  2
KA
 70
     0
 62
     3
  6
CONTINUOUS
370
    -3
390
6A
  0
LAYER
  5
80
330
A
100
AcDbSymbolTableRecord
100
AcDbLayerTableRecord
  2
Defpoints
 70
     0
 62
     7
  6
CONTINUOUS
290
     0
370
    -3
390
6A
  0
ENDTAB
  0
TABLE
  2
STYLE
  5
B
330
0
100
AcDbSymbolTable
 70
     2
  0
STYLE
  5
C
330
B
100
AcDbSymbolTableRecord
100
AcDbTextStyleTableRecord
  2
STANDARD
 70
     0
 40
0.0
 41
1.0
 50
0.0
 71
     0
 42
0.2
  3
txt
  4

  0
STYLE
  5
1C
330
B
100
AcDbSymbolTableRecord
100
AcDbTextStyleTableRecord
  2
ROMANS
 70
     0
 40
0.0
 41
1.0
 50
0.0
 71
     0
 42
5.0
  3
romans
  4

  0
ENDTAB
  0
TABLE
  2
VIEW
  5
10
330
0
100
AcDbSymbolTable
 70
     0
  0
ENDTAB
  0
TABLE
  2
UCS
  5
11
330
0
100
AcDbSymbolTable
 70
     0
  0
ENDTAB
  0
TABLE
  2
APPID
  5
14
330
0
100
AcDbSymbolTable
 70
     1
  0
APPID
  5
15
330
14
100
AcDbSymbolTableRecord
100
AcDbRegAppTableRecord
  2
ACAD
 70
     0
  0
ENDTAB
  0
TABLE
  2
DIMSTYLE
  5
16
330
0
100
AcDbSymbolTable
 70
     1
100
AcDbDimStyleTable
 71
     1
340
1E
  0
DIMSTYLE
105
1E
102
{ACAD_REACTORS
330
7F
330
8D
330
9A
330
CC
330
D9
102
}
330
16
100
AcDbSymbolTableRecord
100
AcDbDimStyleTableRecord
  2
STANDARD
 70
     0
 40
25.0
 73
     0
 74
     0
 77
     1
176
   256
177
   256
178
   256
271
     1
272
     1
340
1C
371
    -1
372
    -1
  0
ENDTAB
  0
TABLE
  2
BLOCK_RECORD
  5
1
330
0
100
AcDbSymbolTable
 70
     5
  0
BLOCK_RECORD
  5
2
330
1
100
AcDbSymbolTableRecord
100
AcDbBlockTableRecord
  2
*MODEL_SPACE
340
6D
  0
BLOCK_RECORD
  5
7
330
1
100
AcDbSymbolTableRecord
100
AcDbBlockTableRecord
  2
*PAPER_SPACE
340
6E
  0
BLOCK_RECORD
  5
81
330
1
100
AcDbSymbolTableRecord
100
AcDbBlockTableRecord
  2
*D0
340
0
  0
BLOCK_RECORD
  5
8E
330
1
100
AcDbSymbolTableRecord
100
AcDbBlockTableRecord
  2
*D1
340
0
  0
BLOCK_RECORD
  5
9B
330
1
100
AcDbSymbolTableRecord
100
AcDbBlockTableRecord
  2
*D2
340
0
  0
BLOCK_RECORD
  5
CD
330
1
100
AcDbSymbolTableRecord
100
AcDbBlockTableRecord
  2
*D3
340
0
  0
BLOCK_RECORD
  5
DA
330
1
100
AcDbSymbolTableRecord
100
AcDbBlockTableRecord
  2
*D4
340
0
  0
ENDTAB
  0
ENDSEC
  0
SECTION
  2
BLOCKS
  0
BLOCK
  5
3
330
2
100
AcDbEntity
  8
0
100
AcDbBlockBegin
  2
*MODEL_SPACE
 70
     0
 10
0.0
 20
0.0
 30
0.0
  3
*MODEL_SPACE
  1

  0
ENDBLK
  5
6
330
2
100
AcDbEntity
  8
0
100
AcDbBlockEnd
  0
BLOCK
  5
8
330
7
100
AcDbEntity
 67
     1
  8
0
100
AcDbBlockBegin
  2
*PAPER_SPACE
 70
     0
 10
0.0
 20
0.0
 30
0.0
  3
*PAPER_SPACE
  1

  0
ENDBLK
  5
9
330
7
100
AcDbEntity
 67
     1
  8
0
100
AcDbBlockEnd
  0
BLOCK
  5
8B
330
81
100
AcDbEntity
  8
0
 62
     3
100
AcDbBlockBegin
  2
*D0
 70
     1
 10
0.0
 20
0.0
 30
0.0
  3
*D0
  1

  0
LINE
  5
11D
330
81
100
AcDbEntity
  8
DIM
100
AcDbLine
 10
-40.00499999999999
 20
18.37784889117619
 30
0.0
 11
-40.00499999999998
 21
87.37314789173751
 31
0.0
  0
LINE
  5
11E
330
81
100
AcDbEntity
  8
DIM
100
AcDbLine
 10
69.99999999999989
 20
49.062500000005
 30
0.0
 11
69.99999999999989
 21
87.37314789173751
 31
0.0
  0
LINE
  5
11F
330
81
100
AcDbEntity
  8
DIM
100
AcDbLine
 10
-35.50499999999999
 20
82.87314789173752
 30
0.0
 11
65.49999999999989
 21
82.87314789173752
 31
0.0
  0
SOLID
  5
120
330
81
100
AcDbEntity
  8
DIM
100
AcDbTrace
 10
-35.50499999999999
 20
83.62314789173751
 30
0.0
 11
-35.50499999999999
 21
82.12314789173751
 31
0.0
 12
-40.00499999999998
 22
82.87314789173752
 32
0.0
 13
-40.00499999999998
 23
82.87314789173752
 33
0.0
  0
SOLID
  5
121
330
81
100
AcDbEntity
  8
DIM
100
AcDbTrace
 10
65.49999999999989
 20
83.62314789173751
 30
0.0
 11
65.49999999999989
 21
82.12314789173751
 31
0.0
 12
69.99999999999989
 22
82.87314789173752
 32
0.0
 13
69.99999999999989
 23
82.87314789173752
 33
0.0
  0
MTEXT
  5
122
330
81
100
AcDbEntity
  8
DIM
100
AcDbMText
 10
15.04749999999995
 20
87.37314789173751
 30
0.0
 40
4.5
 41
0.0
 71
     5
 72
     1
  1
\A1;110.0
  7
ROMANS
 73
     1
 44
1.0
  0
POINT
  5
123
330
81
100
AcDbEntity
  8
Defpoints
 62
     0
100
AcDbPoint
 10
-40.00499999999999
 20
16.8153488911762
 30
0.0
  0
POINT
  5
124
330
81
100
AcDbEntity
  8
Defpoints
 62
     0
100
AcDbPoint
 10
69.99999999999989
 20
47.500000000005
 30
0.0
  0
POINT
  5
125
330
81
100
AcDbEntity
  8
Defpoints
 62
     0
100
AcDbPoint
 10
69.99999999999989
 20
82.87314789173752
 30
0.0
  0
ENDBLK
  5
8C
330
81
100
AcDbEntity
  8
0
 62
     3
100
AcDbBlockEnd
  0
BLOCK
  5
98
330
8E
100
AcDbEntity
  8
0
 62
     3
100
AcDbBlockBegin
  2
*D1
 70
     1
 10
0.0
 20
0.0
 30
0.0
  3
*D1
  1

  0
LINE
  5
114
330
8E
100
AcDbEntity
  8
DIM
100
AcDbLine
 10
0.0000000000000001
 20
32.56320000000005
 30
0.0
 11
0.0000000000000026
 21
72.86432845822765
 31
0.0
  0
LINE
  5
115
330
8E
100
AcDbEntity
  8
DIM
100
AcDbLine
 10
69.99999999999989
 20
49.062500000005
 30
0.0
 11
69.99999999999989
 21
72.86432845822765
 31
0.0
  0
LINE
  5
116
330
8E
100
AcDbEntity
  8
DIM
100
AcDbLine
 10
4.500000000000002
 20
68.36432845822765
 30
0.0
 11
65.49999999999989
 21
68.36432845822765
 31
0.0
  0
SOLID
  5
117
330
8E
100
AcDbEntity
  8
DIM
100
AcDbTrace
 10
4.500000000000002
 20
69.11432845822765
 30
0.0
 11
4.500000000000002
 21
67.61432845822764
 31
0.0
 12
0.0000000000000023
 22
68.36432845822765
 32
0.0
 13
0.0000000000000023
 23
68.36432845822765
 33
0.0
  0
SOLID
  5
118
330
8E
100
AcDbEntity
  8
DIM
100
AcDbTrace
 10
65.49999999999989
 20
69.11432845822765
 30
0.0
 11
65.49999999999989
 21
67.61432845822764
 31
0.0
 12
69.99999999999989
 22
68.36432845822765
 32
0.0
 13
69.99999999999989
 23
68.36432845822765
 33
0.0
  0
MTEXT
  5
119
330
8E
100
AcDbEntity
  8
DIM
100
AcDbMText
 10
35.05000000000001
 20
72.86432845822765
 30
0.0
 40
4.5
 41
0.0
 71
     5
 72
     1
  1
\A1;70.0
  7
ROMANS
 73
     1
 44
1.0
  0
POINT
  5
11A
330
8E
100
AcDbEntity
  8
Defpoints
 62
     0
100
AcDbPoint
 10
0.0
 20
31.00070000000005
 30
0.0
  0
POINT
  5
11B
330
8E
100
AcDbEntity
  8
Defpoints
 62
     0
100
AcDbPoint
 10
69.99999999999989
 20
47.500000000005
 30
0.0
  0
POINT
  5
11C
330
8E
100
AcDbEntity
  8
Defpoints
 62
     0
100
AcDbPoint
 10
69.99999999999989
 20
68.36432845822765
 30
0.0
  0
ENDBLK
  5
99
330
8E
100
AcDbEntity
  8
0
 62
     3
100
AcDbBlockEnd
  0
BLOCK
  5
A6
330
9B
100
AcDbEntity
  8
0
 62
     3
100
AcDbBlockBegin
  2
*D2
 70
     1
 10
0.0
 20
0.0
 30
0.0
  3
*D2
  1

  0
LINE
  5
10A
330
9B
100
AcDbEntity
  8
DIM
100
AcDbLine
 10
0.0000000000000001
 20
32.56320000000005
 30
0.0
 11
0.0000000000000018
 21
61.16268758627803
 31
0.0
  0
LINE
  5
10B
330
9B
100
AcDbEntity
  8
DIM
100
AcDbLine
 10
10.00000000000346
 20
33.5664999999999
 30
0.0
 11
10.00000000000347
 21
61.16268758627803
 31
0.0
  0
LINE
  5
10C
330
9B
100
AcDbEntity
  8
DIM
100
AcDbLine
 10
-4.499999999999998
 20
56.66268758627802
 30
0.0
 11
-8.999999999999998
 21
56.66268758627802
 31
0.0
  0
LINE
  5
10D
330
9B
100
AcDbEntity
  8
DIM
100
AcDbLine
 10
14.50000000000347
 20
56.66268758627802
 30
0.0
 11
36.57142857143203
 21
56.66268758627802
 31
0.0
  0
SOLID
  5
10E
330
9B
100
AcDbEntity
  8
DIM
100
AcDbTrace
 10
-4.499999999999998
 20
57.41268758627803
 30
0.0
 11
-4.499999999999998
 21
55.91268758627802
 31
0.0
 12
0.0000000000000016
 22
56.66268758627802
 32
0.0
 13
0.0000000000000016
 23
56.66268758627802
 33
0.0
  0
SOLID
  5
10F
330
9B
100
AcDbEntity
  8
DIM
100
AcDbTrace
 10
14.50000000000347
 20
57.41268758627803
 30
0.0
 11
14.50000000000347
 21
55.91268758627802
 31
0.0
 12
10.00000000000347
 22
56.66268758627802
 32
0.0
 13
10.00000000000347
 23
56.66268758627802
 33
0.0
  0
MTEXT
  5
110
330
9B
100
AcDbEntity
  8
DIM
100
AcDbMText
 10
27.78571428571775
 20
61.16268758627803
 30
0.0
 40
4.5
 41
0.0
 71
     5
 72
     1
  1
\A1;10.0
  7
ROMANS
 73
     1
 44
1.0
  0
POINT
  5
111
330
9B
100
AcDbEntity
  8
Defpoints
 62
     0
100
AcDbPoint
 10
0.0
 20
31.00070000000005
 30
0.0
  0
POINT
  5
112
330
9B
100
AcDbEntity
  8
Defpoints
 62
     0
100
AcDbPoint
 10
10.00000000000346
 20
32.0039999999999
 30
0.0
  0
POINT
  5
113
330
9B
100
AcDbEntity
  8
Defpoints
 62
     0
100
AcDbPoint
 10
10.00000000000347
 20
56.66268758627802
 30
0.0
  0
ENDBLK
  5
A7
330
9B
100
AcDbEntity
  8
0
 62
     3
100
AcDbBlockEnd
  0
BLOCK
  5
D7
330
CD
100
AcDbEntity
  8
0
 62
     3
100
AcDbBlockBegin
  2
*D3
 70
     1
 10
0.0
 20
0.0
 30
0.0
  3
*D3
  1

  0
LINE
  5
101
330
CD
100
AcDbEntity
  8
DIM
100
AcDbLine
 10
70.56249999999909
 20
48.500000000005
 30
0.0
 11
127.4681118470848
 21
48.50000000000498
 31
0.0
  0
LINE
  5
102
330
CD
100
AcDbEntity
  8
DIM
100
AcDbLine
 10
70.5592562855291
 20
-48.49999999999591
 30
0.0
 11
127.4681118470847
 21
-48.49999999999592
 31
0.0
  0
LINE
  5
103
330
CD
100
AcDbEntity
  8
DIM
100
AcDbLine
 10
122.9681118470848
 20
44.00000000000498
 30
0.0
 11
122.9681118470848
 21
-43.99999999999592
 31
0.0
  0
SOLID
  5
104
330
CD
100
AcDbEntity
  8
DIM
100
AcDbTrace
 10
122.2181118470848
 20
44.00000000000498
 30
0.0
 11
123.7181118470848
 21
44.00000000000498
 31
0.0
 12
122.9681118470848
 22
48.50000000000498
 32
0.0
 13
122.9681118470848
 23
48.50000000000498
 33
0.0
  0
SOLID
  5
105
330
CD
100
AcDbEntity
  8
DIM
100
AcDbTrace
 10
122.2181118470847
 20
-43.99999999999592
 30
0.0
 11
123.7181118470848
 21
-43.99999999999592
 31
0.0
 12
122.9681118470848
 22
-48.49999999999592
 32
0.0
 13
122.9681118470848
 23
-48.49999999999592
 33
0.0
  0
MTEXT
  5
106
330
CD
100
AcDbEntity
  8
DIM
100
AcDbMText
 10
118.4681118470848
 20
0.0000000000045547
 30
0.0
 40
4.5
 41
0.0
 71
     5
 72
     1
  1
\A1;%%c97.0
  7
ROMANS
 11
0.0000000000000001
 21
1.0
 31
0.0
 73
     1
 44
1.0
  0
POINT
  5
107
330
CD
100
AcDbEntity
  8
Defpoints
 62
     0
100
AcDbPoint
 10
68.99999999999909
 20
48.500000000005
 30
0.0
  0
POINT
  5
108
330
CD
100
AcDbEntity
  8
Defpoints
 62
     0
100
AcDbPoint
 10
68.9967562855291
 20
-48.49999999999591
 30
0.0
  0
POINT
  5
109
330
CD
100
AcDbEntity
  8
Defpoints
 62
     0
100
AcDbPoint
 10
122.9681118470848
 20
-48.49999999999592
 30
0.0
  0
ENDBLK
  5
D8
330
CD
100
AcDbEntity
  8
0
 62
     3
100
AcDbBlockEnd
  0
BLOCK
  5
E4
330
DA
100
AcDbEntity
  8
0
 62
     3
100
AcDbBlockBegin
  2
*D4
 70
     1
 10
0.0
 20
0.0
 30
0.0
  3
*D4
  1

  0
LINE
  5
F8
330
DA
100
AcDbEntity
  8
DIM
100
AcDbLine
 10
-0.5592000000000326
 20
32.0039999999999
 30
0.0
 11
-68.35364459459713
 21
32.00399999999993
 31
0.0
  0
LINE
  5
F9
330
DA
100
AcDbEntity
  8
DIM
100
AcDbLine
 10
-0.5592000000000326
 20
-32.00399999999899
 30
0.0
 11
-68.35364459459715
 21
-32.00399999999897
 31
0.0
  0
LINE
  5
FA
330
DA
100
AcDbEntity
  8
DIM
100
AcDbLine
 10
-63.85364459459712
 20
27.50399999999992
 30
0.0
 11
-63.85364459459714
 21
-27.50399999999897
 31
0.0
  0
SOLID
  5
FB
330
DA
100
AcDbEntity
  8
DIM
100
AcDbTrace
 10
-64.60364459459714
 20
27.50399999999992
 30
0.0
 11
-63.10364459459712
 21
27.50399999999992
 31
0.0
 12
-63.85364459459712
 22
32.00399999999993
 32
0.0
 13
-63.85364459459712
 23
32.00399999999993
 33
0.0
  0
SOLID
  5
FC
330
DA
100
AcDbEntity
  8
DIM
100
AcDbTrace
 10
-64.60364459459714
 20
-27.50399999999897
 30
0.0
 11
-63.10364459459714
 21
-27.50399999999897
 31
0.0
 12
-63.85364459459714
 22
-32.00399999999897
 32
0.0
 13
-63.85364459459714
 23
-32.00399999999897
 33
0.0
  0
MTEXT
  5
FD
330
DA
100
AcDbEntity
  8
DIM
100
AcDbMText
 10
-68.35364459459714
 20
0.0000000000004663
 30
0.0
 40
4.5
 41
0.0
 71
     5
 72
     1
  1
\A1;%%c64.0
  7
ROMANS
 11
0.0000000000000001
 21
1.0
 31
0.0
 73
     1
 44
1.0
  0
POINT
  5
FE
330
DA
100
AcDbEntity
  8
Defpoints
 62
     0
100
AcDbPoint
 10
1.003299999999967
 20
32.0039999999999
 30
0.0
  0
POINT
  5
FF
330
DA
100
AcDbEntity
  8
Defpoints
 62
     0
100
AcDbPoint
 10
1.003299999999967
 20
-32.00399999999899
 30
0.0
  0
POINT
  5
100
330
DA
100
AcDbEntity
  8
Defpoints
 62
     0
100
AcDbPoint
 10
-63.85364459459714
 20
-32.00399999999897
 30
0.0
  0
ENDBLK
  5
E5
330
DA
100
AcDbEntity
  8
0
 62
     3
100
AcDbBlockEnd
  0
ENDSEC
  0
SECTION
  2
ENTITIES
  0
ARC
  5
1F
330
2
100
AcDbEntity
  8
KA
100
AcDbCircle
 10
-8.934450000000026
 20
-41.82122517417474
 30
0.0
 40
24.80503851352892
100
AcDbArc
 50
73.84313558935748
 51
106.1568644106427
  0
ARC
  5
20
330
2
100
AcDbEntity
  8
KA
100
AcDbCircle
 10
-8.934450000000026
 20
41.8212251741752
 30
0.0
 40
24.80503851352892
100
AcDbArc
 50
253.8431355893572
 51
286.1568644106425
  0
LINE
  5
21
330
2
100
AcDbEntity
  8
KA
100
AcDbLine
 10
-13.58286681405678
 20
-21.49999999999999
 30
0.0
 11
-4.095533185943111
 21
-21.49999999999999
 31
0.0
  0
LINE
  5
22
330
2
100
AcDbEntity
  8
KA
100
AcDbLine
 10
-13.58286681405678
 20
21.49999999999999
 30
0.0
 11
-4.095533185943111
 21
21.49999999999999
 31
0.0
  0
LWPOLYLINE
  5
23
330
2
100
AcDbEntity
  8
KA
100
AcDbPolyline
 90
       16
 70
     1
 43
0.0
 10
-9.609409599879029
 20
0.0
 42
0.1115408558816133
 10
-10.04377805716029
 20
1.922902233633976
 42
0.1029733543267754
 10
-11.3329662235692
 20
3.620330557136185
 42
0.0927957371124016
 10
-13.20606121840808
 20
4.720228740588481
 42
0.0866911325972541
 10
-15.49400000000002
 20
5.119920574175921
 42
0.086691132597254
 10
-17.78193878159191
 20
4.720228740588481
 42
0.0927957371124026
 10
-19.65503377643074
 20
3.620330557136185
 42
0.1029733543267735
 10
-20.9442219428397
 20
1.922902233633976
 42
0.1115408558816151
 10
-21.37859040012102
 20
0.0
 42
0.1115408558816122
 10
-20.9442219428397
 20
-1.922902233633976
 42
0.1029733543267726
 10
-19.65503377643074
 20
-3.62033055713573
 42
0.0927957371123996
 10
-17.78193878159203
 20
-4.720228740587572
 42
0.0866911325972534
 10
-15.49400000000002
 20
-5.119920574175012
 42
0.0866911325972539
 10
-13.20606121840808
 20
-4.720228740587572
 42
0.0927957371124012
 10
-11.3329662235692
 20
-3.62033055713573
 42
0.1029733543267761
 10
-10.04377805716029
 20
-1.922902233633976
 42
0.1115408558816135
  0
CIRCLE
  5
24
330
2
100
AcDbEntity
  8
KA
100
AcDbCircle
 10
-15.49400000000002
 20
0.0
 30
0.0
 40
4.5
  0
LINE
  5
25
330
2
100
AcDbEntity
  8
CTRL
100
AcDbLine
 10
-55.39440497509724
 20
0.0
 30
0.0
 11
95.77155855495078
 21
0.0000000000022737
 31
0.0
  0
LINE
  5
28
330
2
100
AcDbEntity
  8
HIDDEN
100
AcDbLine
 10
-37.75186034502303
 20
7.9375
 30
0.0
 11
-1.350975479668079
 21
7.9375
 31
0.0
  0
LINE
  5
2B
330
2
100
AcDbEntity
  8
HIDDEN
100
AcDbLine
 10
-37.75186034502303
 20
-7.9375
 30
0.0
 11
-1.350975479668079
 21
-7.9375
 31
0.0
  0
LINE
  5
2C
330
2
100
AcDbEntity
  8
KA
100
AcDbLine
 10
-40.00499999999999
 20
16.8153488911762
 30
0.0
 11
-40.00499999999999
 21
0.0
 31
0.0
  0
LINE
  5
2D
330
2
100
AcDbEntity
  8
KA
100
AcDbLine
 10
-34.92500000000001
 20
17.99589999999989
 30
0.0
 11
-34.92500000000001
 21
0.0
 31
0.0
  0
LINE
  5
2E
330
2
100
AcDbEntity
  8
KA
100
AcDbLine
 10
-37.75186034502303
 20
17.59861068752297
 30
0.0
 11
-37.75186034502303
 21
0.0
 31
0.0
  0
LINE
  5
2F
330
2
100
AcDbEntity
  8
KA
100
AcDbLine
 10
-34.92500000000006
 20
-17.99589999999989
 30
0.0
 11
-15.83690000000001
 21
-17.99589999999989
 31
0.0
  0
LINE
  5
30
330
2
100
AcDbEntity
  8
HIDDEN
100
AcDbLine
 10
-37.75186034502303
 20
7.9375
 30
0.0
 11
-40.00499999999999
 21
9.23835078632328
 31
0.0
  0
LINE
  5
31
330
2
100
AcDbEntity
  8
HIDDEN
100
AcDbLine
 10
-37.75186034502303
 20
-7.9375
 30
0.0
 11
-40.00499999999999
 21
-9.238350786322826
 31
0.0
  0
LINE
  5
32
330
2
100
AcDbEntity
  8
KA
100
AcDbLine
 10
-37.75186034502303
 20
-17.59861068752252
 30
0.0
 11
-37.75186034502303
 21
0.0
 31
0.0
  0
ARC
  5
33
330
2
100
AcDbEntity
  8
KA
100
AcDbCircle
 10
-39.01440000000002
 20
-16.81534889117574
 30
0.0
 40
0.9905999999999998
100
AcDbArc
 50
180.0
 51
280.0000000000002
  0
LINE
  5
34
330
2
100
AcDbEntity
  8
KA
100
AcDbLine
 10
-34.92500000000006
 20
-17.99589999999989
 30
0.0
 11
-37.75186034502303
 21
-17.59861068752252
 31
0.0
  0
LINE
  5
35
330
2
100
AcDbEntity
  8
KA
100
AcDbLine
 10
-38.84238411520323
 20
-17.79089945130999
 30
0.0
 11
-37.75186034502303
 21
-17.59861068752252
 31
0.0
  0
LINE
  5
36
330
2
100
AcDbEntity
  8
KA
100
AcDbLine
 10
-34.92500000000006
 20
-17.99589999999989
 30
0.0
 11
-34.92500000000001
 21
0.0
 31
0.0
  0
LINE
  5
37
330
2
100
AcDbEntity
  8
KA
100
AcDbLine
 10
-40.00499999999999
 20
-16.81534889117574
 30
0.0
 11
-40.00499999999999
 21
0.0
 31
0.0
  0
LINE
  5
38
330
2
100
AcDbEntity
  8
KA
100
AcDbLine
 10
-15.83690000000001
 20
4.486916490196108
 30
0.0
 11
-15.83690000000001
 21
-4.486916490196563
 31
0.0
  0
LINE
  5
39
330
2
100
AcDbEntity
  8
KA
100
AcDbLine
 10
-15.83690000000001
 20
-17.99589999999989
 30
0.0
 11
-13.92927697557053
 21
-21.30000000000018
 31
0.0
  0
ARC
  5
3A
330
2
100
AcDbEntity
  8
KA
100
AcDbCircle
 10
-13.58286681405678
 20
-21.0999999999999
 30
0.0
 40
0.4
100
AcDbArc
 50
210.0
 51
270.0
  0
LINE
  5
3B
330
2
100
AcDbEntity
  8
KA
100
AcDbLine
 10
-34.92500000000001
 20
17.99589999999989
 30
0.0
 11
-15.83690000000001
 21
17.99589999999989
 31
0.0
  0
LINE
  5
3C
330
2
100
AcDbEntity
  8
KA
100
AcDbLine
 10
-38.84238411520306
 20
17.79089945131045
 30
0.0
 11
-37.75186034502303
 21
17.59861068752297
 31
0.0
  0
LINE
  5
3D
330
2
100
AcDbEntity
  8
KA
100
AcDbLine
 10
-34.92500000000001
 20
17.99589999999989
 30
0.0
 11
-37.75186034502303
 21
17.59861068752297
 31
0.0
  0
ARC
  5
3E
330
2
100
AcDbEntity
  8
KA
100
AcDbCircle
 10
-39.01440000000002
 20
16.81534889117756
 30
0.0
 40
0.9905999999999998
100
AcDbArc
 50
79.99999999999968
 51
179.9999999999999
  0
ARC
  5
3F
330
2
100
AcDbEntity
  8
KA
100
AcDbCircle
 10
-13.58286681405678
 20
21.0999999999999
 30
0.0
 40
0.4
100
AcDbArc
 50
90.0
 51
149.9999999999998
  0
LINE
  5
40
330
2
100
AcDbEntity
  8
KA
100
AcDbLine
 10
-15.83690000000001
 20
17.99589999999989
 30
0.0
 11
-13.92927697557058
 21
21.30000000000018
 31
0.0
  0
LINE
  5
41
330
2
100
AcDbEntity
  8
LINE
 62
     3
100
AcDbLine
 10
68.9967562855291
 20
-48.49999999999591
 30
0.0
 11
13.10582854123811
 21
-48.499999999995
 31
0.0
  0
LINE
  5
42
330
2
100
AcDbEntity
  8
LINE
 62
     3
100
AcDbLine
 10
68.99999999999909
 20
48.500000000005
 30
0.0
 11
13.10582854123413
 21
48.50000000000591
 31
0.0
  0
LINE
  5
43
330
2
100
AcDbEntity
  8
LINE
100
AcDbLine
 10
0.0
 20
31.00070000000005
 30
0.0
 11
0.0
 21
0.0
 31
0.0
  0
LINE
  5
44
330
2
100
AcDbEntity
  8
LINE
100
AcDbLine
 10
1.003299999999967
 20
32.0039999999999
 30
0.0
 11
1.00329999999991
 21
0.0
 31
0.0
  0
LINE
  5
45
330
2
100
AcDbEntity
  8
KA
100
AcDbLine
 10
-2.032000000000039
 20
17.99589999999989
 30
0.0
 11
-2.032000000000095
 21
0.0
 31
0.0
  0
LINE
  5
46
330
2
100
AcDbEntity
  8
LINE
100
AcDbLine
 10
13.1058285412343
 20
43.59510991547222
 30
0.0
 11
13.10582854123788
 21
-43.59510991546494
 31
0.0
  0
LINE
  5
47
330
2
100
AcDbEntity
  8
LINE
100
AcDbLine
 10
10.00000000000346
 20
32.00400000000127
 30
0.0
 11
10.0
 21
-32.00399999999899
 31
0.0
  0
LINE
  5
48
330
2
100
AcDbEntity
  8
LINE
100
AcDbLine
 10
1.003299999999967
 20
-32.00399999999899
 30
0.0
 11
10.0
 21
-32.0039999999999
 31
0.0
  0
LINE
  5
49
330
2
100
AcDbEntity
  8
HIDDEN
100
AcDbLine
 10
-1.350975479668079
 20
-7.9375
 30
0.0
 11
3.23174228202447
 21
0.0
 31
0.0
  0
LINE
  5
4A
330
2
100
AcDbEntity
  8
HIDDEN
100
AcDbLine
 10
-1.350975479668079
 20
7.9375
 30
0.0
 11
3.23174228202447
 21
0.0
 31
0.0
  0
LINE
  5
4B
330
2
100
AcDbEntity
  8
HIDDEN
100
AcDbLine
 10
-1.350975479668079
 20
7.9375
 30
0.0
 11
-1.350975479668079
 21
-7.9375
 31
0.0
  0
LINE
  5
4C
330
2
100
AcDbEntity
  8
KA
100
AcDbLine
 10
-1.84150000000011
 20
-17.99589999999989
 30
0.0
 11
-3.749123024429422
 21
-21.30000000000018
 31
0.0
  0
LINE
  5
4D
330
2
100
AcDbEntity
  8
KA
100
AcDbLine
 10
-1.84150000000011
 20
-17.99589999999989
 30
0.0
 11
-1.84150000000011
 21
-17.94485567884157
 31
0.0
  0
ARC
  5
4E
330
2
100
AcDbEntity
  8
KA
100
AcDbCircle
 10
-4.095533185943111
 20
-21.0999999999999
 30
0.0
 40
0.4
100
AcDbArc
 50
270.0
 51
329.9999999999998
  0
LINE
  5
4F
330
2
100
AcDbEntity
  8
KA
100
AcDbLine
 10
-2.032000000000095
 20
-17.99589999999989
 30
0.0
 11
-2.032000000000095
 21
0.0
 31
0.0
  0
LINE
  5
50
330
2
100
AcDbEntity
  8
KA
100
AcDbLine
 10
-2.032000000000039
 20
-17.99589999999989
 30
0.0
 11
0.0
 21
-17.45142724097968
 31
0.0
  0
LINE
  5
51
330
2
100
AcDbEntity
  8
LINE
100
AcDbLine
 10
1.003299999999967
 20
-32.00399999999899
 30
0.0
 11
1.00329999999991
 21
0.0
 31
0.0
  0
LINE
  5
52
330
2
100
AcDbEntity
  8
LINE
100
AcDbLine
 10
0.0
 20
-31.00070000000005
 30
0.0
 11
1.003299999999967
 21
-32.00399999999899
 31
0.0
  0
LINE
  5
53
330
2
100
AcDbEntity
  8
LINE
100
AcDbLine
 10
0.0
 20
-31.00070000000005
 30
0.0
 11
0.0
 21
0.0
 31
0.0
  0
LINE
  5
54
330
2
100
AcDbEntity
  8
LINE
 62
     3
100
AcDbLine
 10
9.999999999999886
 20
-32.00399999999899
 30
0.0
 11
13.1058285412335
 21
-48.49999999999273
 31
0.0
  0
LINE
  5
55
330
2
100
AcDbEntity
  8
LINE
 62
     3
100
AcDbLine
 10
13.10582854123379
 20
-43.59510991546585
 30
0.0
 11
13.10582854123367
 21
-48.49999999999409
 31
0.0
  0
LINE
  5
56
330
2
100
AcDbEntity
  8
LINE
100
AcDbLine
 10
1.003299999999967
 20
32.0039999999999
 30
0.0
 11
10.00000000000346
 21
32.0039999999999
 31
0.0
  0
ARC
  5
57
330
2
100
AcDbEntity
  8
KA
100
AcDbCircle
 10
-4.095533185943111
 20
21.0999999999999
 30
0.0
 40
0.4
100
AcDbArc
 50
30.00000000000016
 51
90.0
  0
LINE
  5
58
330
2
100
AcDbEntity
  8
KA
100
AcDbLine
 10
-1.841499999999996
 20
17.99589999999989
 30
0.0
 11
-1.841499999999996
 21
17.94485567884203
 31
0.0
  0
LINE
  5
59
330
2
100
AcDbEntity
  8
KA
100
AcDbLine
 10
-1.841499999999996
 20
17.99589999999989
 30
0.0
 11
-3.749123024429422
 21
21.30000000000018
 31
0.0
  0
LINE
  5
5A
330
2
100
AcDbEntity
  8
LINE
100
AcDbLine
 10
0.0
 20
31.00070000000005
 30
0.0
 11
1.003299999999967
 21
32.0039999999999
 31
0.0
  0
LINE
  5
5B
330
2
100
AcDbEntity
  8
KA
100
AcDbLine
 10
-2.031999999999925
 20
17.99589999999989
 30
0.0
 11
0.0
 21
17.45142724098013
 31
0.0
  0
LINE
  5
5C
330
2
100
AcDbEntity
  8
LINE
 62
     3
100
AcDbLine
 10
10.00000000000358
 20
32.00400000000263
 30
0.0
 11
13.10582854123367
 21
48.50000000000727
 31
0.0
  0
LINE
  5
5D
330
2
100
AcDbEntity
  8
LINE
 62
     3
100
AcDbLine
 10
13.1058285412339
 20
43.59510991547222
 30
0.0
 11
13.10582854123379
 21
48.50000000000591
 31
0.0
  0
LINE
  5
5E
330
2
100
AcDbEntity
  8
LINE
100
AcDbLine
 10
69.00000000000011
 20
43.59510991547404
 30
0.0
 11
68.99675628552808
 21
-43.59510991546267
 31
0.0
  0
LINE
  5
5F
330
2
100
AcDbEntity
  8
LINE
100
AcDbLine
 10
70.00000000000011
 20
-31.00069999999732
 30
0.0
 11
70.00000000000011
 21
42.59510991547313
 31
0.0
  0
LINE
  5
60
330
2
100
AcDbEntity
  8
LINE
 62
     3
100
AcDbLine
 10
69.99701383744071
 20
-42.5951099486283
 30
0.0
 11
69.99701383744071
 21
-47.50000003316427
 31
0.0
  0
LINE
  5
61
330
2
100
AcDbEntity
  8
LINE
 62
     3
100
AcDbLine
 10
68.99675628552796
 20
-43.59510991546267
 30
0.0
 11
68.99675628552774
 21
-48.499999999995
 31
0.0
  0
LINE
  5
62
330
2
100
AcDbEntity
  8
LINE
100
AcDbLine
 10
68.99675628552774
 20
-48.49999999999681
 30
0.0
 11
69.99701383744059
 21
-47.50000003316427
 31
0.0
  0
LINE
  5
63
330
2
100
AcDbEntity
  8
LINE
100
AcDbLine
 10
70.00000000000011
 20
-31.00069999999687
 30
0.0
 11
69.99701383744093
 21
-42.59510994863103
 31
0.0
  0
LINE
  5
64
330
2
100
AcDbEntity
  8
LINE
 62
     3
100
AcDbLine
 10
69.99999999999989
 20
42.59510991547313
 30
0.0
 11
69.99999999999989
 21
47.500000000005
 31
0.0
  0
LINE
  5
65
330
2
100
AcDbEntity
  8
LINE
 62
     3
100
AcDbLine
 10
68.99999999999988
 20
43.59510991547404
 30
0.0
 11
68.99999999999971
 21
48.500000000005
 31
0.0
  0
LINE
  5
66
330
2
100
AcDbEntity
  8
LINE
100
AcDbLine
 10
68.99999999999995
 20
48.50000000000409
 30
0.0
 11
69.99999999999994
 21
47.50000000000409
 31
0.0
  0
LINE
  5
67
330
2
100
AcDbEntity
  8
LINE
100
AcDbLine
 10
70.00000000000011
 20
31.00070000000414
 30
0.0
 11
69.99999999999971
 21
42.59510991547313
 31
0.0
  0
DIMENSION
  5
7F
330
2
100
AcDbEntity
  8
DIM
 62
     3
100
AcDbDimension
  2
*D0
 10
69.99999999999989
 20
82.87314789173752
 30
0.0
 11
15.04749999999995
 21
82.87314789173752
 31
0.0
 70
   160
 71
     5
 42
110.0049999999998
  3
STANDARD
100
AcDbAlignedDimension
 13
-40.00499999999999
 23
16.8153488911762
 33
0.0
 14
69.99999999999989
 24
47.500000000005
 34
0.0
100
AcDbRotatedDimension
  0
DIMENSION
  5
8D
330
2
100
AcDbEntity
  8
DIM
 62
     3
100
AcDbDimension
  2
*D1
 10
69.99999999999989
 20
68.36432845822765
 30
0.0
 11
35.05000000000001
 21
68.36432845822765
 31
0.0
 70
   160
 71
     5
 42
69.99999999999989
  3
STANDARD
100
AcDbAlignedDimension
 13
0.0
 23
31.00070000000005
 33
0.0
 14
69.99999999999989
 24
47.500000000005
 34
0.0
100
AcDbRotatedDimension
  0
DIMENSION
  5
9A
330
2
100
AcDbEntity
  8
DIM
 62
     3
100
AcDbDimension
  2
*D2
 10
10.00000000000347
 20
56.66268758627802
 30
0.0
 11
27.78571428571775
 21
61.16268758627803
 31
0.0
 70
    32
 71
     5
 42
10.00000000000346
  3
STANDARD
100
AcDbAlignedDimension
 13
0.0
 23
31.00070000000005
 33
0.0
 14
10.00000000000346
 24
32.0039999999999
 34
0.0
100
AcDbRotatedDimension
  0
DIMENSION
  5
CC
330
2
100
AcDbEntity
  8
DIM
 62
     3
100
AcDbDimension
  2
*D3
 10
122.9681118470848
 20
-48.49999999999592
 30
0.0
 11
118.4681118470848
 21
0.0000000000045547
 31
0.0
 70
    32
  1
%%c<>
 71
     5
 42
97.00000000000091
  3
STANDARD
100
AcDbAlignedDimension
 13
68.99999999999909
 23
48.500000000005
 33
0.0
 14
68.9967562855291
 24
-48.49999999999591
 34
0.0
 50
90.0
100
AcDbRotatedDimension
  0
DIMENSION
  5
D9
330
2
100
AcDbEntity
  8
DIM
 62
     3
100
AcDbDimension
  2
*D4
 10
-63.85364459459714
 20
-32.00399999999897
 30
0.0
 11
-68.35364459459714
 21
0.0000000000004663
 31
0.0
 70
    32
  1
%%c<>
 71
     5
 42
64.0079999999989
  3
STANDARD
100
AcDbAlignedDimension
 13
1.003299999999967
 23
32.0039999999999
 33
0.0
 14
1.003299999999967
 24
-32.00399999999899
 34
0.0
 50
90.0
100
AcDbRotatedDimension
  0
ENDSEC
  0
SECTION
  2
OBJECTS
  0
DICTIONARY
  5
1A
330
0
100
AcDbDictionary
281
     1
  3
ACAD_GROUP
350
18
  3
ACAD_LAYOUT
350
6B
  3
ACAD_MLINESTYLE
350
19
  3
ACAD_PLOTSETTINGS
350
6C
  3
ACAD_PLOTSTYLENAME
350
69
  3
AcDbVariableDictionary
350
72
  0
DICTIONARY
  5
18
102
{ACAD_REACTORS
330
1A
102
}
330
1A
100
AcDbDictionary
281
     1
  0
DICTIONARY
  5
6B
102
{ACAD_REACTORS
330
1A
102
}
330
1A
100
AcDbDictionary
281
     1
  3
Layout1
350
6E
  3
Model
350
6D
  0
DICTIONARY
  5
19
102
{ACAD_REACTORS
330
1A
102
}
330
1A
100
AcDbDictionary
281
     1
  3
STANDARD
350
1D
  0
DICTIONARY
  5
6C
102
{ACAD_REACTORS
330
1A
102
}
330
1A
100
AcDbDictionary
281
     1
  0
ACDBDICTIONARYWDFLT
  5
69
102
{ACAD_REACTORS
330
1A
102
}
330
1A
100
AcDbDictionary
281
     1
  3
Normal
350
6A
100
AcDbDictionaryWithDefault
340
6A
  0
DICTIONARY
  5
72
102
{ACAD_REACTORS
330
1A
102
}
330
1A
100
AcDbDictionary
281
     1
  3
DIMASSOC
350
73
  0
LAYOUT
  5
6E
102
{ACAD_REACTORS
330
6B
102
}
330
6B
100
AcDbPlotSettings
  1

  2
\\PRINT_SRV\HP LaserJet (Engineering)
  4

  6

 40
0.0
 41
0.0
 42
0.0
 43
0.0
 44
0.0
 45
0.0
 46
0.0
 47
0.0
 48
0.0
 49
0.0
140
0.0
141
0.0
142
1.0
143
1.0
 70
   688
 72
     0
 73
     0
 74
     5
  7
KPT.ctb
 75
    16
147
1.0
148
0.0
149
0.0
100
AcDbLayout
  1
Layout1
 70
     1
 71
     1
 10
0.0
 20
0.0
 11
12.0
 21
9.0
 12
0.0
 22
0.0
 32
0.0
 14
1.000000000000000E+20
 24
1.000000000000000E+20
 34
1.000000000000000E+20
 15
-1.000000000000000E+20
 25
-1.000000000000000E+20
 35
-1.000000000000000E+20
146
0.0
 13
0.0
 23
0.0
 33
0.0
 16
1.0
 26
0.0
 36
0.0
 17
0.0
 27
1.0
 37
0.0
 76
     0
330
7
  0
LAYOUT
  5
6D
102
{ACAD_REACTORS
330
6B
102
}
330
6B
100
AcDbPlotSettings
  1

  2
\\PRINT_SRV\HP LaserJet (Engineering)
  4

  6

 40
0.0
 41
0.0
 42
0.0
 43
0.0
 44
0.0
 45
0.0
 46
0.0
 47
0.0
 48
0.0
 49
0.0
140
0.0
141
0.0
142
1.0
143
1.0
 70
  1712
 72
     0
 73
     0
 74
     0
  7
KPT.ctb
 75
     0
147
1.0
148
0.0
149
0.0
100
AcDbLayout
  1
Model
 70
     1
 71
     0
 10
0.0
 20
0.0
 11
12.0
 21
9.0
 12
0.0
 22
0.0
 32
0.0
 14
0.0
 24
0.0
 34
0.0
 15
0.0
 25
0.0
 35
0.0
146
0.0
 13
0.0
 23
0.0
 33
0.0
 16
1.0
 26
0.0
 36
0.0
 17
0.0
 27
1.0
 37
0.0
 76
     0
330
2
  0
MLINESTYLE
  5
1D
102
{ACAD_REACTORS
330
19
102
}
330
19
100
AcDbMlineStyle
  2
STANDARD
 70
     0
  3

 62
   256
 51
90.0
 52
90.0
 71
     2
 49
0.5
 62
   256
  6
BYLAYER
 49
-0.5
 62
   256
  6
BYLAYER
  0
ACDBPLACEHOLDER
  5
6A
102
{ACAD_REACTORS
330
69
102
}
330
69
  0
DICTIONARYVAR
  5
73
102
{ACAD_REACTORS
330
72
102
}
330
72
100
DictionaryVariables
280
     0
  1
1
  0
ENDSEC
  0
EOF
