  0
SECTION
  2
HEADER
  9
$ACADVER
  1
AC1015
  9
$ACADMAINTVER
 70
    13
  9
$DWGCODEPAGE
  3
ANSI_1252
  9
$INSBASE
 10
431.5194971799228
 20
-2739.821470852783
 30
0.0
  9
$EXTMIN
 10
-55.3944049750973
 20
-32.00400000000036
 30
0.0
  9
$EXTMAX
 10
151.1258833823732
 20
60.55727300599146
 30
0.0
  9
$LIMMIN
 10
0.0
 20
0.0
  9
$LIMMAX
 10
12.0
 20
9.0
  9
$ORTHOMODE
 70
     1
  9
$REGENMODE
 70
     1
  9
$FILLMODE
 70
     1
  9
$QTEXTMODE
 70
     0
  9
$MIRRTEXT
 70
     0
  9
$LTSCALE
 40
10.0
  9
$ATTMODE
 70
     1
  9
$TEXTSIZE
 40
5.0
  9
$TRACEWID
 40
0.05
  9
$TEXTSTYLE
  7
ROMANS
  9
$CLAYER
  8
DIM
  9
$CELTYPE
  6
BYLAYER
  9
$CECOLOR
 62
     3
  9
$CELTSCALE
 40
1.0
  9
$DISPSILH
 70
     0
  9
$DIMSCALE
 40
15.0
  9
$DIMASZ
 40
0.18
  9
$DIMEXO
 40
0.0625
  9
$DIMDLI
 40
0.38
  9
$DIMRND
 40
0.0
  9
$DIMDLE
 40
0.0
  9
$DIMEXE
 40
0.18
  9
$DIMTP
 40
0.0
  9
$DIMTM
 40
0.0
  9
$DIMTXT
 40
0.18
  9
$DIMCEN
 40
0.09
  9
$DIMTSZ
 40
0.0
  9
$DIMTOL
 70
     0
  9
$DIMLIM
 70
     0
  9
$DIMTIH
 70
     0
  9
$DIMTOH
 70
     0
  9
$DIMSE1
 70
     0
  9
$DIMSE2
 70
     0
  9
$DIMTAD
 70
     1
  9
$DIMZIN
 70
     0
  9
$DIMBLK
  1

  9
$DIMASO
 70
     1
  9
$DIMSHO
 70
     1
  9
$DIMPOST
  1

  9
$DIMAPOST
  1

  9
$DIMALT
 70
     0
  9
$DIMALTD
 70
     2
  9
$DIMALTF
 40
25.4
  9
$DIMLFAC
 40
1.0
  9
$DIMTOFL
 70
     0
  9
$DIMTVP
 40
0.0
  9
$DIMTIX
 70
     0
  9
$DIMSOXD
 70
     0
  9
$DIMSAH
 70
     0
  9
$DIMBLK1
  1

  9
$DIMBLK2
  1

  9
$DIMSTYLE
  2
STANDARD
  9
$DIMCLRD
 70
   256
  9
$DIMCLRE
 70
   256
  9
$DIMCLRT
 70
   256
  9
$DIMTFAC
 40
1.0
  9
$DIMGAP
 40
0.09
  9
$DIMJUST
 70
     0
  9
$DIMSD1
 70
     0
  9
$DIMSD2
 70
     0
  9
$DIMTOLJ
 70
     1
  9
$DIMTZIN
 70
     0
  9
$DIMALTZ
 70
     0
  9
$DIMALTTZ
 70
     0
  9
$DIMUPT
 70
     0
  9
$DIMDEC
 70
     1
  9
$DIMTDEC
 70
     1
  9
$DIMALTU
 70
     2
  9
$DIMALTTD
 70
     2
  9
$DIMTXSTY
  7
ROMANS
  9
$DIMAUNIT
 70
     0
  9
$DIMADEC
 70
     0
  9
$DIMALTRND
 40
0.0
  9
$DIMAZIN
 70
     0
  9
$DIMDSEP
 70
    46
  9
$DIMATFIT
 70
     3
  9
$DIMFRAC
 70
     0
  9
$DIMLDRBLK
  1

  9
$DIMLUNIT
 70
     2
  9
$DIMLWD
 70
    -1
  9
$DIMLWE
 70
    -1
  9
$DIMTMOVE
 70
     0
  9
$LUNITS
 70
     2
  9
$LUPREC
 70
     4
  9
$SKETCHINC
 40
0.1
  9
$FILLETRAD
 40
0.0
  9
$AUNITS
 70
     0
  9
$AUPREC
 70
     0
  9
$MENU
  1
acad
  9
$ELEVATION
 40
0.0
  9
$PELEVATION
 40
0.0
  9
$THICKNESS
 40
0.0
  9
$LIMCHECK
 70
     0
  9
$CHAMFERA
 40
1.5
  9
$CHAMFERB
 40
1.5
  9
$CHAMFERC
 40
0.0
  9
$CHAMFERD
 40
0.0
  9
$SKPOLY
 70
     0
  9
$TDCREATE
 40
2449974.566112731
  9
$TDUCREATE
 40
2449974.816112731
  9
$TDUPDATE
 40
2452660.527546898
  9
$TDUUPDATE
 40
2452660.777546898
  9
$TDINDWG
 40
0.9799541898
  9
$TDUSRTIMER
 40
0.9799540741
  9
$USRTIMER
 70
     1
  9
$ANGBASE
 50
0.0
  9
$ANGDIR
 70
     0
  9
$PDMODE
 70
     0
  9
$PDSIZE
 40
0.0
  9
$PLINEWID
 40
0.0
  9
$SPLFRAME
 70
     0
  9
$SPLINETYPE
 70
     6
  9
$SPLINESEGS
 70
     8
  9
$HANDSEED
  5
BB
  9
$SURFTAB1
 70
     6
  9
$SURFTAB2
 70
     6
  9
$SURFTYPE
 70
     6
  9
$SURFU
 70
     6
  9
$SURFV
 70
     6
  9
$UCSBASE
  2

  9
$UCSNAME
  2

  9
$UCSORG
 10
0.0
 20
0.0
 30
0.0
  9
$UCSXDIR
 10
1.0
 20
0.0
 30
0.0
  9
$UCSYDIR
 10
0.0
 20
1.0
 30
0.0
  9
$UCSORTHOREF
  2

  9
$UCSORTHOVIEW
 70
     0
  9
$UCSORGTOP
 10
0.0
 20
0.0
 30
0.0
  9
$UCSORGBOTTOM
 10
0.0
 20
0.0
 30
0.0
  9
$UCSORGLEFT
 10
0.0
 20
0.0
 30
0.0
  9
$UCSORGRIGHT
 10
0.0
 20
0.0
 30
0.0
  9
$UCSORGFRONT
 10
0.0
 20
0.0
 30
0.0
  9
$UCSORGBACK
 10
0.0
 20
0.0
 30
0.0
  9
$PUCSBASE
  2

  9
$PUCSNAME
  2

  9
$PUCSORG
 10
0.0
 20
0.0
 30
0.0
  9
$PUCSXDIR
 10
1.0
 20
0.0
 30
0.0
  9
$PUCSYDIR
 10
0.0
 20
1.0
 30
0.0
  9
$PUCSORTHOREF
  2

  9
$PUCSORTHOVIEW
 70
     0
  9
$PUCSORGTOP
 10
0.0
 20
0.0
 30
0.0
  9
$PUCSORGBOTTOM
 10
0.0
 20
0.0
 30
0.0
  9
$PUCSORGLEFT
 10
0.0
 20
0.0
 30
0.0
  9
$PUCSORGRIGHT
 10
0.0
 20
0.0
 30
0.0
  9
$PUCSORGFRONT
 10
0.0
 20
0.0
 30
0.0
  9
$PUCSORGBACK
 10
0.0
 20
0.0
 30
0.0
  9
$USERI1
 70
     0
  9
$USERI2
 70
     0
  9
$USERI3
 70
     0
  9
$USERI4
 70
     0
  9
$USERI5
 70
     0
  9
$USERR1
 40
0.0
  9
$USERR2
 40
0.0
  9
$USERR3
 40
0.0
  9
$USERR4
 40
0.0
  9
$USERR5
 40
0.0
  9
$WORLDVIEW
 70
     1
  9
$SHADEDGE
 70
     3
  9
$SHADEDIF
 70
    70
  9
$TILEMODE
 70
     1
  9
$MAXACTVP
 70
    16
  9
$PINSBASE
 10
0.0
 20
0.0
 30
0.0
  9
$PLIMCHECK
 70
     0
  9
$PEXTMIN
 10
1.000000000000000E+20
 20
1.000000000000000E+20
 30
1.000000000000000E+20
  9
$PEXTMAX
 10
-1.000000000000000E+20
 20
-1.000000000000000E+20
 30
-1.000000000000000E+20
  9
$PLIMMIN
 10
0.0
 20
0.0
  9
$PLIMMAX
 10
12.0
 20
9.0
  9
$UNITMODE
 70
     0
  9
$VISRETAIN
 70
     0
  9
$PLINEGEN
 70
     0
  9
$PSLTSCALE
 70
     1
  9
$TREEDEPTH
 70
  3020
  9
$CMLSTYLE
  2
STANDARD
  9
$CMLJUST
 70
     0
  9
$CMLSCALE
 40
1.0
  9
$PROXYGRAPHICS
 70
     1
  9
$MEASUREMENT
 70
     0
  9
$CELWEIGHT
370
    -1
  9
$ENDCAPS
280
     0
  9
$JOINSTYLE
280
     0
  9
$LWDISPLAY
290
     0
  9
$INSUNITS
 70
     0
  9
$HYPERLINKBASE
  1

  9
$STYLESHEET
  1

  9
$XEDIT
290
     1
  9
$CEPSNTYPE
380
     0
  9
$PSTYLEMODE
290
     1
  9
$FINGERPRINTGUID
  2
{13590328-637A-42EC-9B24-05444D4E7CAC}
  9
$VERSIONGUID
  2
{8E2323D9-FFBE-4CD7-BB43-045C2C482149}
  9
$EXTNAMES
290
     1
  9
$PSVPSCALE
 40
0.0
  9
$OLESTARTUP
290
     0
  0
ENDSEC
  0
SECTION
  2
CLASSES
  0
CLASS
  1
DICTIONARYVAR
  2
AcDbDictionaryVar
  3
AutoCAD 2000
 90
        0
280
     0
281
     0
  0
CLASS
  1
LWPOLYLINE
  2
AcDbPolyline
  3
AutoCAD 2000
 90
    32768
280
     0
281
     1
  0
CLASS
  1
OLE2FRAME
  2
AcDbOle2Frame
  3
AutoCAD 2000
 90
    32768
280
     0
281
     1
  0
CLASS
  1
ACDBDICTIONARYWDFLT
  2
AcDbDictionaryWithDefault
  3
AutoCAD 2000
 90
        0
280
     0
281
     0
  0
CLASS
  1
ACDBPLACEHOLDER
  2
AcDbPlaceHolder
  3
AutoCAD 2000
 90
        0
280
     0
281
     0
  0
CLASS
  1
LAYOUT
  2
AcDbLayout
  3
AutoCAD 2000
 90
        0
280
     0
281
     0
  0
ENDSEC
  0
SECTION
  2
TABLES
  0
TABLE
  2
VPORT
  5
12
330
0
100
AcDbSymbolTable
 70
     2
  0
VPORT
  5
BA
330
12
100
AcDbSymbolTableRecord
100
AcDbViewportTableRecord
  2
*Active
 70
     0
 10
0.0
 20
0.0
 11
1.0
 21
1.0
 12
47.86573920363798
 22
14.27663650299555
 13
0.0
 23
0.0
 14
1.0
 24
1.0
 15
0.0
 25
0.0
 16
0.0
 26
0.0
 36
1.0
 17
0.0
 27
0.0
 37
0.0
 40
138.4797107867099
 41
1.498756218905472
 42
50.0
 43
0.0
 44
0.0
 50
0.0
 51
0.0
 71
     0
 72
 10000
 73
     1
 74
     1
 75
     0
 76
     0
 77
     0
 78
     0
281
     0
 65
     1
110
0.0
120
0.0
130
0.0
111
1.0
121
0.0
131
0.0
112
0.0
122
1.0
132
0.0
 79
     0
146
0.0
  0
ENDTAB
  0
TABLE
  2
LTYPE
  5
D
330
0
100
AcDbSymbolTable
 70
     3
  0
LTYPE
  5
E
330
D
100
AcDbSymbolTableRecord
100
AcDbLinetypeTableRecord
  2
BYBLOCK
 70
     0
  3

 72
    65
 73
     0
 40
0.0
  0
LTYPE
  5
F
330
D
100
AcDbSymbolTableRecord
100
AcDbLinetypeTableRecord
  2
BYLAYER
 70
     0
  3

 72
    65
 73
     0
 40
0.0
  0
LTYPE
  5
5
330
D
100
AcDbSymbolTableRecord
100
AcDbLinetypeTableRecord
  2
CONTINUOUS
 70
     0
  3
Solid line
 72
    65
 73
     0
 40
0.0
  0
LTYPE
  5
29
330
D
100
AcDbSymbolTableRecord
100
AcDbLinetypeTableRecord
  2
HIDDEN
 70
     0
  3
_ _ _ _ _ _ _ _ _ _ _ _ _ _ _ _ _ _ _ _ _ _ _
 72
    65
 73
     2
 40
0.375
 49
0.25
 74
     0
 49
-0.125
 74
     0
  0
LTYPE
  5
41
330
D
100
AcDbSymbolTableRecord
100
AcDbLinetypeTableRecord
  2
CENTER
 70
     0
  3
____ _ ____ _ ____ _ ____ _ ____ _ ____ _ ____
 72
    65
 73
     4
 40
2.0
 49
1.25
 74
     0
 49
-0.25
 74
     0
 49
0.25
 74
     0
 49
-0.25
 74
     0
  0
ENDTAB
  0
TABLE
  2
LAYER
  5
A
330
0
100
AcDbSymbolTable
 70
     7
  0
LAYER
  5
4
330
A
100
AcDbSymbolTableRecord
100
AcDbLayerTableRecord
  2
0
 70
     0
 62
     7
  6
CONTINUOUS
370
    -3
390
5C
  0
LAYER
  5
1B
330
A
100
AcDbSymbolTableRecord
100
AcDbLayerTableRecord
  2
LINE
 70
     0
 62
     3
  6
CONTINUOUS
370
    -3
390
5C
  0
LAYER
  5
28
330
A
100
AcDbSymbolTableRecord
100
AcDbLayerTableRecord
  2
HIDDEN
 70
     0
 62
     2
  6
HIDDEN
370
    -3
390
5C
  0
LAYER
  5
40
330
A
100
AcDbSymbolTableRecord
100
AcDbLayerTableRecord
  2
CTRL
 70
     0
 62
     1
  6
CENTER
370
    -3
390
5C
  0
LAYER
  5
6C
330
A
100
AcDbSymbolTableRecord
100
AcDbLayerTableRecord
  2
DIM
 70
     0
 62
     7
  6
CONTINUOUS
370
    -3
390
5C
  0
LAYER
  5
6D
330
A
100
AcDbSymbolTableRecord
100
AcDbLayerTableRecord
  2
KA
 70
     0
 62
     3
  6
CONTINUOUS
370
    -3
390
5C
  0
LAYER
  5
6F
330
A
100
AcDbSymbolTableRecord
100
AcDbLayerTableRecord
  2
Defpoints
 70
     0
 62
     7
  6
CONTINUOUS
290
     0
370
    -3
390
5C
  0
ENDTAB
  0
TABLE
  2
STYLE
  5
B
330
0
100
AcDbSymbolTable
 70
     2
  0
STYLE
  5
C
330
B
100
AcDbSymbolTableRecord
100
AcDbTextStyleTableRecord
  2
STANDARD
 70
     0
 40
0.0
 41
1.0
 50
0.0
 71
     0
 42
0.2
  3
txt
  4

  0
STYLE
  5
1C
330
B
100
AcDbSymbolTableRecord
100
AcDbTextStyleTableRecord
  2
ROMANS
 70
     0
 40
0.0
 41
1.0
 50
0.0
 71
     0
 42
5.0
  3
romans
  4

  0
ENDTAB
  0
TABLE
  2
VIEW
  5
10
330
0
100
AcDbSymbolTable
 70
     0
  0
ENDTAB
  0
TABLE
  2
UCS
  5
11
330
0
100
AcDbSymbolTable
 70
     0
  0
ENDTAB
  0
TABLE
  2
APPID
  5
14
330
0
100
AcDbSymbolTable
 70
     1
  0
APPID
  5
15
330
14
100
AcDbSymbolTableRecord
100
AcDbRegAppTableRecord
  2
ACAD
 70
     0
  0
ENDTAB
  0
TABLE
  2
DIMSTYLE
  5
16
330
0
100
AcDbSymbolTable
 70
     1
100
AcDbDimStyleTable
 71
     1
340
1E
  0
DIMSTYLE
105
1E
102
{ACAD_REACTORS
330
6E
330
7C
330
89
102
}
330
16
100
AcDbSymbolTableRecord
100
AcDbDimStyleTableRecord
  2
STANDARD
 70
     0
 40
15.0
 73
     0
 74
     0
 77
     1
176
   256
177
   256
178
   256
271
     1
272
     1
340
1C
371
    -1
372
    -1
  0
ENDTAB
  0
TABLE
  2
BLOCK_RECORD
  5
1
330
0
100
AcDbSymbolTable
 70
     3
  0
BLOCK_RECORD
  5
2
330
1
100
AcDbSymbolTableRecord
100
AcDbBlockTableRecord
  2
*MODEL_SPACE
340
5F
  0
BLOCK_RECORD
  5
7
330
1
100
AcDbSymbolTableRecord
100
AcDbBlockTableRecord
  2
*PAPER_SPACE
340
60
  0
BLOCK_RECORD
  5
70
330
1
100
AcDbSymbolTableRecord
100
AcDbBlockTableRecord
  2
*D0
340
0
  0
BLOCK_RECORD
  5
7D
330
1
100
AcDbSymbolTableRecord
100
AcDbBlockTableRecord
  2
*D1
340
0
  0
BLOCK_RECORD
  5
8A
330
1
100
AcDbSymbolTableRecord
100
AcDbBlockTableRecord
  2
*D2
340
0
  0
ENDTAB
  0
ENDSEC
  0
SECTION
  2
BLOCKS
  0
BLOCK
  5
3
330
2
100
AcDbEntity
  8
0
100
AcDbBlockBegin
  2
*MODEL_SPACE
 70
     0
 10
0.0
 20
0.0
 30
0.0
  3
*MODEL_SPACE
  1

  0
ENDBLK
  5
6
330
2
100
AcDbEntity
  8
0
100
AcDbBlockEnd
  0
BLOCK
  5
8
330
7
100
AcDbEntity
 67
     1
  8
0
100
AcDbBlockBegin
  2
*PAPER_SPACE
 70
     0
 10
0.0
 20
0.0
 30
0.0
  3
*PAPER_SPACE
  1

  0
ENDBLK
  5
9
330
7
100
AcDbEntity
 67
     1
  8
0
100
AcDbBlockEnd
  0
BLOCK
  5
7A
330
70
100
AcDbEntity
  8
0
 62
     3
100
AcDbBlockBegin
  2
*D0
 70
     1
 10
0.0
 20
0.0
 30
0.0
  3
*D0
  1

  0
LINE
  5
B1
330
70
100
AcDbEntity
  8
DIM
100
AcDbLine
 10
-40.00499999999999
 20
17.75284889117574
 30
0.0
 11
-40.00499999999999
 21
59.20727300599146
 31
0.0
  0
LINE
  5
B2
330
70
100
AcDbEntity
  8
DIM
100
AcDbLine
 10
119.9999999999991
 20
31.44150000000263
 30
0.0
 11
119.9999999999991
 21
59.20727300599146
 31
0.0
  0
LINE
  5
B3
330
70
100
AcDbEntity
  8
DIM
100
AcDbLine
 10
-37.30499999999999
 20
56.50727300599147
 30
0.0
 11
117.2999999999991
 21
56.50727300599147
 31
0.0
  0
SOLID
  5
B4
330
70
100
AcDbEntity
  8
DIM
100
AcDbTrace
 10
-37.30499999999999
 20
56.95727300599147
 30
0.0
 11
-37.30499999999999
 21
56.05727300599146
 31
0.0
 12
-40.00499999999999
 22
56.50727300599147
 32
0.0
 13
-40.00499999999999
 23
56.50727300599147
 33
0.0
  0
SOLID
  5
B5
330
70
100
AcDbEntity
  8
DIM
100
AcDbTrace
 10
117.2999999999991
 20
56.95727300599147
 30
0.0
 11
117.2999999999991
 21
56.05727300599146
 31
0.0
 12
119.9999999999991
 22
56.50727300599147
 32
0.0
 13
119.9999999999991
 23
56.50727300599147
 33
0.0
  0
MTEXT
  5
B6
330
70
100
AcDbEntity
  8
DIM
100
AcDbMText
 10
39.99749999999957
 20
59.20727300599146
 30
0.0
 40
2.699999999999999
 41
0.0
 71
     5
 72
     1
  1
\A1;160.0
  7
ROMANS
 73
     1
 44
1.0
  0
POINT
  5
B7
330
70
100
AcDbEntity
  8
Defpoints
 62
     0
100
AcDbPoint
 10
-40.00499999999999
 20
16.81534889117574
 30
0.0
  0
POINT
  5
B8
330
70
100
AcDbEntity
  8
Defpoints
 62
     0
100
AcDbPoint
 10
119.9999999999991
 20
30.50400000000263
 30
0.0
  0
POINT
  5
B9
330
70
100
AcDbEntity
  8
Defpoints
 62
     0
100
AcDbPoint
 10
119.9999999999991
 20
56.50727300599147
 30
0.0
  0
ENDBLK
  5
7B
330
70
100
AcDbEntity
  8
0
 62
     3
100
AcDbBlockEnd
  0
BLOCK
  5
87
330
7D
100
AcDbEntity
  8
0
 62
     3
100
AcDbBlockBegin
  2
*D1
 70
     1
 10
0.0
 20
0.0
 30
0.0
  3
*D1
  1

  0
LINE
  5
A8
330
7D
100
AcDbEntity
  8
DIM
100
AcDbLine
 10
0.0000000000000001
 20
31.93819999999959
 30
0.0
 11
0.0000000000000011
 21
48.41077928643308
 31
0.0
  0
LINE
  5
A9
330
7D
100
AcDbEntity
  8
DIM
100
AcDbLine
 10
119.9999999999991
 20
31.44150000000263
 30
0.0
 11
119.9999999999991
 21
48.41077928643308
 31
0.0
  0
LINE
  5
AA
330
7D
100
AcDbEntity
  8
DIM
100
AcDbLine
 10
2.7
 20
45.71077928643307
 30
0.0
 11
117.2999999999991
 21
45.71077928643307
 31
0.0
  0
SOLID
  5
AB
330
7D
100
AcDbEntity
  8
DIM
100
AcDbTrace
 10
2.7
 20
46.16077928643308
 30
0.0
 11
2.7
 21
45.26077928643307
 31
0.0
 12
0.0000000000000009
 22
45.71077928643307
 32
0.0
 13
0.0000000000000009
 23
45.71077928643307
 33
0.0
  0
SOLID
  5
AC
330
7D
100
AcDbEntity
  8
DIM
100
AcDbTrace
 10
117.2999999999991
 20
46.16077928643308
 30
0.0
 11
117.2999999999991
 21
45.26077928643307
 31
0.0
 12
119.9999999999991
 22
45.71077928643307
 32
0.0
 13
119.9999999999991
 23
45.71077928643307
 33
0.0
  0
MTEXT
  5
AD
330
7D
100
AcDbEntity
  8
DIM
100
AcDbMText
 10
59.99999999999957
 20
48.41077928643308
 30
0.0
 40
2.699999999999999
 41
0.0
 71
     5
 72
     1
  1
\A1;120.0
  7
ROMANS
 73
     1
 44
1.0
  0
POINT
  5
AE
330
7D
100
AcDbEntity
  8
Defpoints
 62
     0
100
AcDbPoint
 10
0.0
 20
31.00069999999959
 30
0.0
  0
POINT
  5
AF
330
7D
100
AcDbEntity
  8
Defpoints
 62
     0
100
AcDbPoint
 10
119.9999999999991
 20
30.50400000000263
 30
0.0
  0
POINT
  5
B0
330
7D
100
AcDbEntity
  8
Defpoints
 62
     0
100
AcDbPoint
 10
119.9999999999991
 20
45.71077928643307
 30
0.0
  0
ENDBLK
  5
88
330
7D
100
AcDbEntity
  8
0
 62
     3
100
AcDbBlockEnd
  0
BLOCK
  5
94
330
8A
100
AcDbEntity
  8
0
 62
     3
100
AcDbBlockBegin
  2
*D2
 70
     1
 10
0.0
 20
0.0
 30
0.0
  3
*D2
  1

  0
LINE
  5
9F
330
8A
100
AcDbEntity
  8
DIM
100
AcDbLine
 10
119.4374999999992
 20
32.00400000000263
 30
0.0
 11
151.1258833823732
 21
32.00400000000263
 31
0.0
  0
LINE
  5
A0
330
8A
100
AcDbEntity
  8
DIM
100
AcDbLine
 10
119.4374999999994
 20
-32.00399999999854
 30
0.0
 11
151.1258833823732
 21
-32.00399999999854
 31
0.0
  0
LINE
  5
A1
330
8A
100
AcDbEntity
  8
DIM
100
AcDbLine
 10
148.4258833823732
 20
29.30400000000263
 30
0.0
 11
148.4258833823732
 21
-29.30399999999854
 31
0.0
  0
SOLID
  5
A2
330
8A
100
AcDbEntity
  8
DIM
100
AcDbTrace
 10
147.9758833823733
 20
29.30400000000263
 30
0.0
 11
148.8758833823732
 21
29.30400000000263
 31
0.0
 12
148.4258833823732
 22
32.00400000000263
 32
0.0
 13
148.4258833823732
 23
32.00400000000263
 33
0.0
  0
SOLID
  5
A3
330
8A
100
AcDbEntity
  8
DIM
100
AcDbTrace
 10
147.9758833823733
 20
-29.30399999999854
 30
0.0
 11
148.8758833823732
 21
-29.30399999999854
 31
0.0
 12
148.4258833823732
 22
-32.00399999999854
 32
0.0
 13
148.4258833823732
 23
-32.00399999999854
 33
0.0
  0
MTEXT
  5
A4
330
8A
100
AcDbEntity
  8
DIM
100
AcDbMText
 10
145.7258833823732
 20
0.000000000002066
 30
0.0
 40
2.699999999999999
 41
0.0
 71
     5
 72
     1
  1
\A1;%%c64.0
  7
ROMANS
 11
0.0000000000000001
 21
1.0
 31
0.0
 73
     1
 44
1.0
  0
POINT
  5
A5
330
8A
100
AcDbEntity
  8
Defpoints
 62
     0
100
AcDbPoint
 10
118.4999999999992
 20
32.00400000000263
 30
0.0
  0
POINT
  5
A6
330
8A
100
AcDbEntity
  8
Defpoints
 62
     0
100
AcDbPoint
 10
118.4999999999994
 20
-32.00399999999854
 30
0.0
  0
POINT
  5
A7
330
8A
100
AcDbEntity
  8
Defpoints
 62
     0
100
AcDbPoint
 10
148.4258833823732
 20
-32.00399999999854
 30
0.0
  0
ENDBLK
  5
95
330
8A
100
AcDbEntity
  8
0
 62
     3
100
AcDbBlockEnd
  0
ENDSEC
  0
SECTION
  2
ENTITIES
  0
LINE
  5
1F
330
2
100
AcDbEntity
  8
KA
100
AcDbLine
 10
-40.00499999999994
 20
-16.8153488911762
 30
0.0
 11
-40.00499999999994
 21
0.0
 31
0.0
  0
LINE
  5
20
330
2
100
AcDbEntity
  8
LINE
100
AcDbLine
 10
0.0
 20
-31.00070000000005
 30
0.0
 11
0.0
 21
0.0
 31
0.0
  0
LINE
  5
21
330
2
100
AcDbEntity
  8
KA
100
AcDbLine
 10
-34.92499999999995
 20
-17.99590000000034
 30
0.0
 11
-34.92499999999995
 21
0.0
 31
0.0
  0
LINE
  5
22
330
2
100
AcDbEntity
  8
KA
100
AcDbLine
 10
-37.75186034502297
 20
-17.59861068752343
 30
0.0
 11
-37.75186034502297
 21
0.0
 31
0.0
  0
LINE
  5
23
330
2
100
AcDbEntity
  8
LINE
100
AcDbLine
 10
1.003299999999967
 20
-32.00400000000036
 30
0.0
 11
1.003299999999967
 21
0.0
 31
0.0
  0
LINE
  5
24
330
2
100
AcDbEntity
  8
KA
100
AcDbLine
 10
-2.032000000000039
 20
-17.99590000000034
 30
0.0
 11
-2.032000000000039
 21
0.0
 31
0.0
  0
CIRCLE
  5
25
330
2
100
AcDbEntity
  8
KA
100
AcDbCircle
 10
-15.49400000000002
 20
0.0
 30
0.0
 40
4.5
  0
LWPOLYLINE
  5
26
330
2
100
AcDbEntity
  8
KA
100
AcDbPolyline
 90
       16
 70
     1
 43
0.0
 10
-9.609409599878972
 20
0.0
 42
0.1115408558816133
 10
-10.04377805716035
 20
1.922902233633067
 42
0.1029733543267754
 10
-11.3329662235692
 20
3.62033055713482
 42
0.0927957371124016
 10
-13.20606121840819
 20
4.720228740587117
 42
0.0866911325972541
 10
-15.49400000000002
 20
5.119920574174557
 42
0.086691132597254
 10
-17.78193878159197
 20
4.720228740587117
 42
0.0927957371124026
 10
-19.65503377643085
 20
3.62033055713482
 42
0.1029733543267735
 10
-20.94422194283964
 20
1.922902233633067
 42
0.1115408558816151
 10
-21.37859040012102
 20
0.0
 42
0.1115408558816122
 10
-20.94422194283964
 20
-1.922902233634431
 42
0.1029733543267726
 10
-19.65503377643085
 20
-3.620330557136185
 42
0.0927957371123996
 10
-17.78193878159197
 20
-4.720228740588481
 42
0.0866911325972534
 10
-15.49400000000002
 20
-5.119920574175466
 42
0.0866911325972539
 10
-13.20606121840819
 20
-4.720228740588481
 42
0.0927957371124012
 10
-11.3329662235692
 20
-3.620330557136185
 42
0.1029733543267761
 10
-10.04377805716035
 20
-1.922902233634431
 42
0.1115408558816135
  0
LINE
  5
27
330
2
100
AcDbEntity
  8
HIDDEN
100
AcDbLine
 10
-1.350975479668022
 20
7.9375
 30
0.0
 11
-1.350975479668022
 21
-7.9375
 31
0.0
  0
LINE
  5
2A
330
2
100
AcDbEntity
  8
HIDDEN
100
AcDbLine
 10
-1.350975479668022
 20
-7.9375
 30
0.0
 11
3.23174228202447
 21
0.0
 31
0.0
  0
LINE
  5
2B
330
2
100
AcDbEntity
  8
KA
100
AcDbLine
 10
-15.83690000000001
 20
4.486916490195653
 30
0.0
 11
-15.83690000000001
 21
-4.486916490197017
 31
0.0
  0
LINE
  5
2C
330
2
100
AcDbEntity
  8
LINE
 62
     3
100
AcDbLine
 10
119.9999999999993
 20
-30.50399999999854
 30
0.0
 11
119.9999999999991
 21
30.50400000000263
 31
0.0
  0
LINE
  5
2D
330
2
100
AcDbEntity
  8
LINE
 62
     3
100
AcDbLine
 10
118.4999999999991
 20
32.00400000000263
 30
0.0
 11
118.4999999999993
 21
-32.00399999999717
 31
0.0
  0
LINE
  5
2E
330
2
100
AcDbEntity
  8
LINE
 62
     3
100
AcDbLine
 10
1.003299999999853
 20
-32.00399999999899
 30
0.0
 11
118.4999999999994
 21
-32.00399999999854
 31
0.0
  0
LINE
  5
2F
330
2
100
AcDbEntity
  8
HIDDEN
100
AcDbLine
 10
-37.75186034502297
 20
-7.9375
 30
0.0
 11
-1.350975479668022
 21
-7.9375
 31
0.0
  0
LINE
  5
30
330
2
100
AcDbEntity
  8
KA
100
AcDbLine
 10
-34.92499999999995
 20
-17.99590000000034
 30
0.0
 11
-15.83690000000001
 21
-17.99590000000034
 31
0.0
  0
LINE
  5
31
330
2
100
AcDbEntity
  8
KA
100
AcDbLine
 10
-38.84238411520306
 20
-17.79089945130999
 30
0.0
 11
-37.75186034502297
 21
-17.59861068752343
 31
0.0
  0
LINE
  5
32
330
2
100
AcDbEntity
  8
KA
100
AcDbLine
 10
-34.92499999999995
 20
-17.99590000000034
 30
0.0
 11
-37.75186034502297
 21
-17.59861068752343
 31
0.0
  0
ARC
  5
33
330
2
100
AcDbEntity
  8
KA
100
AcDbCircle
 10
-39.01439999999996
 20
-16.8153488911762
 30
0.0
 40
0.9905999999999998
100
AcDbArc
 50
180.0
 51
280.0000000000002
  0
LINE
  5
34
330
2
100
AcDbEntity
  8
HIDDEN
100
AcDbLine
 10
-37.75186034502297
 20
-7.9375
 30
0.0
 11
-40.00499999999994
 21
-9.23835078632328
 31
0.0
  0
LINE
  5
35
330
2
100
AcDbEntity
  8
LINE
100
AcDbLine
 10
0.0
 20
-31.00070000000005
 30
0.0
 11
1.003299999999967
 21
-32.00400000000036
 31
0.0
  0
LINE
  5
36
330
2
100
AcDbEntity
  8
KA
100
AcDbLine
 10
-2.031999999999982
 20
-17.99590000000034
 30
0.0
 11
0.0
 21
-17.45142724098059
 31
0.0
  0
ARC
  5
37
330
2
100
AcDbEntity
  8
KA
100
AcDbCircle
 10
-4.095533185943168
 20
-21.10000000000036
 30
0.0
 40
0.4
100
AcDbArc
 50
270.0
 51
329.9999999999998
  0
ARC
  5
38
330
2
100
AcDbEntity
  8
KA
100
AcDbCircle
 10
-13.58286681405672
 20
-21.10000000000036
 30
0.0
 40
0.4
100
AcDbArc
 50
210.0
 51
270.0
  0
LINE
  5
39
330
2
100
AcDbEntity
  8
KA
100
AcDbLine
 10
-1.841499999999996
 20
-17.99590000000034
 30
0.0
 11
-1.841499999999996
 21
-17.94485567884248
 31
0.0
  0
LINE
  5
3A
330
2
100
AcDbEntity
  8
KA
100
AcDbLine
 10
-1.841499999999996
 20
-17.99590000000034
 30
0.0
 11
-3.749123024429366
 21
-21.30000000000018
 31
0.0
  0
LINE
  5
3B
330
2
100
AcDbEntity
  8
KA
100
AcDbLine
 10
-15.83690000000001
 20
-17.99590000000034
 30
0.0
 11
-13.92927697557047
 21
-21.30000000000018
 31
0.0
  0
LINE
  5
3C
330
2
100
AcDbEntity
  8
KA
100
AcDbLine
 10
-13.58286681405672
 20
-21.49999999999999
 30
0.0
 11
-4.095533185943168
 21
-21.49999999999999
 31
0.0
  0
ARC
  5
3D
330
2
100
AcDbEntity
  8
KA
100
AcDbCircle
 10
-8.934450000000026
 20
-41.82122517417565
 30
0.0
 40
24.80503851352892
100
AcDbArc
 50
73.84313558935748
 51
106.1568644106427
  0
LINE
  5
3E
330
2
100
AcDbEntity
  8
LINE
 62
     3
100
AcDbLine
 10
119.9999999999993
 20
-30.50399999999854
 30
0.0
 11
118.4999999999994
 21
-32.00399999999854
 31
0.0
  0
LINE
  5
3F
330
2
100
AcDbEntity
  8
CTRL
100
AcDbLine
 10
-55.3944049750973
 20
0.0
 30
0.0
 11
137.7854984170175
 21
0.000000000001819
 31
0.0
  0
LINE
  5
42
330
2
100
AcDbEntity
  8
HIDDEN
100
AcDbLine
 10
-1.350975479668022
 20
7.9375
 30
0.0
 11
3.23174228202447
 21
0.0
 31
0.0
  0
LINE
  5
43
330
2
100
AcDbEntity
  8
LINE
 62
     3
100
AcDbLine
 10
1.003299999999853
 20
32.00400000000081
 30
0.0
 11
118.4999999999992
 21
32.00400000000263
 31
0.0
  0
LINE
  5
44
330
2
100
AcDbEntity
  8
HIDDEN
100
AcDbLine
 10
-37.75186034502297
 20
7.9375
 30
0.0
 11
-1.350975479668022
 21
7.9375
 31
0.0
  0
LINE
  5
45
330
2
100
AcDbEntity
  8
KA
100
AcDbLine
 10
-34.92499999999995
 20
17.99589999999989
 30
0.0
 11
-15.83690000000001
 21
17.99589999999989
 31
0.0
  0
LINE
  5
46
330
2
100
AcDbEntity
  8
HIDDEN
100
AcDbLine
 10
-37.75186034502297
 20
7.9375
 30
0.0
 11
-40.00499999999994
 21
9.238350786322826
 31
0.0
  0
LINE
  5
47
330
2
100
AcDbEntity
  8
KA
100
AcDbLine
 10
-37.75186034502297
 20
17.59861068752252
 30
0.0
 11
-37.75186034502297
 21
0.0
 31
0.0
  0
ARC
  5
48
330
2
100
AcDbEntity
  8
KA
100
AcDbCircle
 10
-39.01440000000002
 20
16.81534889117574
 30
0.0
 40
0.9905999999999998
100
AcDbArc
 50
79.99999999999968
 51
179.9999999999999
  0
LINE
  5
49
330
2
100
AcDbEntity
  8
KA
100
AcDbLine
 10
-34.92499999999995
 20
17.99589999999989
 30
0.0
 11
-37.75186034502297
 21
17.59861068752252
 31
0.0
  0
LINE
  5
4A
330
2
100
AcDbEntity
  8
KA
100
AcDbLine
 10
-38.84238411520306
 20
17.79089945130999
 30
0.0
 11
-37.75186034502297
 21
17.59861068752252
 31
0.0
  0
LINE
  5
4B
330
2
100
AcDbEntity
  8
KA
100
AcDbLine
 10
-34.92499999999995
 20
17.99589999999989
 30
0.0
 11
-34.92499999999995
 21
0.0
 31
0.0
  0
LINE
  5
4C
330
2
100
AcDbEntity
  8
KA
100
AcDbLine
 10
-40.00499999999994
 20
16.81534889117574
 30
0.0
 11
-40.00499999999994
 21
0.0
 31
0.0
  0
LINE
  5
4D
330
2
100
AcDbEntity
  8
KA
100
AcDbLine
 10
-2.032000000000039
 20
17.99589999999989
 30
0.0
 11
-2.032000000000039
 21
0.0
 31
0.0
  0
LINE
  5
4E
330
2
100
AcDbEntity
  8
KA
100
AcDbLine
 10
-2.031999999999982
 20
17.99589999999989
 30
0.0
 11
0.0
 21
17.45142724097968
 31
0.0
  0
LINE
  5
4F
330
2
100
AcDbEntity
  8
LINE
100
AcDbLine
 10
1.003299999999967
 20
32.0039999999999
 30
0.0
 11
1.003299999999967
 21
0.0
 31
0.0
  0
LINE
  5
50
330
2
100
AcDbEntity
  8
LINE
100
AcDbLine
 10
0.0
 20
31.00069999999959
 30
0.0
 11
1.003299999999967
 21
32.0039999999999
 31
0.0
  0
LINE
  5
51
330
2
100
AcDbEntity
  8
LINE
100
AcDbLine
 10
0.0
 20
31.00069999999959
 30
0.0
 11
0.0
 21
0.0
 31
0.0
  0
LINE
  5
52
330
2
100
AcDbEntity
  8
KA
100
AcDbLine
 10
-13.58286681405672
 20
21.49999999999999
 30
0.0
 11
-4.095533185943168
 21
21.49999999999999
 31
0.0
  0
LINE
  5
53
330
2
100
AcDbEntity
  8
KA
100
AcDbLine
 10
-15.83690000000001
 20
17.99589999999989
 30
0.0
 11
-13.92927697557058
 21
21.29999999999972
 31
0.0
  0
LINE
  5
54
330
2
100
AcDbEntity
  8
KA
100
AcDbLine
 10
-1.841499999999996
 20
17.99589999999989
 30
0.0
 11
-3.749123024429366
 21
21.29999999999972
 31
0.0
  0
LINE
  5
55
330
2
100
AcDbEntity
  8
KA
100
AcDbLine
 10
-1.841499999999996
 20
17.99589999999989
 30
0.0
 11
-1.841499999999996
 21
17.94485567884203
 31
0.0
  0
ARC
  5
56
330
2
100
AcDbEntity
  8
KA
100
AcDbCircle
 10
-13.58286681405672
 20
21.0999999999999
 30
0.0
 40
0.4
100
AcDbArc
 50
90.0
 51
149.9999999999998
  0
ARC
  5
57
330
2
100
AcDbEntity
  8
KA
100
AcDbCircle
 10
-4.095533185943168
 20
21.0999999999999
 30
0.0
 40
0.4
100
AcDbArc
 50
30.00000000000016
 51
90.0
  0
ARC
  5
58
330
2
100
AcDbEntity
  8
KA
100
AcDbCircle
 10
-8.934450000000026
 20
41.82122517417383
 30
0.0
 40
24.80503851352892
100
AcDbArc
 50
253.8431355893572
 51
286.1568644106425
  0
LINE
  5
59
330
2
100
AcDbEntity
  8
LINE
 62
     3
100
AcDbLine
 10
118.4999999999992
 20
32.00400000000263
 30
0.0
 11
119.9999999999991
 21
30.50400000000263
 31
0.0
  0
DIMENSION
  5
6E
330
2
100
AcDbEntity
  8
DIM
 62
     3
100
AcDbDimension
  2
*D0
 10
119.9999999999991
 20
56.50727300599147
 30
0.0
 11
39.99749999999957
 21
59.20727300599146
 31
0.0
 70
    32
 71
     5
 42
160.0049999999991
  3
STANDARD
100
AcDbAlignedDimension
 13
-40.00499999999999
 23
16.81534889117574
 33
0.0
 14
119.9999999999991
 24
30.50400000000263
 34
0.0
100
AcDbRotatedDimension
  0
DIMENSION
  5
7C
330
2
100
AcDbEntity
  8
DIM
 62
     3
100
AcDbDimension
  2
*D1
 10
119.9999999999991
 20
45.71077928643307
 30
0.0
 11
59.99999999999957
 21
48.41077928643308
 31
0.0
 70
    32
 71
     5
 42
119.9999999999991
  3
STANDARD
100
AcDbAlignedDimension
 13
0.0
 23
31.00069999999959
 33
0.0
 14
119.9999999999991
 24
30.50400000000263
 34
0.0
100
AcDbRotatedDimension
  0
DIMENSION
  5
89
330
2
100
AcDbEntity
  8
DIM
 62
     3
100
AcDbDimension
  2
*D2
 10
148.4258833823732
 20
-32.00399999999854
 30
0.0
 11
145.7258833823732
 21
0.000000000002066
 31
0.0
 70
    32
  1
%%c<>
 71
     5
 42
64.00800000000117
  3
STANDARD
100
AcDbAlignedDimension
 13
118.4999999999992
 23
32.00400000000263
 33
0.0
 14
118.4999999999994
 24
-32.00399999999854
 34
0.0
 50
90.0
100
AcDbRotatedDimension
  0
ENDSEC
  0
SECTION
  2
OBJECTS
  0
DICTIONARY
  5
1A
330
0
100
AcDbDictionary
281
     1
  3
ACAD_GROUP
350
18
  3
ACAD_LAYOUT
350
5D
  3
ACAD_MLINESTYLE
350
19
  3
ACAD_PLOTSETTINGS
350
5E
  3
ACAD_PLOTSTYLENAME
350
5B
  3
AcDbVariableDictionary
350
64
  0
DICTIONARY
  5
18
102
{ACAD_REACTORS
330
1A
102
}
330
1A
100
AcDbDictionary
281
     1
  0
DICTIONARY
  5
5D
102
{ACAD_REACTORS
330
1A
102
}
330
1A
100
AcDbDictionary
281
     1
  3
Layout1
350
60
  3
Model
350
5F
  0
DICTIONARY
  5
19
102
{ACAD_REACTORS
330
1A
102
}
330
1A
100
AcDbDictionary
281
     1
  3
STANDARD
350
1D
  0
DICTIONARY
  5
5E
102
{ACAD_REACTORS
330
1A
102
}
330
1A
100
AcDbDictionary
281
     1
  0
ACDBDICTIONARYWDFLT
  5
5B
102
{ACAD_REACTORS
330
1A
102
}
330
1A
100
AcDbDictionary
281
     1
  3
Normal
350
5C
100
AcDbDictionaryWithDefault
340
5C
  0
DICTIONARY
  5
64
102
{ACAD_REACTORS
330
1A
102
}
330
1A
100
AcDbDictionary
281
     1
  3
DIMASSOC
350
65
  0
LAYOUT
  5
60
102
{ACAD_REACTORS
330
5D
102
}
330
5D
100
AcDbPlotSettings
  1

  2
\\PRINT_SRV\HP LaserJet (Engineering)
  4

  6

 40
0.0
 41
0.0
 42
0.0
 43
0.0
 44
0.0
 45
0.0
 46
0.0
 47
0.0
 48
0.0
 49
0.0
140
0.0
141
0.0
142
1.0
143
1.0
 70
   688
 72
     0
 73
     0
 74
     5
  7
KPT.ctb
 75
    16
147
1.0
148
0.0
149
0.0
100
AcDbLayout
  1
Layout1
 70
     1
 71
     1
 10
0.0
 20
0.0
 11
12.0
 21
9.0
 12
0.0
 22
0.0
 32
0.0
 14
1.000000000000000E+20
 24
1.000000000000000E+20
 34
1.000000000000000E+20
 15
-1.000000000000000E+20
 25
-1.000000000000000E+20
 35
-1.000000000000000E+20
146
0.0
 13
0.0
 23
0.0
 33
0.0
 16
1.0
 26
0.0
 36
0.0
 17
0.0
 27
1.0
 37
0.0
 76
     0
330
7
  0
LAYOUT
  5
5F
102
{ACAD_REACTORS
330
5D
102
}
330
5D
100
AcDbPlotSettings
  1

  2
\\PRINT_SRV\HP LaserJet (Engineering)
  4

  6

 40
0.0
 41
0.0
 42
0.0
 43
0.0
 44
0.0
 45
0.0
 46
0.0
 47
0.0
 48
0.0
 49
0.0
140
0.0
141
0.0
142
1.0
143
1.0
 70
  1712
 72
     0
 73
     0
 74
     0
  7
KPT.ctb
 75
     0
147
1.0
148
0.0
149
0.0
100
AcDbLayout
  1
Model
 70
     1
 71
     0
 10
0.0
 20
0.0
 11
12.0
 21
9.0
 12
0.0
 22
0.0
 32
0.0
 14
0.0
 24
0.0
 34
0.0
 15
0.0
 25
0.0
 35
0.0
146
0.0
 13
0.0
 23
0.0
 33
0.0
 16
1.0
 26
0.0
 36
0.0
 17
0.0
 27
1.0
 37
0.0
 76
     0
330
2
  0
MLINESTYLE
  5
1D
102
{ACAD_REACTORS
330
19
102
}
330
19
100
AcDbMlineStyle
  2
STANDARD
 70
     0
  3

 62
   256
 51
90.0
 52
90.0
 71
     2
 49
0.5
 62
   256
  6
BYLAYER
 49
-0.5
 62
   256
  6
BYLAYER
  0
ACDBPLACEHOLDER
  5
5C
102
{ACAD_REACTORS
330
5B
102
}
330
5B
  0
DICTIONARYVAR
  5
65
102
{ACAD_REACTORS
330
64
102
}
330
64
100
DictionaryVariables
280
     0
  1
1
  0
ENDSEC
  0
EOF
