  0
SECTION
  2
HEADER
  9
$ACADVER
  1
AC1015
  9
$ACADMAINTVER
 70
    13
  9
$DWGCODEPAGE
  3
ANSI_1252
  9
$INSBASE
 10
426.0057316219733
 20
-2105.365044658293
 30
0.0
  9
$EXTMIN
 10
-49.53709325311549
 20
-38.099999999994
 30
0.0
  9
$EXTMAX
 10
180.8294269435277
 20
70.37241616237254
 30
0.0
  9
$LIMMIN
 10
0.0
 20
0.0
  9
$LIMMAX
 10
12.0
 20
9.0
  9
$ORTHOMODE
 70
     1
  9
$REGENMODE
 70
     1
  9
$FILLMODE
 70
     1
  9
$QTEXTMODE
 70
     0
  9
$MIRRTEXT
 70
     0
  9
$LTSCALE
 40
10.0
  9
$ATTMODE
 70
     1
  9
$TEXTSIZE
 40
5.0
  9
$TRACEWID
 40
0.05
  9
$TEXTSTYLE
  7
ROMANS
  9
$CLAYER
  8
DIM
  9
$CELTYPE
  6
BYLAYER
  9
$CECOLOR
 62
     3
  9
$CELTSCALE
 40
1.0
  9
$DISPSILH
 70
     0
  9
$DIMSCALE
 40
15.0
  9
$DIMASZ
 40
0.18
  9
$DIMEXO
 40
0.0625
  9
$DIMDLI
 40
0.38
  9
$DIMRND
 40
0.0
  9
$DIMDLE
 40
0.0
  9
$DIMEXE
 40
0.18
  9
$DIMTP
 40
0.0
  9
$DIMTM
 40
0.0
  9
$DIMTXT
 40
0.18
  9
$DIMCEN
 40
0.09
  9
$DIMTSZ
 40
0.0
  9
$DIMTOL
 70
     0
  9
$DIMLIM
 70
     0
  9
$DIMTIH
 70
     0
  9
$DIMTOH
 70
     0
  9
$DIMSE1
 70
     0
  9
$DIMSE2
 70
     0
  9
$DIMTAD
 70
     1
  9
$DIMZIN
 70
     0
  9
$DIMBLK
  1

  9
$DIMASO
 70
     1
  9
$DIMSHO
 70
     1
  9
$DIMPOST
  1

  9
$DIMAPOST
  1

  9
$DIMALT
 70
     0
  9
$DIMALTD
 70
     2
  9
$DIMALTF
 40
25.4
  9
$DIMLFAC
 40
1.0
  9
$DIMTOFL
 70
     0
  9
$DIMTVP
 40
0.0
  9
$DIMTIX
 70
     0
  9
$DIMSOXD
 70
     0
  9
$DIMSAH
 70
     0
  9
$DIMBLK1
  1

  9
$DIMBLK2
  1

  9
$DIMSTYLE
  2
STANDARD
  9
$DIMCLRD
 70
   256
  9
$DIMCLRE
 70
   256
  9
$DIMCLRT
 70
   256
  9
$DIMTFAC
 40
1.0
  9
$DIMGAP
 40
0.09
  9
$DIMJUST
 70
     0
  9
$DIMSD1
 70
     0
  9
$DIMSD2
 70
     0
  9
$DIMTOLJ
 70
     1
  9
$DIMTZIN
 70
     0
  9
$DIMALTZ
 70
     0
  9
$DIMALTTZ
 70
     0
  9
$DIMUPT
 70
     0
  9
$DIMDEC
 70
     1
  9
$DIMTDEC
 70
     1
  9
$DIMALTU
 70
     2
  9
$DIMALTTD
 70
     2
  9
$DIMTXSTY
  7
ROMANS
  9
$DIMAUNIT
 70
     0
  9
$DIMADEC
 70
     0
  9
$DIMALTRND
 40
0.0
  9
$DIMAZIN
 70
     0
  9
$DIMDSEP
 70
    46
  9
$DIMATFIT
 70
     3
  9
$DIMFRAC
 70
     0
  9
$DIMLDRBLK
  1

  9
$DIMLUNIT
 70
     2
  9
$DIMLWD
 70
    -1
  9
$DIMLWE
 70
    -1
  9
$DIMTMOVE
 70
     0
  9
$LUNITS
 70
     2
  9
$LUPREC
 70
     4
  9
$SKETCHINC
 40
0.1
  9
$FILLETRAD
 40
0.0
  9
$AUNITS
 70
     0
  9
$AUPREC
 70
     0
  9
$MENU
  1
acad
  9
$ELEVATION
 40
0.0
  9
$PELEVATION
 40
0.0
  9
$THICKNESS
 40
0.0
  9
$LIMCHECK
 70
     0
  9
$CHAMFERA
 40
1.5
  9
$CHAMFERB
 40
1.5
  9
$CHAMFERC
 40
0.0
  9
$CHAMFERD
 40
0.0
  9
$SKPOLY
 70
     0
  9
$TDCREATE
 40
2449974.566112731
  9
$TDUCREATE
 40
2449974.816112731
  9
$TDUPDATE
 40
2452660.526472430
  9
$TDUUPDATE
 40
2452660.776472430
  9
$TDINDWG
 40
0.9791219792
  9
$TDUSRTIMER
 40
0.9791218634
  9
$USRTIMER
 70
     1
  9
$ANGBASE
 50
0.0
  9
$ANGDIR
 70
     0
  9
$PDMODE
 70
     0
  9
$PDSIZE
 40
0.0
  9
$PLINEWID
 40
0.0
  9
$SPLFRAME
 70
     0
  9
$SPLINETYPE
 70
     6
  9
$SPLINESEGS
 70
     8
  9
$HANDSEED
  5
10C
  9
$SURFTAB1
 70
     6
  9
$SURFTAB2
 70
     6
  9
$SURFTYPE
 70
     6
  9
$SURFU
 70
     6
  9
$SURFV
 70
     6
  9
$UCSBASE
  2

  9
$UCSNAME
  2

  9
$UCSORG
 10
0.0
 20
0.0
 30
0.0
  9
$UCSXDIR
 10
1.0
 20
0.0
 30
0.0
  9
$UCSYDIR
 10
0.0
 20
1.0
 30
0.0
  9
$UCSORTHOREF
  2

  9
$UCSORTHOVIEW
 70
     0
  9
$UCSORGTOP
 10
0.0
 20
0.0
 30
0.0
  9
$UCSORGBOTTOM
 10
0.0
 20
0.0
 30
0.0
  9
$UCSORGLEFT
 10
0.0
 20
0.0
 30
0.0
  9
$UCSORGRIGHT
 10
0.0
 20
0.0
 30
0.0
  9
$UCSORGFRONT
 10
0.0
 20
0.0
 30
0.0
  9
$UCSORGBACK
 10
0.0
 20
0.0
 30
0.0
  9
$PUCSBASE
  2

  9
$PUCSNAME
  2

  9
$PUCSORG
 10
0.0
 20
0.0
 30
0.0
  9
$PUCSXDIR
 10
1.0
 20
0.0
 30
0.0
  9
$PUCSYDIR
 10
0.0
 20
1.0
 30
0.0
  9
$PUCSORTHOREF
  2

  9
$PUCSORTHOVIEW
 70
     0
  9
$PUCSORGTOP
 10
0.0
 20
0.0
 30
0.0
  9
$PUCSORGBOTTOM
 10
0.0
 20
0.0
 30
0.0
  9
$PUCSORGLEFT
 10
0.0
 20
0.0
 30
0.0
  9
$PUCSORGRIGHT
 10
0.0
 20
0.0
 30
0.0
  9
$PUCSORGFRONT
 10
0.0
 20
0.0
 30
0.0
  9
$PUCSORGBACK
 10
0.0
 20
0.0
 30
0.0
  9
$USERI1
 70
     0
  9
$USERI2
 70
     0
  9
$USERI3
 70
     0
  9
$USERI4
 70
     0
  9
$USERI5
 70
     0
  9
$USERR1
 40
0.0
  9
$USERR2
 40
0.0
  9
$USERR3
 40
0.0
  9
$USERR4
 40
0.0
  9
$USERR5
 40
0.0
  9
$WORLDVIEW
 70
     1
  9
$SHADEDGE
 70
     3
  9
$SHADEDIF
 70
    70
  9
$TILEMODE
 70
     1
  9
$MAXACTVP
 70
    16
  9
$PINSBASE
 10
0.0
 20
0.0
 30
0.0
  9
$PLIMCHECK
 70
     0
  9
$PEXTMIN
 10
1.000000000000000E+20
 20
1.000000000000000E+20
 30
1.000000000000000E+20
  9
$PEXTMAX
 10
-1.000000000000000E+20
 20
-1.000000000000000E+20
 30
-1.000000000000000E+20
  9
$PLIMMIN
 10
0.0
 20
0.0
  9
$PLIMMAX
 10
12.0
 20
9.0
  9
$UNITMODE
 70
     0
  9
$VISRETAIN
 70
     0
  9
$PLINEGEN
 70
     0
  9
$PSLTSCALE
 70
     1
  9
$TREEDEPTH
 70
  3020
  9
$CMLSTYLE
  2
STANDARD
  9
$CMLJUST
 70
     0
  9
$CMLSCALE
 40
1.0
  9
$PROXYGRAPHICS
 70
     1
  9
$MEASUREMENT
 70
     0
  9
$CELWEIGHT
370
    -1
  9
$ENDCAPS
280
     0
  9
$JOINSTYLE
280
     0
  9
$LWDISPLAY
290
     0
  9
$INSUNITS
 70
     0
  9
$HYPERLINKBASE
  1

  9
$STYLESHEET
  1

  9
$XEDIT
290
     1
  9
$CEPSNTYPE
380
     0
  9
$PSTYLEMODE
290
     1
  9
$FINGERPRINTGUID
  2
{E12AB373-FDC5-4D46-ABB0-B0FAF2046D0A}
  9
$VERSIONGUID
  2
{5CD01974-DC9E-4EB2-96A9-498B4D000180}
  9
$EXTNAMES
290
     1
  9
$PSVPSCALE
 40
0.0
  9
$OLESTARTUP
290
     0
  0
ENDSEC
  0
SECTION
  2
CLASSES
  0
CLASS
  1
DICTIONARYVAR
  2
AcDbDictionaryVar
  3
AutoCAD 2000
 90
        0
280
     0
281
     0
  0
CLASS
  1
LWPOLYLINE
  2
AcDbPolyline
  3
AutoCAD 2000
 90
    32768
280
     0
281
     1
  0
CLASS
  1
OLE2FRAME
  2
AcDbOle2Frame
  3
AutoCAD 2000
 90
    32768
280
     0
281
     1
  0
CLASS
  1
ACDBDICTIONARYWDFLT
  2
AcDbDictionaryWithDefault
  3
AutoCAD 2000
 90
        0
280
     0
281
     0
  0
CLASS
  1
ACDBPLACEHOLDER
  2
AcDbPlaceHolder
  3
AutoCAD 2000
 90
        0
280
     0
281
     0
  0
CLASS
  1
LAYOUT
  2
AcDbLayout
  3
AutoCAD 2000
 90
        0
280
     0
281
     0
  0
ENDSEC
  0
SECTION
  2
TABLES
  0
TABLE
  2
VPORT
  5
12
330
0
100
AcDbSymbolTable
 70
     2
  0
VPORT
  5
10B
330
12
100
AcDbSymbolTableRecord
100
AcDbViewportTableRecord
  2
*Active
 70
     0
 10
0.0
 20
0.0
 11
1.0
 21
1.0
 12
65.64616684520609
 22
16.13620808118927
 13
0.0
 23
0.0
 14
1.0
 24
1.0
 15
0.0
 25
0.0
 16
0.0
 26
0.0
 36
1.0
 17
0.0
 27
0.0
 37
0.0
 40
154.4695165084876
 41
1.498756218905472
 42
50.0
 43
0.0
 44
0.0
 50
0.0
 51
0.0
 71
     0
 72
 10000
 73
     1
 74
     1
 75
     0
 76
     0
 77
     0
 78
     0
281
     0
 65
     1
110
0.0
120
0.0
130
0.0
111
1.0
121
0.0
131
0.0
112
0.0
122
1.0
132
0.0
 79
     0
146
0.0
  0
ENDTAB
  0
TABLE
  2
LTYPE
  5
D
330
0
100
AcDbSymbolTable
 70
     3
  0
LTYPE
  5
E
330
D
100
AcDbSymbolTableRecord
100
AcDbLinetypeTableRecord
  2
BYBLOCK
 70
     0
  3

 72
    65
 73
     0
 40
0.0
  0
LTYPE
  5
F
330
D
100
AcDbSymbolTableRecord
100
AcDbLinetypeTableRecord
  2
BYLAYER
 70
     0
  3

 72
    65
 73
     0
 40
0.0
  0
LTYPE
  5
5
330
D
100
AcDbSymbolTableRecord
100
AcDbLinetypeTableRecord
  2
CONTINUOUS
 70
     0
  3
Solid line
 72
    65
 73
     0
 40
0.0
  0
LTYPE
  5
26
330
D
100
AcDbSymbolTableRecord
100
AcDbLinetypeTableRecord
  2
HIDDEN
 70
     0
  3
_ _ _ _ _ _ _ _ _ _ _ _ _ _ _ _ _ _ _ _ _ _ _
 72
    65
 73
     2
 40
0.375
 49
0.25
 74
     0
 49
-0.125
 74
     0
  0
LTYPE
  5
21
330
D
100
AcDbSymbolTableRecord
100
AcDbLinetypeTableRecord
  2
CENTER
 70
     0
  3
____ _ ____ _ ____ _ ____ _ ____ _ ____ _ ____
 72
    65
 73
     4
 40
2.0
 49
1.25
 74
     0
 49
-0.25
 74
     0
 49
0.25
 74
     0
 49
-0.25
 74
     0
  0
ENDTAB
  0
TABLE
  2
LAYER
  5
A
330
0
100
AcDbSymbolTable
 70
     7
  0
LAYER
  5
4
330
A
100
AcDbSymbolTableRecord
100
AcDbLayerTableRecord
  2
0
 70
     0
 62
     7
  6
CONTINUOUS
370
    -3
390
69
  0
LAYER
  5
1B
330
A
100
AcDbSymbolTableRecord
100
AcDbLayerTableRecord
  2
LINE
 70
     0
 62
     3
  6
CONTINUOUS
370
    -3
390
69
  0
LAYER
  5
25
330
A
100
AcDbSymbolTableRecord
100
AcDbLayerTableRecord
  2
HIDDEN
 70
     0
 62
     2
  6
HIDDEN
370
    -3
390
69
  0
LAYER
  5
20
330
A
100
AcDbSymbolTableRecord
100
AcDbLayerTableRecord
  2
CTRL
 70
     0
 62
     1
  6
CENTER
370
    -3
390
69
  0
LAYER
  5
7C
330
A
100
AcDbSymbolTableRecord
100
AcDbLayerTableRecord
  2
DIM
 70
     0
 62
     7
  6
CONTINUOUS
370
    -3
390
69
  0
LAYER
  5
7D
330
A
100
AcDbSymbolTableRecord
100
AcDbLayerTableRecord
  2
KA
 70
     0
 62
     3
  6
CONTINUOUS
370
    -3
390
69
  0
LAYER
  5
7F
330
A
100
AcDbSymbolTableRecord
100
AcDbLayerTableRecord
  2
Defpoints
 70
     0
 62
     7
  6
CONTINUOUS
290
     0
370
    -3
390
69
  0
ENDTAB
  0
TABLE
  2
STYLE
  5
B
330
0
100
AcDbSymbolTable
 70
     2
  0
STYLE
  5
C
330
B
100
AcDbSymbolTableRecord
100
AcDbTextStyleTableRecord
  2
STANDARD
 70
     0
 40
0.0
 41
1.0
 50
0.0
 71
     0
 42
0.2
  3
txt
  4

  0
STYLE
  5
1C
330
B
100
AcDbSymbolTableRecord
100
AcDbTextStyleTableRecord
  2
ROMANS
 70
     0
 40
0.0
 41
1.0
 50
0.0
 71
     0
 42
5.0
  3
romans
  4

  0
ENDTAB
  0
TABLE
  2
VIEW
  5
10
330
0
100
AcDbSymbolTable
 70
     0
  0
ENDTAB
  0
TABLE
  2
UCS
  5
11
330
0
100
AcDbSymbolTable
 70
     0
  0
ENDTAB
  0
TABLE
  2
APPID
  5
14
330
0
100
AcDbSymbolTable
 70
     1
  0
APPID
  5
15
330
14
100
AcDbSymbolTableRecord
100
AcDbRegAppTableRecord
  2
ACAD
 70
     0
  0
ENDTAB
  0
TABLE
  2
DIMSTYLE
  5
16
330
0
100
AcDbSymbolTable
 70
     1
100
AcDbDimStyleTable
 71
     1
340
1E
  0
DIMSTYLE
105
1E
102
{ACAD_REACTORS
330
7E
330
8C
330
99
330
B1
330
BE
102
}
330
16
100
AcDbSymbolTableRecord
100
AcDbDimStyleTableRecord
  2
STANDARD
 70
     0
 40
15.0
 73
     0
 74
     0
 77
     1
176
   256
177
   256
178
   256
271
     1
272
     1
340
1C
371
    -1
372
    -1
  0
ENDTAB
  0
TABLE
  2
BLOCK_RECORD
  5
1
330
0
100
AcDbSymbolTable
 70
     5
  0
BLOCK_RECORD
  5
2
330
1
100
AcDbSymbolTableRecord
100
AcDbBlockTableRecord
  2
*MODEL_SPACE
340
6C
  0
BLOCK_RECORD
  5
7
330
1
100
AcDbSymbolTableRecord
100
AcDbBlockTableRecord
  2
*PAPER_SPACE
340
6D
  0
BLOCK_RECORD
  5
80
330
1
100
AcDbSymbolTableRecord
100
AcDbBlockTableRecord
  2
*D0
340
0
  0
BLOCK_RECORD
  5
8D
330
1
100
AcDbSymbolTableRecord
100
AcDbBlockTableRecord
  2
*D1
340
0
  0
BLOCK_RECORD
  5
9A
330
1
100
AcDbSymbolTableRecord
100
AcDbBlockTableRecord
  2
*D2
340
0
  0
BLOCK_RECORD
  5
B2
330
1
100
AcDbSymbolTableRecord
100
AcDbBlockTableRecord
  2
*D3
340
0
  0
BLOCK_RECORD
  5
BF
330
1
100
AcDbSymbolTableRecord
100
AcDbBlockTableRecord
  2
*D4
340
0
  0
ENDTAB
  0
ENDSEC
  0
SECTION
  2
BLOCKS
  0
BLOCK
  5
3
330
2
100
AcDbEntity
  8
0
100
AcDbBlockBegin
  2
*MODEL_SPACE
 70
     0
 10
0.0
 20
0.0
 30
0.0
  3
*MODEL_SPACE
  1

  0
ENDBLK
  5
6
330
2
100
AcDbEntity
  8
0
100
AcDbBlockEnd
  0
BLOCK
  5
8
330
7
100
AcDbEntity
 67
     1
  8
0
100
AcDbBlockBegin
  2
*PAPER_SPACE
 70
     0
 10
0.0
 20
0.0
 30
0.0
  3
*PAPER_SPACE
  1

  0
ENDBLK
  5
9
330
7
100
AcDbEntity
 67
     1
  8
0
100
AcDbBlockEnd
  0
BLOCK
  5
8A
330
80
100
AcDbEntity
  8
0
 62
     3
100
AcDbBlockBegin
  2
*D0
 70
     1
 10
0.0
 20
0.0
 30
0.0
  3
*D0
  1

  0
LINE
  5
102
330
80
100
AcDbEntity
  8
DIM
100
AcDbLine
 10
-29.99740000000022
 20
13.99451322119102
 30
0.0
 11
-29.99740000000022
 21
69.02241616237252
 31
0.0
  0
LINE
  5
103
330
80
100
AcDbEntity
  8
DIM
100
AcDbLine
 10
152.4770162763112
 20
37.537500000009
 30
0.0
 11
152.4770162763112
 21
69.02241616237252
 31
0.0
  0
LINE
  5
104
330
80
100
AcDbEntity
  8
DIM
100
AcDbLine
 10
-27.29740000000022
 20
66.32241616237251
 30
0.0
 11
149.7770162763112
 21
66.32241616237251
 31
0.0
  0
SOLID
  5
105
330
80
100
AcDbEntity
  8
DIM
100
AcDbTrace
 10
-27.29740000000022
 20
66.77241616237252
 30
0.0
 11
-27.29740000000022
 21
65.87241616237252
 31
0.0
 12
-29.99740000000022
 22
66.32241616237251
 32
0.0
 13
-29.99740000000022
 23
66.32241616237251
 33
0.0
  0
SOLID
  5
106
330
80
100
AcDbEntity
  8
DIM
100
AcDbTrace
 10
149.7770162763112
 20
66.77241616237252
 30
0.0
 11
149.7770162763112
 21
65.87241616237252
 31
0.0
 12
152.4770162763112
 22
66.32241616237251
 32
0.0
 13
152.4770162763112
 23
66.32241616237251
 33
0.0
  0
MTEXT
  5
107
330
80
100
AcDbEntity
  8
DIM
100
AcDbMText
 10
61.23980813815552
 20
69.02241616237252
 30
0.0
 40
2.699999999999999
 41
0.0
 71
     5
 72
     1
  1
\A1;182.5
  7
ROMANS
 73
     1
 44
1.0
  0
POINT
  5
108
330
80
100
AcDbEntity
  8
Defpoints
 62
     0
100
AcDbPoint
 10
-29.99740000000022
 20
13.05701322119102
 30
0.0
  0
POINT
  5
109
330
80
100
AcDbEntity
  8
Defpoints
 62
     0
100
AcDbPoint
 10
152.4770162763112
 20
36.600000000009
 30
0.0
  0
POINT
  5
10A
330
80
100
AcDbEntity
  8
Defpoints
 62
     0
100
AcDbPoint
 10
152.4770162763112
 20
66.32241616237251
 30
0.0
  0
ENDBLK
  5
8B
330
80
100
AcDbEntity
  8
0
 62
     3
100
AcDbBlockEnd
  0
BLOCK
  5
97
330
8D
100
AcDbEntity
  8
0
 62
     3
100
AcDbBlockBegin
  2
*D1
 70
     1
 10
0.0
 20
0.0
 30
0.0
  3
*D1
  1

  0
LINE
  5
F9
330
8D
100
AcDbEntity
  8
DIM
100
AcDbLine
 10
0.0000000000000001
 20
24.94050000000106
 30
0.0
 11
0.0000000000000021
 21
57.72926093048154
 31
0.0
  0
LINE
  5
FA
330
8D
100
AcDbEntity
  8
DIM
100
AcDbLine
 10
152.4770162763112
 20
37.537500000009
 30
0.0
 11
152.4770162763112
 21
57.72926093048154
 31
0.0
  0
LINE
  5
FB
330
8D
100
AcDbEntity
  8
DIM
100
AcDbLine
 10
2.700000000000001
 20
55.02926093048154
 30
0.0
 11
149.7770162763112
 21
55.02926093048154
 31
0.0
  0
SOLID
  5
FC
330
8D
100
AcDbEntity
  8
DIM
100
AcDbTrace
 10
2.700000000000001
 20
55.47926093048154
 30
0.0
 11
2.700000000000001
 21
54.57926093048154
 31
0.0
 12
0.0000000000000019
 22
55.02926093048154
 32
0.0
 13
0.0000000000000019
 23
55.02926093048154
 33
0.0
  0
SOLID
  5
FD
330
8D
100
AcDbEntity
  8
DIM
100
AcDbTrace
 10
149.7770162763112
 20
55.47926093048154
 30
0.0
 11
149.7770162763112
 21
54.57926093048154
 31
0.0
 12
152.4770162763112
 22
55.02926093048154
 32
0.0
 13
152.4770162763112
 23
55.02926093048154
 33
0.0
  0
MTEXT
  5
FE
330
8D
100
AcDbEntity
  8
DIM
100
AcDbMText
 10
76.23850813815562
 20
57.72926093048154
 30
0.0
 40
2.699999999999999
 41
0.0
 71
     5
 72
     1
  1
\A1;152.5
  7
ROMANS
 73
     1
 44
1.0
  0
POINT
  5
FF
330
8D
100
AcDbEntity
  8
Defpoints
 62
     0
100
AcDbPoint
 10
0.0
 20
24.00300000000106
 30
0.0
  0
POINT
  5
100
330
8D
100
AcDbEntity
  8
Defpoints
 62
     0
100
AcDbPoint
 10
152.4770162763112
 20
36.600000000009
 30
0.0
  0
POINT
  5
101
330
8D
100
AcDbEntity
  8
Defpoints
 62
     0
100
AcDbPoint
 10
152.4770162763112
 20
55.02926093048154
 30
0.0
  0
ENDBLK
  5
98
330
8D
100
AcDbEntity
  8
0
 62
     3
100
AcDbBlockEnd
  0
BLOCK
  5
A5
330
9A
100
AcDbEntity
  8
0
 62
     3
100
AcDbBlockBegin
  2
*D2
 70
     1
 10
0.0
 20
0.0
 30
0.0
  3
*D2
  1

  0
LINE
  5
EF
330
9A
100
AcDbEntity
  8
DIM
100
AcDbLine
 10
0.0000000000000001
 20
24.94050000000106
 30
0.0
 11
0.0000000000000015
 21
48.48940661485695
 31
0.0
  0
LINE
  5
F0
330
9A
100
AcDbEntity
  8
DIM
100
AcDbLine
 10
4.999999999999261
 20
25.94380000000319
 30
0.0
 11
4.999999999999262
 21
48.48940661485695
 31
0.0
  0
LINE
  5
F1
330
9A
100
AcDbEntity
  8
DIM
100
AcDbLine
 10
-2.699999999999998
 20
45.78940661485694
 30
0.0
 11
-5.399999999999997
 21
45.78940661485694
 31
0.0
  0
LINE
  5
F2
330
9A
100
AcDbEntity
  8
DIM
100
AcDbLine
 10
7.699999999999262
 20
45.78940661485694
 30
0.0
 11
18.75714285714212
 21
45.78940661485694
 31
0.0
  0
SOLID
  5
F3
330
9A
100
AcDbEntity
  8
DIM
100
AcDbTrace
 10
-2.699999999999998
 20
46.23940661485694
 30
0.0
 11
-2.699999999999998
 21
45.33940661485694
 31
0.0
 12
0.0000000000000013
 22
45.78940661485694
 32
0.0
 13
0.0000000000000013
 23
45.78940661485694
 33
0.0
  0
SOLID
  5
F4
330
9A
100
AcDbEntity
  8
DIM
100
AcDbTrace
 10
7.699999999999262
 20
46.23940661485694
 30
0.0
 11
7.699999999999262
 21
45.33940661485694
 31
0.0
 12
4.999999999999261
 22
45.78940661485694
 32
0.0
 13
4.999999999999261
 23
45.78940661485694
 33
0.0
  0
MTEXT
  5
F5
330
9A
100
AcDbEntity
  8
DIM
100
AcDbMText
 10
14.57857142857069
 20
48.48940661485695
 30
0.0
 40
2.699999999999999
 41
0.0
 71
     5
 72
     1
  1
\A1;5.0
  7
ROMANS
 73
     1
 44
1.0
  0
POINT
  5
F6
330
9A
100
AcDbEntity
  8
Defpoints
 62
     0
100
AcDbPoint
 10
0.0
 20
24.00300000000106
 30
0.0
  0
POINT
  5
F7
330
9A
100
AcDbEntity
  8
Defpoints
 62
     0
100
AcDbPoint
 10
4.999999999999261
 20
25.00630000000319
 30
0.0
  0
POINT
  5
F8
330
9A
100
AcDbEntity
  8
Defpoints
 62
     0
100
AcDbPoint
 10
4.999999999999261
 20
45.78940661485694
 30
0.0
  0
ENDBLK
  5
A6
330
9A
100
AcDbEntity
  8
0
 62
     3
100
AcDbBlockEnd
  0
BLOCK
  5
BC
330
B2
100
AcDbEntity
  8
0
 62
     3
100
AcDbBlockBegin
  2
*D3
 70
     1
 10
0.0
 20
0.0
 30
0.0
  3
*D3
  1

  0
LINE
  5
E6
330
B2
100
AcDbEntity
  8
DIM
100
AcDbLine
 10
151.9145162763112
 20
38.100000000009
 30
0.0
 11
180.8294269435277
 21
38.10000000000899
 31
0.0
  0
LINE
  5
E7
330
B2
100
AcDbEntity
  8
DIM
100
AcDbLine
 10
151.914516276311
 20
-38.09999999999081
 30
0.0
 11
180.8294269435277
 21
-38.09999999999082
 31
0.0
  0
LINE
  5
E8
330
B2
100
AcDbEntity
  8
DIM
100
AcDbLine
 10
178.1294269435277
 20
35.40000000000899
 30
0.0
 11
178.1294269435277
 21
-35.39999999999082
 31
0.0
  0
SOLID
  5
E9
330
B2
100
AcDbEntity
  8
DIM
100
AcDbTrace
 10
177.6794269435277
 20
35.40000000000899
 30
0.0
 11
178.5794269435277
 21
35.40000000000899
 31
0.0
 12
178.1294269435277
 22
38.10000000000899
 32
0.0
 13
178.1294269435277
 23
38.10000000000899
 33
0.0
  0
SOLID
  5
EA
330
B2
100
AcDbEntity
  8
DIM
100
AcDbTrace
 10
177.6794269435277
 20
-35.39999999999082
 30
0.0
 11
178.5794269435277
 21
-35.39999999999082
 31
0.0
 12
178.1294269435277
 22
-38.09999999999082
 32
0.0
 13
178.1294269435277
 23
-38.09999999999082
 33
0.0
  0
MTEXT
  5
EB
330
B2
100
AcDbEntity
  8
DIM
100
AcDbMText
 10
175.4294269435277
 20
0.0000000000091199
 30
0.0
 40
2.699999999999999
 41
0.0
 71
     5
 72
     1
  1
\A1;%%c76.2
  7
ROMANS
 11
0.0000000000000001
 21
1.0
 31
0.0
 73
     1
 44
1.0
  0
POINT
  5
EC
330
B2
100
AcDbEntity
  8
Defpoints
 62
     0
100
AcDbPoint
 10
150.9770162763112
 20
38.100000000009
 30
0.0
  0
POINT
  5
ED
330
B2
100
AcDbEntity
  8
Defpoints
 62
     0
100
AcDbPoint
 10
150.977016276311
 20
-38.09999999999081
 30
0.0
  0
POINT
  5
EE
330
B2
100
AcDbEntity
  8
Defpoints
 62
     0
100
AcDbPoint
 10
178.1294269435277
 20
-38.09999999999082
 30
0.0
  0
ENDBLK
  5
BD
330
B2
100
AcDbEntity
  8
0
 62
     3
100
AcDbBlockEnd
  0
BLOCK
  5
C9
330
BF
100
AcDbEntity
  8
0
 62
     3
100
AcDbBlockBegin
  2
*D4
 70
     1
 10
0.0
 20
0.0
 30
0.0
  3
*D4
  1

  0
LINE
  5
DD
330
BF
100
AcDbEntity
  8
DIM
100
AcDbLine
 10
0.0657999999999106
 20
25.00630000000001
 30
0.0
 11
-48.18709325311548
 21
25.00630000000002
 31
0.0
  0
LINE
  5
DE
330
BF
100
AcDbEntity
  8
DIM
100
AcDbLine
 10
0.0657999999999106
 20
-25.00630000000001
 30
0.0
 11
-48.18709325311549
 21
-25.00629999999999
 31
0.0
  0
LINE
  5
DF
330
BF
100
AcDbEntity
  8
DIM
100
AcDbLine
 10
-45.48709325311548
 20
22.30630000000002
 30
0.0
 11
-45.48709325311548
 21
-22.30629999999999
 31
0.0
  0
SOLID
  5
E0
330
BF
100
AcDbEntity
  8
DIM
100
AcDbTrace
 10
-45.93709325311547
 20
22.30630000000002
 30
0.0
 11
-45.03709325311547
 21
22.30630000000002
 31
0.0
 12
-45.48709325311548
 22
25.00630000000002
 32
0.0
 13
-45.48709325311548
 23
25.00630000000002
 33
0.0
  0
SOLID
  5
E1
330
BF
100
AcDbEntity
  8
DIM
100
AcDbTrace
 10
-45.93709325311549
 20
-22.30629999999999
 30
0.0
 11
-45.03709325311548
 21
-22.30629999999999
 31
0.0
 12
-45.48709325311548
 22
-25.00629999999999
 32
0.0
 13
-45.48709325311548
 23
-25.00629999999999
 33
0.0
  0
MTEXT
  5
E2
330
BF
100
AcDbEntity
  8
DIM
100
AcDbMText
 10
-48.18709325311548
 20
0.0000000000000067
 30
0.0
 40
2.699999999999999
 41
0.0
 71
     5
 72
     1
  1
\A1;%%c50.0
  7
ROMANS
 11
0.0000000000000001
 21
1.0
 31
0.0
 73
     1
 44
1.0
  0
POINT
  5
E3
330
BF
100
AcDbEntity
  8
Defpoints
 62
     0
100
AcDbPoint
 10
1.00329999999991
 20
25.00630000000001
 30
0.0
  0
POINT
  5
E4
330
BF
100
AcDbEntity
  8
Defpoints
 62
     0
100
AcDbPoint
 10
1.00329999999991
 20
-25.00630000000001
 30
0.0
  0
POINT
  5
E5
330
BF
100
AcDbEntity
  8
Defpoints
 62
     0
100
AcDbPoint
 10
-45.48709325311548
 20
-25.00629999999999
 30
0.0
  0
ENDBLK
  5
CA
330
BF
100
AcDbEntity
  8
0
 62
     3
100
AcDbBlockEnd
  0
ENDSEC
  0
SECTION
  2
ENTITIES
  0
LINE
  5
1F
330
2
100
AcDbEntity
  8
CTRL
100
AcDbLine
 10
164.0559824889955
 20
0.0000000000009095
 30
0.0
 11
-31.79313378483124
 21
0.0
 31
0.0
  0
LINE
  5
22
330
2
100
AcDbEntity
  8
LINE
 62
     3
100
AcDbLine
 10
8.105828541230152
 20
-38.099999999994
 30
0.0
 11
150.977016276311
 21
-38.09999999999081
 31
0.0
  0
LINE
  5
23
330
2
100
AcDbEntity
  8
LINE
 62
     3
100
AcDbLine
 10
8.105828541230152
 20
38.10000000000673
 30
0.0
 11
150.9770162763112
 21
38.100000000009
 31
0.0
  0
LINE
  5
24
330
2
100
AcDbEntity
  8
HIDDEN
100
AcDbLine
 10
-0.5080000000002088
 20
-6.743699999999989
 30
0.0
 11
3.385477010334
 21
0.0
 31
0.0
  0
LINE
  5
27
330
2
100
AcDbEntity
  8
LINE
100
AcDbLine
 10
1.00329999999991
 20
-25.00630000000001
 30
0.0
 11
4.71579682063799
 21
-25.00630000000001
 31
0.0
  0
LINE
  5
28
330
2
100
AcDbEntity
  8
LINE
100
AcDbLine
 10
1.00329999999991
 20
25.00630000000001
 30
0.0
 11
4.71579682063799
 21
25.00630000000001
 31
0.0
  0
LINE
  5
29
330
2
100
AcDbEntity
  8
HIDDEN
100
AcDbLine
 10
-0.5080000000002088
 20
6.743699999999989
 30
0.0
 11
3.385477010334
 21
0.0
 31
0.0
  0
LINE
  5
2A
330
2
100
AcDbEntity
  8
KA
100
AcDbLine
 10
-25.50159999999999
 20
-13.99539999999888
 30
0.0
 11
-12.83969999999999
 21
-13.99539999999888
 31
0.0
  0
LINE
  5
2B
330
2
100
AcDbEntity
  8
HIDDEN
100
AcDbLine
 10
-29.55745909487763
 20
-6.743699999999989
 30
0.0
 11
-0.5080000000002088
 21
-6.743699999999989
 31
0.0
  0
LWPOLYLINE
  5
2C
330
2
100
AcDbEntity
  8
KA
100
AcDbPolyline
 90
       16
 70
     1
 43
0.0
 10
-7.777227548891005
 20
0.0
 42
0.1099242059137625
 10
-8.126986371299096
 20
1.571685544137835
 42
0.1025149667635409
 10
-9.159558315519404
 20
2.952028993107887
 42
0.0935248479519141
 10
-10.66501207524385
 20
3.849779552836025
 42
0.0880290951703918
 10
-12.49679999999989
 20
4.174799438572335
 42
0.088029095170384
 10
-14.32858792475599
 20
3.849779552836025
 42
0.0935248479519163
 10
-15.83404168448083
 20
2.952028993107887
 42
0.1025149667635381
 10
-16.86661362870109
 20
1.571685544137835
 42
0.109924205913759
 10
-17.21637245110923
 20
0.0
 42
0.1099242059137625
 10
-16.86661362870109
 20
-1.571685544136926
 42
0.1025149667635408
 10
-15.83404168448083
 20
-2.952028993107887
 42
0.0935248479519104
 10
-14.32858792475599
 20
-3.849779552835116
 42
0.0880290951703821
 10
-12.49679999999989
 20
-4.174799438570971
 42
0.0880290951703709
 10
-10.66501207524419
 20
-3.849779552835116
 42
0.0935248479519015
 10
-9.159558315519404
 20
-2.952028993107887
 42
0.1025149667635463
 10
-8.126986371299096
 20
-1.571685544136926
 42
0.1099242059137621
  0
CIRCLE
  5
2D
330
2
100
AcDbEntity
  8
KA
100
AcDbCircle
 10
-12.49679999999989
 20
0.0
 30
0.0
 40
4.000499999999998
  0
LINE
  5
2E
330
2
100
AcDbEntity
  8
HIDDEN
100
AcDbLine
 10
-29.55745909487763
 20
6.743699999999989
 30
0.0
 11
-0.5080000000002088
 21
6.743699999999989
 31
0.0
  0
LINE
  5
2F
330
2
100
AcDbEntity
  8
KA
100
AcDbLine
 10
-25.50159999999999
 20
13.99540000000024
 30
0.0
 11
-12.83969999999999
 21
13.99540000000024
 31
0.0
  0
LINE
  5
30
330
2
100
AcDbEntity
  8
KA
100
AcDbLine
 10
-29.99740000000011
 20
-13.05701322119102
 30
0.0
 11
-29.99740000000022
 21
0.0
 31
0.0
  0
LINE
  5
31
330
2
100
AcDbEntity
  8
KA
100
AcDbLine
 10
-25.50159999999999
 20
-13.99539999999888
 30
0.0
 11
-25.50159999999999
 21
0.0
 31
0.0
  0
LINE
  5
32
330
2
100
AcDbEntity
  8
KA
100
AcDbLine
 10
-25.50159999999999
 20
-13.99539999999888
 30
0.0
 11
-28.00337140534512
 21
-13.64379895845786
 31
0.0
  0
LINE
  5
33
330
2
100
AcDbEntity
  8
KA
100
AcDbLine
 10
-29.07326942490493
 20
-13.83245084591317
 30
0.0
 11
-28.00337140534512
 21
-13.64379895845786
 31
0.0
  0
LINE
  5
34
330
2
100
AcDbEntity
  8
KA
100
AcDbLine
 10
-28.00337140534512
 20
-13.64379895845786
 30
0.0
 11
-28.00337140534523
 21
0.0
 31
0.0
  0
ARC
  5
35
330
2
100
AcDbEntity
  8
KA
100
AcDbCircle
 10
-29.21000000000001
 20
-13.05701322119102
 30
0.0
 40
0.7874
100
AcDbArc
 50
180.0
 51
279.9999999999993
  0
LINE
  5
36
330
2
100
AcDbEntity
  8
HIDDEN
100
AcDbLine
 10
-29.99740000000011
 20
-6.997699999999895
 30
0.0
 11
-29.55745909487763
 21
-6.743699999999989
 31
0.0
  0
LINE
  5
37
330
2
100
AcDbEntity
  8
HIDDEN
100
AcDbLine
 10
-29.55745909487763
 20
-6.743699999999989
 30
0.0
 11
-29.55745909487763
 21
0.0
 31
0.0
  0
LINE
  5
38
330
2
100
AcDbEntity
  8
HIDDEN
100
AcDbLine
 10
-29.55745909487763
 20
6.743699999999989
 30
0.0
 11
-29.55745909487763
 21
0.0
 31
0.0
  0
LINE
  5
39
330
2
100
AcDbEntity
  8
HIDDEN
100
AcDbLine
 10
-29.99740000000022
 20
6.997700000000349
 30
0.0
 11
-29.55745909487763
 21
6.743699999999989
 31
0.0
  0
ARC
  5
3A
330
2
100
AcDbEntity
  8
KA
100
AcDbCircle
 10
-29.21000000000001
 20
13.05701322119102
 30
0.0
 40
0.7874
100
AcDbArc
 50
80.00000000000055
 51
179.9999999999999
  0
LINE
  5
3B
330
2
100
AcDbEntity
  8
KA
100
AcDbLine
 10
-28.00337140534523
 20
13.64379895845877
 30
0.0
 11
-28.00337140534523
 21
0.0
 31
0.0
  0
LINE
  5
3C
330
2
100
AcDbEntity
  8
KA
100
AcDbLine
 10
-29.07326942490493
 20
13.83245084591317
 30
0.0
 11
-28.00337140534523
 21
13.64379895845877
 31
0.0
  0
LINE
  5
3D
330
2
100
AcDbEntity
  8
KA
100
AcDbLine
 10
-25.50159999999999
 20
13.99540000000024
 30
0.0
 11
-28.00337140534523
 21
13.64379895845877
 31
0.0
  0
LINE
  5
3E
330
2
100
AcDbEntity
  8
KA
100
AcDbLine
 10
-25.50159999999999
 20
13.99540000000024
 30
0.0
 11
-25.50159999999999
 21
0.0
 31
0.0
  0
LINE
  5
3F
330
2
100
AcDbEntity
  8
KA
100
AcDbLine
 10
-29.99740000000022
 20
13.05701322119102
 30
0.0
 11
-29.99740000000022
 21
0.0
 31
0.0
  0
LINE
  5
40
330
2
100
AcDbEntity
  8
LINE
100
AcDbLine
 10
0.0000000000000568
 20
-24.0029999999997
 30
0.0
 11
0.0
 21
0.0
 31
0.0
  0
LINE
  5
41
330
2
100
AcDbEntity
  8
HIDDEN
100
AcDbLine
 10
-0.5080000000002088
 20
-6.743699999999989
 30
0.0
 11
-0.5080000000002088
 21
0.0
 31
0.0
  0
LINE
  5
42
330
2
100
AcDbEntity
  8
LINE
100
AcDbLine
 10
0.0000000000000568
 20
-24.0029999999997
 30
0.0
 11
1.00329999999991
 21
-25.00630000000001
 31
0.0
  0
LINE
  5
43
330
2
100
AcDbEntity
  8
LINE
100
AcDbLine
 10
1.00329999999991
 20
-25.00630000000001
 30
0.0
 11
1.00329999999991
 21
0.0
 31
0.0
  0
LINE
  5
44
330
2
100
AcDbEntity
  8
KA
100
AcDbLine
 10
-1.498599999999896
 20
-13.99539999999888
 30
0.0
 11
-0.2838783767379596
 21
-13.66991632201779
 31
0.0
  0
ARC
  5
45
330
2
100
AcDbEntity
  8
KA
100
AcDbCircle
 10
-0.1523999999999432
 20
-14.16060709679686
 30
0.0
 40
0.508
100
AcDbArc
 50
344.9997832756676
 51
104.9998673340475
  0
LINE
  5
46
330
2
100
AcDbEntity
  8
KA
100
AcDbLine
 10
0.3382903197547762
 20
-14.29208717170877
 30
0.0
 11
0.0
 21
-15.55460383274294
 31
0.0
  0
LINE
  5
47
330
2
100
AcDbEntity
  8
KA
100
AcDbLine
 10
-1.498600000000351
 20
-13.99539999999888
 30
0.0
 11
-1.498600000000351
 21
0.0
 31
0.0
  0
LINE
  5
48
330
2
100
AcDbEntity
  8
KA
100
AcDbLine
 10
-1.841499999999996
 20
-13.99539999999888
 30
0.0
 11
-1.498600000000351
 21
-13.99539999999888
 31
0.0
  0
ARC
  5
49
330
2
100
AcDbEntity
  8
KA
100
AcDbCircle
 10
-7.340599999999938
 20
-38.79297849448176
 30
0.0
 40
25.4
100
AcDbArc
 50
77.49645610533402
 51
102.5035438946659
  0
ARC
  5
4A
330
2
100
AcDbEntity
  8
KA
100
AcDbCircle
 10
-7.340599999999994
 20
38.79297849448312
 30
0.0
 40
25.4
100
AcDbArc
 50
257.496456105334
 51
282.503543894666
  0
LINE
  5
4B
330
2
100
AcDbEntity
  8
KA
100
AcDbLine
 10
-1.841499999999996
 20
13.99540000000024
 30
0.0
 11
-1.498600000000351
 21
13.99540000000024
 31
0.0
  0
LINE
  5
4C
330
2
100
AcDbEntity
  8
KA
100
AcDbLine
 10
-1.498599999999896
 20
13.99540000000024
 30
0.0
 11
-1.498600000000351
 21
0.0
 31
0.0
  0
LINE
  5
4D
330
2
100
AcDbEntity
  8
KA
100
AcDbLine
 10
0.3382903197547762
 20
14.29208717171013
 30
0.0
 11
0.0
 21
15.55460383274385
 31
0.0
  0
ARC
  5
4E
330
2
100
AcDbEntity
  8
KA
100
AcDbCircle
 10
-0.1523999999999432
 20
14.16060709679823
 30
0.0
 40
0.508
100
AcDbArc
 50
255.0001326659524
 51
15.0002167243324
  0
LINE
  5
4F
330
2
100
AcDbEntity
  8
KA
100
AcDbLine
 10
-1.498599999999896
 20
13.99540000000024
 30
0.0
 11
-0.2838783767379596
 21
13.66991632201825
 31
0.0
  0
LINE
  5
50
330
2
100
AcDbEntity
  8
LINE
100
AcDbLine
 10
1.00329999999991
 20
25.00630000000001
 30
0.0
 11
1.00329999999991
 21
0.0
 31
0.0
  0
LINE
  5
51
330
2
100
AcDbEntity
  8
LINE
100
AcDbLine
 10
0.0
 20
24.00300000000106
 30
0.0
 11
1.00329999999991
 21
25.00630000000001
 31
0.0
  0
LINE
  5
52
330
2
100
AcDbEntity
  8
HIDDEN
100
AcDbLine
 10
-0.5080000000002088
 20
6.743699999999989
 30
0.0
 11
-0.5080000000002088
 21
0.0
 31
0.0
  0
LINE
  5
53
330
2
100
AcDbEntity
  8
LINE
100
AcDbLine
 10
0.0
 20
24.00300000000106
 30
0.0
 11
0.0
 21
0.0
 31
0.0
  0
LINE
  5
54
330
2
100
AcDbEntity
  8
KA
100
AcDbLine
 10
-12.83969999999999
 20
3.985777193974172
 30
0.0
 11
-12.83969999999999
 21
-3.985777193972808
 31
0.0
  0
LINE
  5
55
330
2
100
AcDbEntity
  8
KA
100
AcDbLine
 10
-3.287531484212252
 20
16.5
 30
0.0
 11
-11.39366851578773
 21
16.5
 31
0.0
  0
LINE
  5
56
330
2
100
AcDbEntity
  8
KA
100
AcDbLine
 10
-1.841499999999996
 20
13.99540000000024
 30
0.0
 11
-3.287531484212252
 21
16.5
 31
0.0
  0
LINE
  5
57
330
2
100
AcDbEntity
  8
KA
100
AcDbLine
 10
-12.83969999999999
 20
13.99540000000024
 30
0.0
 11
-11.39366851578773
 21
16.5
 31
0.0
  0
LINE
  5
58
330
2
100
AcDbEntity
  8
KA
100
AcDbLine
 10
-12.83969999999999
 20
-13.99539999999888
 30
0.0
 11
-11.39366851578773
 21
-16.5
 31
0.0
  0
LINE
  5
59
330
2
100
AcDbEntity
  8
KA
100
AcDbLine
 10
-3.287531484212252
 20
-16.5
 30
0.0
 11
-11.39366851578773
 21
-16.5
 31
0.0
  0
LINE
  5
5A
330
2
100
AcDbEntity
  8
KA
100
AcDbLine
 10
-1.841499999999996
 20
-13.99539999999888
 30
0.0
 11
-3.287531484212252
 21
-16.5
 31
0.0
  0
LINE
  5
5B
330
2
100
AcDbEntity
  8
LINE
100
AcDbLine
 10
4.71579682063799
 20
-25.0062999999991
 30
0.0
 11
4.999999999999658
 21
-25.0062999999991
 31
0.0
  0
LINE
  5
5C
330
2
100
AcDbEntity
  8
LINE
100
AcDbLine
 10
4.71579682063799
 20
25.00630000000092
 30
0.0
 11
4.999999999999658
 21
25.00630000000092
 31
0.0
  0
LINE
  5
5D
330
2
100
AcDbEntity
  8
LINE
100
AcDbLine
 10
4.999999999999602
 20
25.00630000000319
 30
0.0
 11
4.999999999999602
 21
-25.0062999999991
 31
0.0
  0
LINE
  5
5E
330
2
100
AcDbEntity
  8
LINE
100
AcDbLine
 10
8.105828541230152
 20
36.59740991547232
 30
0.0
 11
8.105828541230152
 21
-36.59740991546505
 31
0.0
  0
LINE
  5
5F
330
2
100
AcDbEntity
  8
LINE
 62
     3
100
AcDbLine
 10
8.105828541229982
 20
-36.59740991546368
 30
0.0
 11
8.105828541229925
 21
-38.09999999999354
 31
0.0
  0
LINE
  5
60
330
2
100
AcDbEntity
  8
LINE
 62
     3
100
AcDbLine
 10
4.999999999999488
 20
-25.00629999999683
 30
0.0
 11
8.105828541229811
 21
-38.09999999999354
 31
0.0
  0
LINE
  5
61
330
2
100
AcDbEntity
  8
LINE
 62
     3
100
AcDbLine
 10
8.105828541229925
 20
36.59740991547232
 30
0.0
 11
8.105828541229811
 21
38.10000000000536
 31
0.0
  0
LINE
  5
62
330
2
100
AcDbEntity
  8
LINE
 62
     3
100
AcDbLine
 10
4.999999999999261
 20
25.00630000000319
 30
0.0
 11
8.105828541229698
 21
38.10000000000627
 31
0.0
  0
LINE
  5
63
330
2
100
AcDbEntity
  8
LINE
 62
     3
100
AcDbLine
 10
152.4770162763112
 20
36.600000000009
 30
0.0
 11
152.4770162763112
 21
-36.59999999999081
 31
0.0
  0
LINE
  5
64
330
2
100
AcDbEntity
  8
LINE
 62
     3
100
AcDbLine
 10
150.9770162763112
 20
38.100000000009
 30
0.0
 11
152.4770162763112
 21
36.600000000009
 31
0.0
  0
LINE
  5
65
330
2
100
AcDbEntity
  8
LINE
 62
     3
100
AcDbLine
 10
152.4770162763112
 20
-36.59999999999081
 30
0.0
 11
150.977016276311
 21
-38.09999999999081
 31
0.0
  0
LINE
  5
66
330
2
100
AcDbEntity
  8
LINE
 62
     3
100
AcDbLine
 10
150.977016276311
 20
38.10000000001037
 30
0.0
 11
150.9770162763109
 21
-38.09999999999081
 31
0.0
  0
DIMENSION
  5
7E
330
2
100
AcDbEntity
  8
DIM
 62
     3
100
AcDbDimension
  2
*D0
 10
152.4770162763112
 20
66.32241616237251
 30
0.0
 11
61.23980813815552
 21
69.02241616237252
 31
0.0
 70
    32
 71
     5
 42
182.4744162763114
  3
STANDARD
100
AcDbAlignedDimension
 13
-29.99740000000022
 23
13.05701322119102
 33
0.0
 14
152.4770162763112
 24
36.600000000009
 34
0.0
100
AcDbRotatedDimension
  0
DIMENSION
  5
8C
330
2
100
AcDbEntity
  8
DIM
 62
     3
100
AcDbDimension
  2
*D1
 10
152.4770162763112
 20
55.02926093048154
 30
0.0
 11
76.23850813815562
 21
57.72926093048154
 31
0.0
 70
    32
 71
     5
 42
152.4770162763112
  3
STANDARD
100
AcDbAlignedDimension
 13
0.0
 23
24.00300000000106
 33
0.0
 14
152.4770162763112
 24
36.600000000009
 34
0.0
100
AcDbRotatedDimension
  0
DIMENSION
  5
99
330
2
100
AcDbEntity
  8
DIM
 62
     3
100
AcDbDimension
  2
*D2
 10
4.999999999999261
 20
45.78940661485694
 30
0.0
 11
14.57857142857069
 21
48.48940661485695
 31
0.0
 70
    32
 71
     5
 42
4.999999999999261
  3
STANDARD
100
AcDbAlignedDimension
 13
0.0
 23
24.00300000000106
 33
0.0
 14
4.999999999999261
 24
25.00630000000319
 34
0.0
100
AcDbRotatedDimension
  0
DIMENSION
  5
B1
330
2
100
AcDbEntity
  8
DIM
 62
     3
100
AcDbDimension
  2
*D3
 10
178.1294269435277
 20
-38.09999999999082
 30
0.0
 11
175.4294269435277
 21
0.0000000000091199
 31
0.0
 70
    32
  1
%%c<>
 71
     5
 42
76.19999999999982
  3
STANDARD
100
AcDbAlignedDimension
 13
150.9770162763112
 23
38.100000000009
 33
0.0
 14
150.977016276311
 24
-38.09999999999081
 34
0.0
 50
90.0
100
AcDbRotatedDimension
  0
DIMENSION
  5
BE
330
2
100
AcDbEntity
  8
DIM
 62
     3
100
AcDbDimension
  2
*D4
 10
-45.48709325311548
 20
-25.00629999999999
 30
0.0
 11
-48.18709325311548
 21
0.0000000000000067
 31
0.0
 70
    32
  1
%%c<>
 71
     5
 42
50.01260000000002
  3
STANDARD
100
AcDbAlignedDimension
 13
1.00329999999991
 23
25.00630000000001
 33
0.0
 14
1.00329999999991
 24
-25.00630000000001
 34
0.0
 50
90.0
100
AcDbRotatedDimension
  0
ENDSEC
  0
SECTION
  2
OBJECTS
  0
DICTIONARY
  5
1A
330
0
100
AcDbDictionary
281
     1
  3
ACAD_GROUP
350
18
  3
ACAD_LAYOUT
350
6A
  3
ACAD_MLINESTYLE
350
19
  3
ACAD_PLOTSETTINGS
350
6B
  3
ACAD_PLOTSTYLENAME
350
68
  3
AcDbVariableDictionary
350
71
  0
DICTIONARY
  5
18
102
{ACAD_REACTORS
330
1A
102
}
330
1A
100
AcDbDictionary
281
     1
  0
DICTIONARY
  5
6A
102
{ACAD_REACTORS
330
1A
102
}
330
1A
100
AcDbDictionary
281
     1
  3
Layout1
350
6D
  3
Model
350
6C
  0
DICTIONARY
  5
19
102
{ACAD_REACTORS
330
1A
102
}
330
1A
100
AcDbDictionary
281
     1
  3
STANDARD
350
1D
  0
DICTIONARY
  5
6B
102
{ACAD_REACTORS
330
1A
102
}
330
1A
100
AcDbDictionary
281
     1
  0
ACDBDICTIONARYWDFLT
  5
68
102
{ACAD_REACTORS
330
1A
102
}
330
1A
100
AcDbDictionary
281
     1
  3
Normal
350
69
100
AcDbDictionaryWithDefault
340
69
  0
DICTIONARY
  5
71
102
{ACAD_REACTORS
330
1A
102
}
330
1A
100
AcDbDictionary
281
     1
  3
DIMASSOC
350
72
  0
LAYOUT
  5
6D
102
{ACAD_REACTORS
330
6A
102
}
330
6A
100
AcDbPlotSettings
  1

  2
\\PRINT_SRV\HP LaserJet (Engineering)
  4

  6

 40
0.0
 41
0.0
 42
0.0
 43
0.0
 44
0.0
 45
0.0
 46
0.0
 47
0.0
 48
0.0
 49
0.0
140
0.0
141
0.0
142
1.0
143
1.0
 70
   688
 72
     0
 73
     0
 74
     5
  7
KPT.ctb
 75
    16
147
1.0
148
0.0
149
0.0
100
AcDbLayout
  1
Layout1
 70
     1
 71
     1
 10
0.0
 20
0.0
 11
12.0
 21
9.0
 12
0.0
 22
0.0
 32
0.0
 14
1.000000000000000E+20
 24
1.000000000000000E+20
 34
1.000000000000000E+20
 15
-1.000000000000000E+20
 25
-1.000000000000000E+20
 35
-1.000000000000000E+20
146
0.0
 13
0.0
 23
0.0
 33
0.0
 16
1.0
 26
0.0
 36
0.0
 17
0.0
 27
1.0
 37
0.0
 76
     0
330
7
  0
LAYOUT
  5
6C
102
{ACAD_REACTORS
330
6A
102
}
330
6A
100
AcDbPlotSettings
  1

  2
\\PRINT_SRV\HP LaserJet (Engineering)
  4

  6

 40
0.0
 41
0.0
 42
0.0
 43
0.0
 44
0.0
 45
0.0
 46
0.0
 47
0.0
 48
0.0
 49
0.0
140
0.0
141
0.0
142
1.0
143
1.0
 70
  1712
 72
     0
 73
     0
 74
     0
  7
KPT.ctb
 75
     0
147
1.0
148
0.0
149
0.0
100
AcDbLayout
  1
Model
 70
     1
 71
     0
 10
0.0
 20
0.0
 11
12.0
 21
9.0
 12
0.0
 22
0.0
 32
0.0
 14
0.0
 24
0.0
 34
0.0
 15
0.0
 25
0.0
 35
0.0
146
0.0
 13
0.0
 23
0.0
 33
0.0
 16
1.0
 26
0.0
 36
0.0
 17
0.0
 27
1.0
 37
0.0
 76
     0
330
2
  0
MLINESTYLE
  5
1D
102
{ACAD_REACTORS
330
19
102
}
330
19
100
AcDbMlineStyle
  2
STANDARD
 70
     0
  3

 62
   256
 51
90.0
 52
90.0
 71
     2
 49
0.5
 62
   256
  6
BYLAYER
 49
-0.5
 62
   256
  6
BYLAYER
  0
ACDBPLACEHOLDER
  5
69
102
{ACAD_REACTORS
330
68
102
}
330
68
  0
DICTIONARYVAR
  5
72
102
{ACAD_REACTORS
330
71
102
}
330
71
100
DictionaryVariables
280
     0
  1
1
  0
ENDSEC
  0
EOF
