  0
SECTION
  2
HEADER
  9
$ACADVER
  1
AC1015
  9
$ACADMAINTVER
 70
    13
  9
$DWGCODEPAGE
  3
ANSI_1252
  9
$INSBASE
 10
375.5603353458325
 20
-1414.022093460249
 30
0.0
  9
$EXTMIN
 10
-31.79313378483127
 20
-25.00630000000024
 30
0.0
  9
$EXTMAX
 10
131.5279001179321
 20
57.58334166702485
 30
0.0
  9
$LIMMIN
 10
0.0
 20
0.0
  9
$LIMMAX
 10
12.0
 20
9.0
  9
$ORTHOMODE
 70
     1
  9
$REGENMODE
 70
     1
  9
$FILLMODE
 70
     1
  9
$QTEXTMODE
 70
     0
  9
$MIRRTEXT
 70
     0
  9
$LTSCALE
 40
10.0
  9
$ATTMODE
 70
     1
  9
$TEXTSIZE
 40
5.0
  9
$TRACEWID
 40
0.05
  9
$TEXTSTYLE
  7
ROMANS
  9
$CLAYER
  8
DIM
  9
$CELTYPE
  6
BYLAYER
  9
$CECOLOR
 62
     3
  9
$CELTSCALE
 40
1.0
  9
$DISPSILH
 70
     0
  9
$DIMSCALE
 40
15.0
  9
$DIMASZ
 40
0.18
  9
$DIMEXO
 40
0.0625
  9
$DIMDLI
 40
0.38
  9
$DIMRND
 40
0.0
  9
$DIMDLE
 40
0.0
  9
$DIMEXE
 40
0.18
  9
$DIMTP
 40
0.0
  9
$DIMTM
 40
0.0
  9
$DIMTXT
 40
0.18
  9
$DIMCEN
 40
0.09
  9
$DIMTSZ
 40
0.0
  9
$DIMTOL
 70
     0
  9
$DIMLIM
 70
     0
  9
$DIMTIH
 70
     0
  9
$DIMTOH
 70
     0
  9
$DIMSE1
 70
     0
  9
$DIMSE2
 70
     0
  9
$DIMTAD
 70
     1
  9
$DIMZIN
 70
     0
  9
$DIMBLK
  1

  9
$DIMASO
 70
     1
  9
$DIMSHO
 70
     1
  9
$DIMPOST
  1

  9
$DIMAPOST
  1

  9
$DIMALT
 70
     0
  9
$DIMALTD
 70
     2
  9
$DIMALTF
 40
25.4
  9
$DIMLFAC
 40
1.0
  9
$DIMTOFL
 70
     0
  9
$DIMTVP
 40
0.0
  9
$DIMTIX
 70
     0
  9
$DIMSOXD
 70
     0
  9
$DIMSAH
 70
     0
  9
$DIMBLK1
  1

  9
$DIMBLK2
  1

  9
$DIMSTYLE
  2
STANDARD
  9
$DIMCLRD
 70
   256
  9
$DIMCLRE
 70
   256
  9
$DIMCLRT
 70
   256
  9
$DIMTFAC
 40
1.0
  9
$DIMGAP
 40
0.09
  9
$DIMJUST
 70
     0
  9
$DIMSD1
 70
     0
  9
$DIMSD2
 70
     0
  9
$DIMTOLJ
 70
     1
  9
$DIMTZIN
 70
     0
  9
$DIMALTZ
 70
     0
  9
$DIMALTTZ
 70
     0
  9
$DIMUPT
 70
     0
  9
$DIMDEC
 70
     1
  9
$DIMTDEC
 70
     1
  9
$DIMALTU
 70
     2
  9
$DIMALTTD
 70
     2
  9
$DIMTXSTY
  7
ROMANS
  9
$DIMAUNIT
 70
     0
  9
$DIMADEC
 70
     0
  9
$DIMALTRND
 40
0.0
  9
$DIMAZIN
 70
     0
  9
$DIMDSEP
 70
    46
  9
$DIMATFIT
 70
     3
  9
$DIMFRAC
 70
     0
  9
$DIMLDRBLK
  1

  9
$DIMLUNIT
 70
     2
  9
$DIMLWD
 70
    -1
  9
$DIMLWE
 70
    -1
  9
$DIMTMOVE
 70
     0
  9
$LUNITS
 70
     2
  9
$LUPREC
 70
     4
  9
$SKETCHINC
 40
0.1
  9
$FILLETRAD
 40
0.0
  9
$AUNITS
 70
     0
  9
$AUPREC
 70
     0
  9
$MENU
  1
acad
  9
$ELEVATION
 40
0.0
  9
$PELEVATION
 40
0.0
  9
$THICKNESS
 40
0.0
  9
$LIMCHECK
 70
     0
  9
$CHAMFERA
 40
1.5
  9
$CHAMFERB
 40
1.5
  9
$CHAMFERC
 40
0.0
  9
$CHAMFERD
 40
0.0
  9
$SKPOLY
 70
     0
  9
$TDCREATE
 40
2449974.566112731
  9
$TDUCREATE
 40
2449974.816112731
  9
$TDUPDATE
 40
2452660.522559166
  9
$TDUUPDATE
 40
2452660.772559167
  9
$TDINDWG
 40
0.9758713542
  9
$TDUSRTIMER
 40
0.9758712384
  9
$USRTIMER
 70
     1
  9
$ANGBASE
 50
0.0
  9
$ANGDIR
 70
     0
  9
$PDMODE
 70
     0
  9
$PDSIZE
 40
0.0
  9
$PLINEWID
 40
0.0
  9
$SPLFRAME
 70
     0
  9
$SPLINETYPE
 70
     6
  9
$SPLINESEGS
 70
     8
  9
$HANDSEED
  5
C0
  9
$SURFTAB1
 70
     6
  9
$SURFTAB2
 70
     6
  9
$SURFTYPE
 70
     6
  9
$SURFU
 70
     6
  9
$SURFV
 70
     6
  9
$UCSBASE
  2

  9
$UCSNAME
  2

  9
$UCSORG
 10
0.0
 20
0.0
 30
0.0
  9
$UCSXDIR
 10
1.0
 20
0.0
 30
0.0
  9
$UCSYDIR
 10
0.0
 20
1.0
 30
0.0
  9
$UCSORTHOREF
  2

  9
$UCSORTHOVIEW
 70
     0
  9
$UCSORGTOP
 10
0.0
 20
0.0
 30
0.0
  9
$UCSORGBOTTOM
 10
0.0
 20
0.0
 30
0.0
  9
$UCSORGLEFT
 10
0.0
 20
0.0
 30
0.0
  9
$UCSORGRIGHT
 10
0.0
 20
0.0
 30
0.0
  9
$UCSORGFRONT
 10
0.0
 20
0.0
 30
0.0
  9
$UCSORGBACK
 10
0.0
 20
0.0
 30
0.0
  9
$PUCSBASE
  2

  9
$PUCSNAME
  2

  9
$PUCSORG
 10
0.0
 20
0.0
 30
0.0
  9
$PUCSXDIR
 10
1.0
 20
0.0
 30
0.0
  9
$PUCSYDIR
 10
0.0
 20
1.0
 30
0.0
  9
$PUCSORTHOREF
  2

  9
$PUCSORTHOVIEW
 70
     0
  9
$PUCSORGTOP
 10
0.0
 20
0.0
 30
0.0
  9
$PUCSORGBOTTOM
 10
0.0
 20
0.0
 30
0.0
  9
$PUCSORGLEFT
 10
0.0
 20
0.0
 30
0.0
  9
$PUCSORGRIGHT
 10
0.0
 20
0.0
 30
0.0
  9
$PUCSORGFRONT
 10
0.0
 20
0.0
 30
0.0
  9
$PUCSORGBACK
 10
0.0
 20
0.0
 30
0.0
  9
$USERI1
 70
     0
  9
$USERI2
 70
     0
  9
$USERI3
 70
     0
  9
$USERI4
 70
     0
  9
$USERI5
 70
     0
  9
$USERR1
 40
0.0
  9
$USERR2
 40
0.0
  9
$USERR3
 40
0.0
  9
$USERR4
 40
0.0
  9
$USERR5
 40
0.0
  9
$WORLDVIEW
 70
     1
  9
$SHADEDGE
 70
     3
  9
$SHADEDIF
 70
    70
  9
$TILEMODE
 70
     1
  9
$MAXACTVP
 70
    16
  9
$PINSBASE
 10
0.0
 20
0.0
 30
0.0
  9
$PLIMCHECK
 70
     0
  9
$PEXTMIN
 10
1.000000000000000E+20
 20
1.000000000000000E+20
 30
1.000000000000000E+20
  9
$PEXTMAX
 10
-1.000000000000000E+20
 20
-1.000000000000000E+20
 30
-1.000000000000000E+20
  9
$PLIMMIN
 10
0.0
 20
0.0
  9
$PLIMMAX
 10
12.0
 20
9.0
  9
$UNITMODE
 70
     0
  9
$VISRETAIN
 70
     0
  9
$PLINEGEN
 70
     0
  9
$PSLTSCALE
 70
     1
  9
$TREEDEPTH
 70
  3020
  9
$CMLSTYLE
  2
STANDARD
  9
$CMLJUST
 70
     0
  9
$CMLSCALE
 40
1.0
  9
$PROXYGRAPHICS
 70
     1
  9
$MEASUREMENT
 70
     0
  9
$CELWEIGHT
370
    -1
  9
$ENDCAPS
280
     0
  9
$JOINSTYLE
280
     0
  9
$LWDISPLAY
290
     0
  9
$INSUNITS
 70
     0
  9
$HYPERLINKBASE
  1

  9
$STYLESHEET
  1

  9
$XEDIT
290
     1
  9
$CEPSNTYPE
380
     0
  9
$PSTYLEMODE
290
     1
  9
$FINGERPRINTGUID
  2
{991662BA-D889-404E-BF52-DBA1D97E0D42}
  9
$VERSIONGUID
  2
{355A0F23-DCBB-4384-8DC7-801792191DA6}
  9
$EXTNAMES
290
     1
  9
$PSVPSCALE
 40
0.0
  9
$OLESTARTUP
290
     0
  0
ENDSEC
  0
SECTION
  2
CLASSES
  0
CLASS
  1
DICTIONARYVAR
  2
AcDbDictionaryVar
  3
AutoCAD 2000
 90
        0
280
     0
281
     0
  0
CLASS
  1
LWPOLYLINE
  2
AcDbPolyline
  3
AutoCAD 2000
 90
    32768
280
     0
281
     1
  0
CLASS
  1
OLE2FRAME
  2
AcDbOle2Frame
  3
AutoCAD 2000
 90
    32768
280
     0
281
     1
  0
CLASS
  1
ACDBDICTIONARYWDFLT
  2
AcDbDictionaryWithDefault
  3
AutoCAD 2000
 90
        0
280
     0
281
     0
  0
CLASS
  1
ACDBPLACEHOLDER
  2
AcDbPlaceHolder
  3
AutoCAD 2000
 90
        0
280
     0
281
     0
  0
CLASS
  1
LAYOUT
  2
AcDbLayout
  3
AutoCAD 2000
 90
        0
280
     0
281
     0
  0
ENDSEC
  0
SECTION
  2
TABLES
  0
TABLE
  2
VPORT
  5
12
330
0
100
AcDbSymbolTable
 70
     2
  0
VPORT
  5
BF
330
12
100
AcDbSymbolTableRecord
100
AcDbViewportTableRecord
  2
*Active
 70
     0
 10
0.0
 20
0.0
 11
1.0
 21
1.0
 12
49.86738316655046
 22
16.28852083351231
 13
0.0
 23
0.0
 14
1.0
 24
1.0
 15
0.0
 25
0.0
 16
0.0
 26
0.0
 36
1.0
 17
0.0
 27
0.0
 37
0.0
 40
109.5129670799872
 41
1.498756218905472
 42
50.0
 43
0.0
 44
0.0
 50
0.0
 51
0.0
 71
     0
 72
 10000
 73
     1
 74
     1
 75
     0
 76
     0
 77
     0
 78
     0
281
     0
 65
     1
110
0.0
120
0.0
130
0.0
111
1.0
121
0.0
131
0.0
112
0.0
122
1.0
132
0.0
 79
     0
146
0.0
  0
ENDTAB
  0
TABLE
  2
LTYPE
  5
D
330
0
100
AcDbSymbolTable
 70
     3
  0
LTYPE
  5
E
330
D
100
AcDbSymbolTableRecord
100
AcDbLinetypeTableRecord
  2
BYBLOCK
 70
     0
  3

 72
    65
 73
     0
 40
0.0
  0
LTYPE
  5
F
330
D
100
AcDbSymbolTableRecord
100
AcDbLinetypeTableRecord
  2
BYLAYER
 70
     0
  3

 72
    65
 73
     0
 40
0.0
  0
LTYPE
  5
5
330
D
100
AcDbSymbolTableRecord
100
AcDbLinetypeTableRecord
  2
CONTINUOUS
 70
     0
  3
Solid line
 72
    65
 73
     0
 40
0.0
  0
LTYPE
  5
26
330
D
100
AcDbSymbolTableRecord
100
AcDbLinetypeTableRecord
  2
HIDDEN
 70
     0
  3
_ _ _ _ _ _ _ _ _ _ _ _ _ _ _ _ _ _ _ _ _ _ _
 72
    65
 73
     2
 40
0.375
 49
0.25
 74
     0
 49
-0.125
 74
     0
  0
LTYPE
  5
23
330
D
100
AcDbSymbolTableRecord
100
AcDbLinetypeTableRecord
  2
CENTER
 70
     0
  3
____ _ ____ _ ____ _ ____ _ ____ _ ____ _ ____
 72
    65
 73
     4
 40
2.0
 49
1.25
 74
     0
 49
-0.25
 74
     0
 49
0.25
 74
     0
 49
-0.25
 74
     0
  0
ENDTAB
  0
TABLE
  2
LAYER
  5
A
330
0
100
AcDbSymbolTable
 70
     7
  0
LAYER
  5
4
330
A
100
AcDbSymbolTableRecord
100
AcDbLayerTableRecord
  2
0
 70
     0
 62
     7
  6
CONTINUOUS
370
    -3
390
61
  0
LAYER
  5
1B
330
A
100
AcDbSymbolTableRecord
100
AcDbLayerTableRecord
  2
LINE
 70
     0
 62
     3
  6
CONTINUOUS
370
    -3
390
61
  0
LAYER
  5
25
330
A
100
AcDbSymbolTableRecord
100
AcDbLayerTableRecord
  2
HIDDEN
 70
     0
 62
     2
  6
HIDDEN
370
    -3
390
61
  0
LAYER
  5
22
330
A
100
AcDbSymbolTableRecord
100
AcDbLayerTableRecord
  2
CTRL
 70
     0
 62
     1
  6
CENTER
370
    -3
390
61
  0
LAYER
  5
71
330
A
100
AcDbSymbolTableRecord
100
AcDbLayerTableRecord
  2
DIM
 70
     0
 62
     7
  6
CONTINUOUS
370
    -3
390
61
  0
LAYER
  5
72
330
A
100
AcDbSymbolTableRecord
100
AcDbLayerTableRecord
  2
KA
 70
     0
 62
     3
  6
CONTINUOUS
370
    -3
390
61
  0
LAYER
  5
74
330
A
100
AcDbSymbolTableRecord
100
AcDbLayerTableRecord
  2
Defpoints
 70
     0
 62
     7
  6
CONTINUOUS
290
     0
370
    -3
390
61
  0
ENDTAB
  0
TABLE
  2
STYLE
  5
B
330
0
100
AcDbSymbolTable
 70
     2
  0
STYLE
  5
C
330
B
100
AcDbSymbolTableRecord
100
AcDbTextStyleTableRecord
  2
STANDARD
 70
     0
 40
0.0
 41
1.0
 50
0.0
 71
     0
 42
0.2
  3
txt
  4

  0
STYLE
  5
1C
330
B
100
AcDbSymbolTableRecord
100
AcDbTextStyleTableRecord
  2
ROMANS
 70
     0
 40
0.0
 41
1.0
 50
0.0
 71
     0
 42
5.0
  3
romans
  4

  0
ENDTAB
  0
TABLE
  2
VIEW
  5
10
330
0
100
AcDbSymbolTable
 70
     0
  0
ENDTAB
  0
TABLE
  2
UCS
  5
11
330
0
100
AcDbSymbolTable
 70
     0
  0
ENDTAB
  0
TABLE
  2
APPID
  5
14
330
0
100
AcDbSymbolTable
 70
     1
  0
APPID
  5
15
330
14
100
AcDbSymbolTableRecord
100
AcDbRegAppTableRecord
  2
ACAD
 70
     0
  0
ENDTAB
  0
TABLE
  2
DIMSTYLE
  5
16
330
0
100
AcDbSymbolTable
 70
     1
100
AcDbDimStyleTable
 71
     1
340
1E
  0
DIMSTYLE
105
1E
102
{ACAD_REACTORS
330
73
330
81
330
8E
102
}
330
16
100
AcDbSymbolTableRecord
100
AcDbDimStyleTableRecord
  2
STANDARD
 70
     0
 40
15.0
 73
     0
 74
     0
 77
     1
176
   256
177
   256
178
   256
271
     1
272
     1
340
1C
371
    -1
372
    -1
  0
ENDTAB
  0
TABLE
  2
BLOCK_RECORD
  5
1
330
0
100
AcDbSymbolTable
 70
     3
  0
BLOCK_RECORD
  5
2
330
1
100
AcDbSymbolTableRecord
100
AcDbBlockTableRecord
  2
*MODEL_SPACE
340
64
  0
BLOCK_RECORD
  5
7
330
1
100
AcDbSymbolTableRecord
100
AcDbBlockTableRecord
  2
*PAPER_SPACE
340
65
  0
BLOCK_RECORD
  5
75
330
1
100
AcDbSymbolTableRecord
100
AcDbBlockTableRecord
  2
*D0
340
0
  0
BLOCK_RECORD
  5
82
330
1
100
AcDbSymbolTableRecord
100
AcDbBlockTableRecord
  2
*D1
340
0
  0
BLOCK_RECORD
  5
8F
330
1
100
AcDbSymbolTableRecord
100
AcDbBlockTableRecord
  2
*D2
340
0
  0
ENDTAB
  0
ENDSEC
  0
SECTION
  2
BLOCKS
  0
BLOCK
  5
3
330
2
100
AcDbEntity
  8
0
100
AcDbBlockBegin
  2
*MODEL_SPACE
 70
     0
 10
0.0
 20
0.0
 30
0.0
  3
*MODEL_SPACE
  1

  0
ENDBLK
  5
6
330
2
100
AcDbEntity
  8
0
100
AcDbBlockEnd
  0
BLOCK
  5
8
330
7
100
AcDbEntity
 67
     1
  8
0
100
AcDbBlockBegin
  2
*PAPER_SPACE
 70
     0
 10
0.0
 20
0.0
 30
0.0
  3
*PAPER_SPACE
  1

  0
ENDBLK
  5
9
330
7
100
AcDbEntity
 67
     1
  8
0
100
AcDbBlockEnd
  0
BLOCK
  5
7F
330
75
100
AcDbEntity
  8
0
 62
     3
100
AcDbBlockBegin
  2
*D0
 70
     1
 10
0.0
 20
0.0
 30
0.0
  3
*D0
  1

  0
LINE
  5
B6
330
75
100
AcDbEntity
  8
DIM
100
AcDbLine
 10
-29.9974
 20
13.99451322119148
 30
0.0
 11
-29.99739999999999
 21
56.23334166702484
 31
0.0
  0
LINE
  5
B7
330
75
100
AcDbEntity
  8
DIM
100
AcDbLine
 10
100.0124211123763
 20
24.42520614265049
 30
0.0
 11
100.0124211123763
 21
56.23334166702484
 31
0.0
  0
LINE
  5
B8
330
75
100
AcDbEntity
  8
DIM
100
AcDbLine
 10
-27.29739999999999
 20
53.53334166702484
 30
0.0
 11
97.31242111237639
 21
53.53334166702484
 31
0.0
  0
SOLID
  5
B9
330
75
100
AcDbEntity
  8
DIM
100
AcDbTrace
 10
-27.29739999999999
 20
53.98334166702484
 30
0.0
 11
-27.29739999999999
 21
53.08334166702484
 31
0.0
 12
-29.99739999999999
 22
53.53334166702484
 32
0.0
 13
-29.99739999999999
 23
53.53334166702484
 33
0.0
  0
SOLID
  5
BA
330
75
100
AcDbEntity
  8
DIM
100
AcDbTrace
 10
97.31242111237639
 20
53.98334166702484
 30
0.0
 11
97.31242111237639
 21
53.08334166702484
 31
0.0
 12
100.0124211123763
 22
53.53334166702484
 32
0.0
 13
100.0124211123763
 23
53.53334166702484
 33
0.0
  0
MTEXT
  5
BB
330
75
100
AcDbEntity
  8
DIM
100
AcDbMText
 10
35.00751055618819
 20
56.23334166702484
 30
0.0
 40
2.699999999999999
 41
0.0
 71
     5
 72
     1
  1
\A1;130.0
  7
ROMANS
 73
     1
 44
1.0
  0
POINT
  5
BC
330
75
100
AcDbEntity
  8
Defpoints
 62
     0
100
AcDbPoint
 10
-29.9974
 20
13.05701322119148
 30
0.0
  0
POINT
  5
BD
330
75
100
AcDbEntity
  8
Defpoints
 62
     0
100
AcDbPoint
 10
100.0124211123763
 20
23.48770614265049
 30
0.0
  0
POINT
  5
BE
330
75
100
AcDbEntity
  8
Defpoints
 62
     0
100
AcDbPoint
 10
100.0124211123763
 20
53.53334166702484
 30
0.0
  0
ENDBLK
  5
80
330
75
100
AcDbEntity
  8
0
 62
     3
100
AcDbBlockEnd
  0
BLOCK
  5
8C
330
82
100
AcDbEntity
  8
0
 62
     3
100
AcDbBlockBegin
  2
*D1
 70
     1
 10
0.0
 20
0.0
 30
0.0
  3
*D1
  1

  0
LINE
  5
AD
330
82
100
AcDbEntity
  8
DIM
100
AcDbLine
 10
0.0000000000000001
 20
24.9404999999997
 30
0.0
 11
0.0000000000000011
 21
42.46528322972513
 31
0.0
  0
LINE
  5
AE
330
82
100
AcDbEntity
  8
DIM
100
AcDbLine
 10
100.0124211123763
 20
24.42520614265049
 30
0.0
 11
100.0124211123763
 21
42.46528322972513
 31
0.0
  0
LINE
  5
AF
330
82
100
AcDbEntity
  8
DIM
100
AcDbLine
 10
2.7
 20
39.76528322972512
 30
0.0
 11
97.31242111237639
 21
39.76528322972512
 31
0.0
  0
SOLID
  5
B0
330
82
100
AcDbEntity
  8
DIM
100
AcDbTrace
 10
2.7
 20
40.21528322972513
 30
0.0
 11
2.7
 21
39.31528322972512
 31
0.0
 12
0.000000000000001
 22
39.76528322972512
 32
0.0
 13
0.000000000000001
 23
39.76528322972512
 33
0.0
  0
SOLID
  5
B1
330
82
100
AcDbEntity
  8
DIM
100
AcDbTrace
 10
97.31242111237639
 20
40.21528322972513
 30
0.0
 11
97.31242111237639
 21
39.31528322972512
 31
0.0
 12
100.0124211123763
 22
39.76528322972512
 32
0.0
 13
100.0124211123763
 23
39.76528322972512
 33
0.0
  0
MTEXT
  5
B2
330
82
100
AcDbEntity
  8
DIM
100
AcDbMText
 10
50.00621055618819
 20
42.46528322972513
 30
0.0
 40
2.699999999999999
 41
0.0
 71
     5
 72
     1
  1
\A1;100.0
  7
ROMANS
 73
     1
 44
1.0
  0
POINT
  5
B3
330
82
100
AcDbEntity
  8
Defpoints
 62
     0
100
AcDbPoint
 10
0.0
 20
24.0029999999997
 30
0.0
  0
POINT
  5
B4
330
82
100
AcDbEntity
  8
Defpoints
 62
     0
100
AcDbPoint
 10
100.0124211123763
 20
23.48770614265049
 30
0.0
  0
POINT
  5
B5
330
82
100
AcDbEntity
  8
Defpoints
 62
     0
100
AcDbPoint
 10
100.0124211123763
 20
39.76528322972512
 30
0.0
  0
ENDBLK
  5
8D
330
82
100
AcDbEntity
  8
0
 62
     3
100
AcDbBlockEnd
  0
BLOCK
  5
99
330
8F
100
AcDbEntity
  8
0
 62
     3
100
AcDbBlockBegin
  2
*D2
 70
     1
 10
0.0
 20
0.0
 30
0.0
  3
*D2
  1

  0
LINE
  5
A4
330
8F
100
AcDbEntity
  8
DIM
100
AcDbLine
 10
99.44992114092901
 20
24.9879988160344
 30
0.0
 11
131.5279001179321
 21
24.98799881603439
 31
0.0
  0
LINE
  5
A5
330
8F
100
AcDbEntity
  8
DIM
100
AcDbLine
 10
99.44992111237661
 20
-25.00629999999637
 30
0.0
 11
131.5279001179321
 21
-25.00629999999638
 31
0.0
  0
LINE
  5
A6
330
8F
100
AcDbEntity
  8
DIM
100
AcDbLine
 10
128.8279001179321
 20
22.28799881603439
 30
0.0
 11
128.8279001179321
 21
-22.30629999999638
 31
0.0
  0
SOLID
  5
A7
330
8F
100
AcDbEntity
  8
DIM
100
AcDbTrace
 10
128.3779001179321
 20
22.28799881603439
 30
0.0
 11
129.2779001179321
 21
22.28799881603439
 31
0.0
 12
128.8279001179321
 22
24.98799881603439
 32
0.0
 13
128.8279001179321
 23
24.98799881603439
 33
0.0
  0
SOLID
  5
A8
330
8F
100
AcDbEntity
  8
DIM
100
AcDbTrace
 10
128.3779001179321
 20
-22.30629999999638
 30
0.0
 11
129.2779001179321
 21
-22.30629999999638
 31
0.0
 12
128.8279001179321
 22
-25.00629999999638
 32
0.0
 13
128.8279001179321
 23
-25.00629999999638
 33
0.0
  0
MTEXT
  5
A9
330
8F
100
AcDbEntity
  8
DIM
100
AcDbMText
 10
126.1279001179321
 20
-0.0091505919809731
 30
0.0
 40
2.699999999999999
 41
0.0
 71
     5
 72
     1
  1
\A1;%%c50.0
  7
ROMANS
 11
0.0000000000000001
 21
1.0
 31
0.0
 73
     1
 44
1.0
  0
POINT
  5
AA
330
8F
100
AcDbEntity
  8
Defpoints
 62
     0
100
AcDbPoint
 10
98.51242114092901
 20
24.9879988160344
 30
0.0
  0
POINT
  5
AB
330
8F
100
AcDbEntity
  8
Defpoints
 62
     0
100
AcDbPoint
 10
98.51242111237661
 20
-25.00629999999637
 30
0.0
  0
POINT
  5
AC
330
8F
100
AcDbEntity
  8
Defpoints
 62
     0
100
AcDbPoint
 10
128.8279001179321
 20
-25.00629999999638
 30
0.0
  0
ENDBLK
  5
9A
330
8F
100
AcDbEntity
  8
0
 62
     3
100
AcDbBlockEnd
  0
ENDSEC
  0
SECTION
  2
ENTITIES
  0
LINE
  5
1F
330
2
100
AcDbEntity
  8
LINE
 62
     3
100
AcDbLine
 10
98.51242111237661
 20
-25.00629999999637
 30
0.0
 11
4.71579682063782
 21
-25.00629999999933
 31
0.0
  0
LINE
  5
20
330
2
100
AcDbEntity
  8
LINE
 62
     3
100
AcDbLine
 10
98.51242114092901
 20
24.9879988160344
 30
0.0
 11
4.71579682063782
 21
25.00630000000046
 31
0.0
  0
LINE
  5
21
330
2
100
AcDbEntity
  8
CTRL
100
AcDbLine
 10
110.622734360818
 20
0.0000000000006821
 30
0.0
 11
-31.79313378483127
 21
-0.0000000000002274
 31
0.0
  0
LINE
  5
24
330
2
100
AcDbEntity
  8
HIDDEN
100
AcDbLine
 10
-0.5079999999999814
 20
6.743699999999762
 30
0.0
 11
3.385477010334113
 21
-0.0000000000002274
 31
0.0
  0
LINE
  5
27
330
2
100
AcDbEntity
  8
LINE
100
AcDbLine
 10
1.003299999999967
 20
25.00630000000046
 30
0.0
 11
4.71579682063799
 21
25.00630000000046
 31
0.0
  0
LINE
  5
28
330
2
100
AcDbEntity
  8
LINE
100
AcDbLine
 10
1.003299999999967
 20
-25.00630000000024
 30
0.0
 11
4.71579682063799
 21
-25.00630000000024
 31
0.0
  0
LINE
  5
29
330
2
100
AcDbEntity
  8
HIDDEN
100
AcDbLine
 10
-0.5079999999999814
 20
-6.743700000000444
 30
0.0
 11
3.385477010334113
 21
-0.0000000000002274
 31
0.0
  0
LINE
  5
2A
330
2
100
AcDbEntity
  8
LINE
100
AcDbLine
 10
1.003299999999967
 20
-25.00630000000024
 30
0.0
 11
1.003299999999967
 21
-0.0000000000002274
 31
0.0
  0
LINE
  5
2B
330
2
100
AcDbEntity
  8
LINE
100
AcDbLine
 10
0.0
 20
-24.00299999999947
 30
0.0
 11
0.0
 21
-0.0000000000002274
 31
0.0
  0
LINE
  5
2C
330
2
100
AcDbEntity
  8
LINE
100
AcDbLine
 10
0.0
 20
-24.00299999999947
 30
0.0
 11
1.003299999999967
 21
-25.00630000000024
 31
0.0
  0
LINE
  5
2D
330
2
100
AcDbEntity
  8
KA
100
AcDbLine
 10
-25.50159999999999
 20
13.99540000000047
 30
0.0
 11
-12.83969999999999
 21
13.99540000000047
 31
0.0
  0
LINE
  5
2E
330
2
100
AcDbEntity
  8
HIDDEN
100
AcDbLine
 10
-29.55745909487751
 20
6.743700000000671
 30
0.0
 11
-0.5079999999999814
 21
6.743699999999762
 31
0.0
  0
CIRCLE
  5
2F
330
2
100
AcDbEntity
  8
KA
100
AcDbCircle
 10
-12.4968
 20
-0.0000000000002274
 30
0.0
 40
4.000499999999998
  0
LWPOLYLINE
  5
30
330
2
100
AcDbEntity
  8
KA
100
AcDbPolyline
 90
       16
 70
     1
 43
0.0
 10
-7.777227548890891
 20
-0.0000000000002274
 42
0.1099242059137625
 10
-8.12698637129904
 20
1.571685544137608
 42
0.1025149667635409
 10
-9.159558315519518
 20
2.95202899310766
 42
0.0935248479519141
 10
-10.66501207524385
 20
3.84977955283557
 42
0.0880290951703918
 10
-12.4968
 20
4.174799438571426
 42
0.088029095170384
 10
-14.32858792475599
 20
3.84977955283557
 42
0.0935248479519163
 10
-15.83404168448049
 20
2.95202899310766
 42
0.1025149667635381
 10
-16.86661362870103
 20
1.571685544137608
 42
0.109924205913759
 10
-17.21637245110918
 20
-0.0000000000002274
 42
0.1099242059137625
 10
-16.86661362870103
 20
-1.571685544136471
 42
0.1025149667635408
 10
-15.83404168448049
 20
-2.952028993107433
 42
0.0935248479519104
 10
-14.3285879247561
 20
-3.849779552835343
 42
0.0880290951703821
 10
-12.4968
 20
-4.174799438571426
 42
0.0880290951703709
 10
-10.66501207524396
 20
-3.849779552835343
 42
0.0935248479519015
 10
-9.159558315519518
 20
-2.952028993107433
 42
0.1025149667635463
 10
-8.12698637129904
 20
-1.571685544136471
 42
0.1099242059137621
  0
LINE
  5
31
330
2
100
AcDbEntity
  8
HIDDEN
100
AcDbLine
 10
-29.55745909487751
 20
-6.743700000000444
 30
0.0
 11
-0.5079999999999814
 21
-6.743700000000444
 31
0.0
  0
LINE
  5
32
330
2
100
AcDbEntity
  8
KA
100
AcDbLine
 10
-25.50159999999999
 20
-13.99539999999933
 30
0.0
 11
-12.83969999999999
 21
-13.99539999999933
 31
0.0
  0
LINE
  5
33
330
2
100
AcDbEntity
  8
KA
100
AcDbLine
 10
-29.9974
 20
13.05701322119148
 30
0.0
 11
-29.9974
 21
-0.0000000000002274
 31
0.0
  0
LINE
  5
34
330
2
100
AcDbEntity
  8
KA
100
AcDbLine
 10
-25.50159999999999
 20
13.99540000000047
 30
0.0
 11
-25.50159999999999
 21
-0.0000000000002274
 31
0.0
  0
LINE
  5
35
330
2
100
AcDbEntity
  8
KA
100
AcDbLine
 10
-25.50159999999999
 20
13.99540000000047
 30
0.0
 11
-28.00337140534526
 21
13.64379895845854
 31
0.0
  0
LINE
  5
36
330
2
100
AcDbEntity
  8
KA
100
AcDbLine
 10
-29.0732694249051
 20
13.83245084591362
 30
0.0
 11
-28.00337140534526
 21
13.64379895845854
 31
0.0
  0
LINE
  5
37
330
2
100
AcDbEntity
  8
KA
100
AcDbLine
 10
-28.00337140534526
 20
13.64379895845854
 30
0.0
 11
-28.00337140534526
 21
-0.0000000000002274
 31
0.0
  0
ARC
  5
38
330
2
100
AcDbEntity
  8
KA
100
AcDbCircle
 10
-29.21000000000001
 20
13.05701322119148
 30
0.0
 40
0.7874
100
AcDbArc
 50
80.00000000000055
 51
179.9999999999999
  0
LINE
  5
39
330
2
100
AcDbEntity
  8
HIDDEN
100
AcDbLine
 10
-29.9974
 20
6.997700000000577
 30
0.0
 11
-29.55745909487751
 21
6.743700000000671
 31
0.0
  0
LINE
  5
3A
330
2
100
AcDbEntity
  8
HIDDEN
100
AcDbLine
 10
-29.55745909487751
 20
6.743700000000671
 30
0.0
 11
-29.55745909487751
 21
-0.0000000000002274
 31
0.0
  0
LINE
  5
3B
330
2
100
AcDbEntity
  8
HIDDEN
100
AcDbLine
 10
-29.55745909487751
 20
-6.743700000000444
 30
0.0
 11
-29.55745909487751
 21
-0.0000000000002274
 31
0.0
  0
LINE
  5
3C
330
2
100
AcDbEntity
  8
HIDDEN
100
AcDbLine
 10
-29.9974
 20
-6.997700000000349
 30
0.0
 11
-29.55745909487751
 21
-6.743700000000444
 31
0.0
  0
ARC
  5
3D
330
2
100
AcDbEntity
  8
KA
100
AcDbCircle
 10
-29.21000000000001
 20
-13.05701322119148
 30
0.0
 40
0.7874
100
AcDbArc
 50
180.0
 51
279.9999999999993
  0
LINE
  5
3E
330
2
100
AcDbEntity
  8
KA
100
AcDbLine
 10
-28.00337140534537
 20
-13.64379895845854
 30
0.0
 11
-28.00337140534526
 21
-0.0000000000002274
 31
0.0
  0
LINE
  5
3F
330
2
100
AcDbEntity
  8
KA
100
AcDbLine
 10
-29.0732694249051
 20
-13.83245084591339
 30
0.0
 11
-28.00337140534537
 21
-13.64379895845854
 31
0.0
  0
LINE
  5
40
330
2
100
AcDbEntity
  8
KA
100
AcDbLine
 10
-25.50159999999999
 20
-13.99539999999933
 30
0.0
 11
-28.00337140534537
 21
-13.64379895845854
 31
0.0
  0
LINE
  5
41
330
2
100
AcDbEntity
  8
KA
100
AcDbLine
 10
-25.50159999999999
 20
-13.99539999999933
 30
0.0
 11
-25.50159999999999
 21
-0.0000000000002274
 31
0.0
  0
LINE
  5
42
330
2
100
AcDbEntity
  8
KA
100
AcDbLine
 10
-29.9974
 20
-13.05701322119148
 30
0.0
 11
-29.9974
 21
-0.0000000000002274
 31
0.0
  0
LINE
  5
43
330
2
100
AcDbEntity
  8
KA
100
AcDbLine
 10
-1.841499999999996
 20
-13.99539999999933
 30
0.0
 11
-3.287531484212308
 21
-16.49999999999931
 31
0.0
  0
LINE
  5
44
330
2
100
AcDbEntity
  8
KA
100
AcDbLine
 10
-3.287531484212308
 20
-16.49999999999931
 30
0.0
 11
-11.39366851578768
 21
-16.49999999999931
 31
0.0
  0
LINE
  5
45
330
2
100
AcDbEntity
  8
KA
100
AcDbLine
 10
-12.83969999999999
 20
-13.99539999999933
 30
0.0
 11
-11.39366851578768
 21
-16.49999999999931
 31
0.0
  0
LINE
  5
46
330
2
100
AcDbEntity
  8
KA
100
AcDbLine
 10
-12.83969999999999
 20
13.99540000000047
 30
0.0
 11
-11.39366851578768
 21
16.49999999999977
 31
0.0
  0
LINE
  5
47
330
2
100
AcDbEntity
  8
KA
100
AcDbLine
 10
-1.841499999999996
 20
13.99540000000047
 30
0.0
 11
-3.287531484212308
 21
16.49999999999977
 31
0.0
  0
LINE
  5
48
330
2
100
AcDbEntity
  8
KA
100
AcDbLine
 10
-3.287531484212308
 20
16.49999999999977
 30
0.0
 11
-11.39366851578768
 21
16.49999999999977
 31
0.0
  0
LINE
  5
49
330
2
100
AcDbEntity
  8
KA
100
AcDbLine
 10
-12.83969999999999
 20
3.985777193973717
 30
0.0
 11
-12.83969999999999
 21
-3.98577719397349
 31
0.0
  0
LINE
  5
4A
330
2
100
AcDbEntity
  8
LINE
100
AcDbLine
 10
0.0
 20
24.0029999999997
 30
0.0
 11
0.0
 21
-0.0000000000002274
 31
0.0
  0
LINE
  5
4B
330
2
100
AcDbEntity
  8
HIDDEN
100
AcDbLine
 10
-0.5079999999999814
 20
6.743699999999762
 30
0.0
 11
-0.5079999999999814
 21
-0.0000000000002274
 31
0.0
  0
LINE
  5
4C
330
2
100
AcDbEntity
  8
LINE
100
AcDbLine
 10
0.0
 20
24.0029999999997
 30
0.0
 11
1.003299999999967
 21
25.00630000000046
 31
0.0
  0
LINE
  5
4D
330
2
100
AcDbEntity
  8
LINE
100
AcDbLine
 10
1.003300000000081
 20
25.00630000000046
 30
0.0
 11
1.003299999999967
 21
-0.0000000000002274
 31
0.0
  0
LINE
  5
4E
330
2
100
AcDbEntity
  8
KA
100
AcDbLine
 10
-1.49860000000001
 20
13.99540000000047
 30
0.0
 11
-0.283878376737789
 21
13.66991632201848
 31
0.0
  0
ARC
  5
4F
330
2
100
AcDbEntity
  8
KA
100
AcDbCircle
 10
-0.1524000000001138
 20
14.16060709679754
 30
0.0
 40
0.508
100
AcDbArc
 50
255.0001326659524
 51
15.0002167243324
  0
LINE
  5
50
330
2
100
AcDbEntity
  8
KA
100
AcDbLine
 10
0.3382903197548899
 20
14.29208717170945
 30
0.0
 11
0.0
 21
15.55460383274339
 31
0.0
  0
LINE
  5
51
330
2
100
AcDbEntity
  8
KA
100
AcDbLine
 10
-1.498600000000124
 20
13.99540000000047
 30
0.0
 11
-1.498600000000124
 21
-0.0000000000002274
 31
0.0
  0
LINE
  5
52
330
2
100
AcDbEntity
  8
KA
100
AcDbLine
 10
-1.841499999999996
 20
13.99540000000047
 30
0.0
 11
-1.498600000000124
 21
13.99540000000047
 31
0.0
  0
ARC
  5
53
330
2
100
AcDbEntity
  8
KA
100
AcDbCircle
 10
-7.340599999999994
 20
38.79297849448153
 30
0.0
 40
25.4
100
AcDbArc
 50
257.496456105334
 51
282.503543894666
  0
ARC
  5
54
330
2
100
AcDbEntity
  8
KA
100
AcDbCircle
 10
-7.340599999999994
 20
-38.79297849448244
 30
0.0
 40
25.4
100
AcDbArc
 50
77.49645610533402
 51
102.5035438946659
  0
LINE
  5
55
330
2
100
AcDbEntity
  8
KA
100
AcDbLine
 10
-1.841499999999996
 20
-13.99539999999933
 30
0.0
 11
-1.498600000000124
 21
-13.99539999999933
 31
0.0
  0
LINE
  5
56
330
2
100
AcDbEntity
  8
KA
100
AcDbLine
 10
-1.498600000000124
 20
-13.99539999999933
 30
0.0
 11
-1.498600000000124
 21
-0.0000000000002274
 31
0.0
  0
LINE
  5
57
330
2
100
AcDbEntity
  8
KA
100
AcDbLine
 10
0.3382903197548899
 20
-14.29208717170922
 30
0.0
 11
0.0
 21
-15.55460383274362
 31
0.0
  0
ARC
  5
58
330
2
100
AcDbEntity
  8
KA
100
AcDbCircle
 10
-0.1524000000001138
 20
-14.16060709679754
 30
0.0
 40
0.508
100
AcDbArc
 50
344.9997832756676
 51
104.9998673340475
  0
LINE
  5
59
330
2
100
AcDbEntity
  8
KA
100
AcDbLine
 10
-1.49860000000001
 20
-13.99539999999933
 30
0.0
 11
-0.2838783767378459
 21
-13.66991632201848
 31
0.0
  0
LINE
  5
5A
330
2
100
AcDbEntity
  8
HIDDEN
100
AcDbLine
 10
-0.5079999999999814
 20
-6.743700000000444
 30
0.0
 11
-0.5079999999999814
 21
-0.0000000000002274
 31
0.0
  0
LINE
  5
5B
330
2
100
AcDbEntity
  8
LINE
 62
     3
100
AcDbLine
 10
98.51242114092878
 20
24.9879988160344
 30
0.0
 11
98.51242114093015
 21
-25.00629999999637
 31
0.0
  0
LINE
  5
5C
330
2
100
AcDbEntity
  8
LINE
 62
     3
100
AcDbLine
 10
100.0124211123766
 20
-23.50629999999637
 30
0.0
 11
100.0124211123763
 21
23.48770614265049
 31
0.0
  0
LINE
  5
5D
330
2
100
AcDbEntity
  8
LINE
 62
     3
100
AcDbLine
 10
100.0124211123766
 20
-23.50629999999637
 30
0.0
 11
98.51242111237661
 21
-25.00629999999637
 31
0.0
  0
LINE
  5
5E
330
2
100
AcDbEntity
  8
LINE
 62
     3
100
AcDbLine
 10
98.51242114092901
 20
24.9879988160344
 30
0.0
 11
100.0124211123763
 21
23.48770614265049
 31
0.0
  0
DIMENSION
  5
73
330
2
100
AcDbEntity
  8
DIM
 62
     3
100
AcDbDimension
  2
*D0
 10
100.0124211123763
 20
53.53334166702484
 30
0.0
 11
35.00751055618819
 21
56.23334166702484
 31
0.0
 70
    32
 71
     5
 42
130.0098211123763
  3
STANDARD
100
AcDbAlignedDimension
 13
-29.9974
 23
13.05701322119148
 33
0.0
 14
100.0124211123763
 24
23.48770614265049
 34
0.0
100
AcDbRotatedDimension
  0
DIMENSION
  5
81
330
2
100
AcDbEntity
  8
DIM
 62
     3
100
AcDbDimension
  2
*D1
 10
100.0124211123763
 20
39.76528322972512
 30
0.0
 11
50.00621055618819
 21
42.46528322972513
 31
0.0
 70
    32
 71
     5
 42
100.0124211123763
  3
STANDARD
100
AcDbAlignedDimension
 13
0.0
 23
24.0029999999997
 33
0.0
 14
100.0124211123763
 24
23.48770614265049
 34
0.0
100
AcDbRotatedDimension
  0
DIMENSION
  5
8E
330
2
100
AcDbEntity
  8
DIM
 62
     3
100
AcDbDimension
  2
*D2
 10
128.8279001179321
 20
-25.00629999999638
 30
0.0
 11
126.1279001179321
 21
-0.0091505919809731
 31
0.0
 70
    32
  1
%%c<>
 71
     5
 42
49.99429881603077
  3
STANDARD
100
AcDbAlignedDimension
 13
98.51242114092901
 23
24.9879988160344
 33
0.0
 14
98.51242111237661
 24
-25.00629999999637
 34
0.0
 50
90.0
100
AcDbRotatedDimension
  0
ENDSEC
  0
SECTION
  2
OBJECTS
  0
DICTIONARY
  5
1A
330
0
100
AcDbDictionary
281
     1
  3
ACAD_GROUP
350
18
  3
ACAD_LAYOUT
350
62
  3
ACAD_MLINESTYLE
350
19
  3
ACAD_PLOTSETTINGS
350
63
  3
ACAD_PLOTSTYLENAME
350
60
  3
AcDbVariableDictionary
350
69
  0
DICTIONARY
  5
18
102
{ACAD_REACTORS
330
1A
102
}
330
1A
100
AcDbDictionary
281
     1
  0
DICTIONARY
  5
62
102
{ACAD_REACTORS
330
1A
102
}
330
1A
100
AcDbDictionary
281
     1
  3
Layout1
350
65
  3
Model
350
64
  0
DICTIONARY
  5
19
102
{ACAD_REACTORS
330
1A
102
}
330
1A
100
AcDbDictionary
281
     1
  3
STANDARD
350
1D
  0
DICTIONARY
  5
63
102
{ACAD_REACTORS
330
1A
102
}
330
1A
100
AcDbDictionary
281
     1
  0
ACDBDICTIONARYWDFLT
  5
60
102
{ACAD_REACTORS
330
1A
102
}
330
1A
100
AcDbDictionary
281
     1
  3
Normal
350
61
100
AcDbDictionaryWithDefault
340
61
  0
DICTIONARY
  5
69
102
{ACAD_REACTORS
330
1A
102
}
330
1A
100
AcDbDictionary
281
     1
  3
DIMASSOC
350
6A
  0
LAYOUT
  5
65
102
{ACAD_REACTORS
330
62
102
}
330
62
100
AcDbPlotSettings
  1

  2
\\PRINT_SRV\HP LaserJet (Engineering)
  4

  6

 40
0.0
 41
0.0
 42
0.0
 43
0.0
 44
0.0
 45
0.0
 46
0.0
 47
0.0
 48
0.0
 49
0.0
140
0.0
141
0.0
142
1.0
143
1.0
 70
   688
 72
     0
 73
     0
 74
     5
  7
KPT.ctb
 75
    16
147
1.0
148
0.0
149
0.0
100
AcDbLayout
  1
Layout1
 70
     1
 71
     1
 10
0.0
 20
0.0
 11
12.0
 21
9.0
 12
0.0
 22
0.0
 32
0.0
 14
1.000000000000000E+20
 24
1.000000000000000E+20
 34
1.000000000000000E+20
 15
-1.000000000000000E+20
 25
-1.000000000000000E+20
 35
-1.000000000000000E+20
146
0.0
 13
0.0
 23
0.0
 33
0.0
 16
1.0
 26
0.0
 36
0.0
 17
0.0
 27
1.0
 37
0.0
 76
     0
330
7
  0
LAYOUT
  5
64
102
{ACAD_REACTORS
330
62
102
}
330
62
100
AcDbPlotSettings
  1

  2
\\PRINT_SRV\HP LaserJet (Engineering)
  4

  6

 40
0.0
 41
0.0
 42
0.0
 43
0.0
 44
0.0
 45
0.0
 46
0.0
 47
0.0
 48
0.0
 49
0.0
140
0.0
141
0.0
142
1.0
143
1.0
 70
  1712
 72
     0
 73
     0
 74
     0
  7
KPT.ctb
 75
     0
147
1.0
148
0.0
149
0.0
100
AcDbLayout
  1
Model
 70
     1
 71
     0
 10
0.0
 20
0.0
 11
12.0
 21
9.0
 12
0.0
 22
0.0
 32
0.0
 14
0.0
 24
0.0
 34
0.0
 15
0.0
 25
0.0
 35
0.0
146
0.0
 13
0.0
 23
0.0
 33
0.0
 16
1.0
 26
0.0
 36
0.0
 17
0.0
 27
1.0
 37
0.0
 76
     0
330
2
  0
MLINESTYLE
  5
1D
102
{ACAD_REACTORS
330
19
102
}
330
19
100
AcDbMlineStyle
  2
STANDARD
 70
     0
  3

 62
   256
 51
90.0
 52
90.0
 71
     2
 49
0.5
 62
   256
  6
BYLAYER
 49
-0.5
 62
   256
  6
BYLAYER
  0
ACDBPLACEHOLDER
  5
61
102
{ACAD_REACTORS
330
60
102
}
330
60
  0
DICTIONARYVAR
  5
6A
102
{ACAD_REACTORS
330
69
102
}
330
69
100
DictionaryVariables
280
     0
  1
1
  0
ENDSEC
  0
EOF
