  0
SECTION
  2
HEADER
  9
$ACADVER
  1
AC1009
  9
$DWGCODEPAGE
  3
ansi_1252
  9
$INSBASE
 10
0.0
 20
0.0
 30
0.0
  9
$EXTMIN
 10
-4.062491875000032
 20
-1.937496124999981
 30
0.0
  9
$EXTMAX
 10
4.797595102226938
 20
4.068051183275062
 30
0.0
  9
$LIMMIN
 10
0.0
 20
0.0
  9
$LIMMAX
 10
5.5
 20
4.25
  9
$ORTHOMODE
 70
     1
  9
$REGENMODE
 70
     1
  9
$FILLMODE
 70
     1
  9
$QTEXTMODE
 70
     0
  9
$MIRRTEXT
 70
     1
  9
$DRAGMODE
 70
     2
  9
$LTSCALE
 40
10.0
  9
$OSMODE
 70
   511
  9
$ATTMODE
 70
     1
  9
$TEXTSIZE
 40
0.2
  9
$TRACEWID
 40
0.05
  9
$TEXTSTYLE
  7
STANDARD
  9
$CLAYER
  8
250
  9
$CELTYPE
  6
BYLAYER
  9
$CECOLOR
 62
   256
  9
$DIMSCALE
 40
1.0
  9
$DIMASZ
 40
0.18
  9
$DIMEXO
 40
0.0625
  9
$DIMDLI
 40
0.38
  9
$DIMRND
 40
0.0
  9
$DIMDLE
 40
0.0
  9
$DIMEXE
 40
0.18
  9
$DIMTP
 40
0.0
  9
$DIMTM
 40
0.0
  9
$DIMTXT
 40
0.18
  9
$DIMCEN
 40
0.09
  9
$DIMTSZ
 40
0.0
  9
$DIMTOL
 70
     0
  9
$DIMLIM
 70
     0
  9
$DIMTIH
 70
     0
  9
$DIMTOH
 70
     0
  9
$DIMSE1
 70
     0
  9
$DIMSE2
 70
     0
  9
$DIMTAD
 70
     1
  9
$DIMZIN
 70
     0
  9
$DIMBLK
  1

  9
$DIMASO
 70
     1
  9
$DIMSHO
 70
     0
  9
$DIMPOST
  1

  9
$DIMAPOST
  1

  9
$DIMALT
 70
     0
  9
$DIMALTD
 70
     2
  9
$DIMALTF
 40
25.4
  9
$DIMLFAC
 40
1.0
  9
$DIMTOFL
 70
     0
  9
$DIMTVP
 40
0.0
  9
$DIMTIX
 70
     0
  9
$DIMSOXD
 70
     0
  9
$DIMSAH
 70
     0
  9
$DIMBLK1
  1

  9
$DIMBLK2
  1

  9
$DIMSTYLE
  2
STANDARD
  9
$DIMCLRD
 70
     0
  9
$DIMCLRE
 70
     0
  9
$DIMCLRT
 70
     0
  9
$DIMTFAC
 40
1.0
  9
$DIMGAP
 40
0.09
  9
$LUNITS
 70
     2
  9
$LUPREC
 70
     4
  9
$SKETCHINC
 40
0.1
  9
$FILLETRAD
 40
0.0
  9
$AUNITS
 70
     0
  9
$AUPREC
 70
     0
  9
$MENU
  1
acad
  9
$ELEVATION
 40
0.0
  9
$PELEVATION
 40
0.0
  9
$THICKNESS
 40
0.0
  9
$LIMCHECK
 70
     0
  9
$CHAMFERA
 40
0.0
  9
$CHAMFERB
 40
0.0
  9
$SKPOLY
 70
     0
  9
$TDCREATE
 40
2448495.471319306
  9
$TDUPDATE
 40
2452852.586935394
  9
$TDINDWG
 40
0.0749988079
  9
$TDUSRTIMER
 40
2458339.608208472
  9
$USRTIMER
 70
     1
  9
$ANGBASE
 50
0.0
  9
$ANGDIR
 70
     0
  9
$PDMODE
 70
     0
  9
$PDSIZE
 40
0.0
  9
$PLINEWID
 40
0.0
  9
$COORDS
 70
     1
  9
$SPLFRAME
 70
     0
  9
$SPLINETYPE
 70
     6
  9
$SPLINESEGS
 70
     8
  9
$ATTDIA
 70
     0
  9
$ATTREQ
 70
     1
  9
$HANDLING
 70
     1
  9
$HANDSEED
  5
47E
  9
$SURFTAB1
 70
     6
  9
$SURFTAB2
 70
     6
  9
$SURFTYPE
 70
     6
  9
$SURFU
 70
     6
  9
$SURFV
 70
     6
  9
$UCSNAME
  2

  9
$UCSORG
 10
0.0
 20
0.0
 30
0.0
  9
$UCSXDIR
 10
1.0
 20
0.0
 30
0.0
  9
$UCSYDIR
 10
0.0
 20
1.0
 30
0.0
  9
$PUCSNAME
  2

  9
$PUCSORG
 10
0.0
 20
0.0
 30
0.0
  9
$PUCSXDIR
 10
1.0
 20
0.0
 30
0.0
  9
$PUCSYDIR
 10
0.0
 20
1.0
 30
0.0
  9
$USERI1
 70
     0
  9
$USERI2
 70
     0
  9
$USERI3
 70
     0
  9
$USERI4
 70
     0
  9
$USERI5
 70
     0
  9
$USERR1
 40
0.0
  9
$USERR2
 40
0.0
  9
$USERR3
 40
0.0
  9
$USERR4
 40
0.0
  9
$USERR5
 40
0.0
  9
$WORLDVIEW
 70
     1
  9
$SHADEDGE
 70
     3
  9
$SHADEDIF
 70
    70
  9
$TILEMODE
 70
     1
  9
$MAXACTVP
 70
    48
  9
$PLIMCHECK
 70
     0
  9
$PEXTMIN
 10
1.000000000000000E+20
 20
1.000000000000000E+20
 30
1.000000000000000E+20
  9
$PEXTMAX
 10
-1.000000000000000E+20
 20
-1.000000000000000E+20
 30
-1.000000000000000E+20
  9
$PLIMMIN
 10
0.0
 20
0.0
  9
$PLIMMAX
 10
12.0
 20
9.0
  9
$UNITMODE
 70
     0
  9
$VISRETAIN
 70
     0
  9
$PLINEGEN
 70
     0
  9
$PSLTSCALE
 70
     0
  0
ENDSEC
  0
SECTION
  2
TABLES
  0
TABLE
  2
VPORT
 70
     1
  0
VPORT
  2
*ACTIVE
 70
     0
 10
0.0
 20
0.0
 11
1.0
 21
1.0
 12
7.29981098578169
 22
17.15537814789501
 13
0.0
 23
0.0
 14
1.0
 24
1.0
 15
0.0
 25
0.0
 16
0.0
 26
0.0
 36
1.0
 17
0.0
 27
0.0
 37
0.0
 40
169.6190829195837
 41
1.328822733423545
 42
50.0
 43
0.0
 44
0.0
 50
0.0
 51
0.0
 71
    16
 72
   100
 73
     1
 74
     1
 75
     0
 76
     0
 77
     0
 78
     0
  0
ENDTAB
  0
TABLE
  2
LTYPE
 70
     3
  0
LTYPE
  2
CONTINUOUS
 70
     0
  3
Solid line
 72
    65
 73
     0
 40
0.0
  0
LTYPE
  2
HIDDEN
 70
     0
  3
_ _ _ _ _ _ _ _ _ _ _ _ _ _ _ _ _ _ _ _ _ _ _
 72
    65
 73
     2
 40
0.375
 49
0.25
 49
-0.125
  0
LTYPE
  2
CENTER
 70
     0
  3
____ _ ____ _ ____ _ ____ _ ____ _ ____ _ ____
 72
    65
 73
     4
 40
2.0
 49
1.25
 49
-0.25
 49
0.25
 49
-0.25
  0
ENDTAB
  0
TABLE
  2
LAYER
 70
     6
  0
LAYER
  2
0
 70
     0
 62
     7
  6
CONTINUOUS
  0
LAYER
  2
240
 70
     0
 62
     4
  6
CONTINUOUS
  0
LAYER
  2
243
 70
     0
 62
     6
  6
HIDDEN
  0
LAYER
  2
245
 70
     0
 62
     2
  6
CENTER
  0
LAYER
  2
250
 70
     0
 62
     3
  6
CONTINUOUS
  0
LAYER
  2
DEFPOINTS
 70
     0
 62
     7
  6
CONTINUOUS
  0
ENDTAB
  0
TABLE
  2
STYLE
 70
     1
  0
STYLE
  2
STANDARD
 70
     0
 40
0.0
 41
1.0
 50
0.0
 71
     0
 42
0.2
  3
txt
  4

  0
ENDTAB
  0
TABLE
  2
VIEW
 70
     0
  0
ENDTAB
  0
TABLE
  2
UCS
 70
     0
  0
ENDTAB
  0
TABLE
  2
APPID
 70
     1
  0
APPID
  2
ACAD
 70
     0
  0
ENDTAB
  0
TABLE
  2
DIMSTYLE
 70
     1
  0
DIMSTYLE
  2
STANDARD
 70
     0
  3

  4

  5

  6

  7

 40
1.0
 41
0.18
 42
0.0625
 43
0.38
 44
0.18
 45
0.0
 46
0.0
 47
0.0
 48
0.0
140
0.18
141
0.09
142
0.0
143
25.4
144
1.0
145
0.0
146
1.0
147
0.09
 71
     0
 72
     0
 73
     0
 74
     0
 75
     0
 76
     0
 77
     1
 78
     0
170
     0
171
     2
172
     0
173
     0
174
     0
175
     0
176
     0
177
     0
178
     0
  0
ENDTAB
  0
ENDSEC
  0
SECTION
  2
BLOCKS
  0
BLOCK
  8
0
  2
$MODEL_SPACE
 70
     0
 10
0.0
 20
0.0
 30
0.0
  3
$MODEL_SPACE
  1

  0
ENDBLK
  5
2C
  8
0
  0
BLOCK
 67
     1
  8
0
  2
$PAPER_SPACE
 70
     0
 10
0.0
 20
0.0
 30
0.0
  3
$PAPER_SPACE
  1

  0
ENDBLK
  5
2A
 67
     1
  8
0
  0
BLOCK
  8
243
  2
DK
 70
     0
 10
0.0
 20
0.0
 30
0.0
  3
DK
  1

  0
LINE
  5
30
  8
243
 10
3.17500000000006
 20
-35.29999999999999
 30
0.0
 11
19.05000000000006
 21
-35.29999999999999
 31
0.0
  0
LINE
  5
31
  8
243
 10
20.62500000000006
 20
28.32500000000002
 30
0.0
 11
26.97500000000005
 21
24.6588257906459
 31
0.0
  0
LINE
  5
32
  8
243
 10
33.32500000000004
 20
28.32500000000001
 30
0.0
 11
26.97500000000005
 21
24.6588257906459
 31
0.0
  0
LINE
  5
33
  8
243
 10
33.32500000000004
 20
34.92500000000001
 30
0.0
 11
33.32500000000004
 21
28.32500000000001
 31
0.0
  0
LINE
  5
34
  8
243
 10
20.62500000000006
 20
28.32500000000001
 30
0.0
 11
33.32500000000003
 21
28.32500000000002
 31
0.0
  0
LINE
  5
35
  8
243
 10
20.62500000000006
 20
34.92500000000001
 30
0.0
 11
20.62500000000006
 21
28.32500000000001
 31
0.0
  0
LINE
  5
36
  8
243
 10
15.88408999999988
 20
37.72
 30
0.0
 11
15.88408999999988
 21
37.35682493324103
 31
0.0
  0
LINE
  5
37
  8
243
 10
6.384089999999893
 20
37.35682493324103
 30
0.0
 11
15.88408999999988
 21
37.35682493324103
 31
0.0
  0
LINE
  5
38
  8
243
 10
6.384089999999893
 20
37.72
 30
0.0
 11
6.384089999999893
 21
37.35682493324103
 31
0.0
  0
LINE
  5
39
  8
243
 10
3.17500000000006
 20
37.72
 30
0.0
 11
19.05000000000006
 21
37.72
 31
0.0
  0
LINE
  5
3A
  8
243
 10
6.384089999999893
 20
37.35682493324105
 30
0.0
 11
11.13408999999988
 21
34.61441115459033
 31
0.0
  0
LINE
  5
3B
  8
243
 10
15.88408999999988
 20
37.35682493324105
 30
0.0
 11
11.13408999999988
 21
34.61441115459033
 31
0.0
  0
ENDBLK
  5
3C
  8
243
  0
BLOCK
  8
0
  2
*D2
 70
     1
 10
0.0
 20
0.0
 30
0.0
  3
*D2
  1

  0
LINE
  5
206
  8
250
 62
     0
 10
0.0
 20
34.98743015000015
 30
0.0
 11
0.0
 21
79.70315787078955
 31
0.0
  0
LINE
  5
207
  8
250
 62
     0
 10
82.99983400000092
 20
44.0553020066
 30
0.0
 11
82.99983400000092
 21
79.70315787078955
 31
0.0
  0
LINE
  5
208
  8
250
 62
     0
 10
3.0
 20
79.52315787078955
 30
0.0
 11
79.99983400000092
 21
79.52315787078955
 31
0.0
  0
SOLID
  5
209
  8
250
 62
     0
 10
3.0
 20
80.02315787078955
 30
0.0
 11
3.0
 21
79.02315787078955
 31
0.0
 12
0.0
 22
79.52315787078955
 32
0.0
 13
0.0
 23
79.52315787078955
 33
0.0
  0
SOLID
  5
20A
  8
250
 62
     0
 10
79.99983400000092
 20
79.02315787078955
 30
0.0
 11
79.99983400000092
 21
80.02315787078955
 31
0.0
 12
82.99983400000092
 22
79.52315787078955
 32
0.0
 13
82.99983400000092
 23
79.52315787078955
 33
0.0
  0
TEXT
  5
20B
  8
250
  6
CONTINUOUS
 62
     0
 10
37.24991700000046
 20
80.52315787078955
 30
0.0
 40
3.0
  1
83.0
  0
POINT
  5
20C
  8
DEFPOINTS
 62
     0
 10
0.0
 20
34.92493015000015
 30
0.0
  0
POINT
  5
20D
  8
DEFPOINTS
 62
     0
 10
82.99983400000092
 20
43.9928020066
 30
0.0
  0
POINT
  5
20E
  8
DEFPOINTS
 62
     0
 10
82.99983400000092
 20
79.52315787078955
 30
0.0
  0
ENDBLK
  5
1A6
  8
0
  0
BLOCK
  8
0
  2
*D3
 70
     1
 10
0.0
 20
0.0
 30
0.0
  3
*D3
  1

  0
LINE
  5
1F4
  8
250
 62
     0
 10
34.42493114999918
 20
40.05860999999936
 30
0.0
 11
34.42493114999918
 21
59.88780406391643
 31
0.0
  0
LINE
  5
1F5
  8
250
 62
     0
 10
82.99983400000092
 20
44.0553020066
 30
0.0
 11
82.99983400000092
 21
59.88780406391643
 31
0.0
  0
LINE
  5
1F6
  8
250
 62
     0
 10
37.42493114999918
 20
59.70780406391643
 30
0.0
 11
79.99983400000092
 21
59.70780406391643
 31
0.0
  0
SOLID
  5
1F7
  8
250
 62
     0
 10
37.42493114999918
 20
60.20780406391643
 30
0.0
 11
37.42493114999918
 21
59.20780406391643
 31
0.0
 12
34.42493114999918
 22
59.70780406391643
 32
0.0
 13
34.42493114999918
 23
59.70780406391643
 33
0.0
  0
SOLID
  5
1F8
  8
250
 62
     0
 10
79.99983400000092
 20
59.20780406391643
 30
0.0
 11
79.99983400000092
 21
60.20780406391643
 31
0.0
 12
82.99983400000092
 22
59.70780406391643
 32
0.0
 13
82.99983400000092
 23
59.70780406391643
 33
0.0
  0
TEXT
  5
1F9
  8
250
  6
CONTINUOUS
 62
     0
 10
54.21238257500005
 20
60.70780406391643
 30
0.0
 40
3.0
  1
48.6
  0
POINT
  5
1FA
  8
DEFPOINTS
 62
     0
 10
34.42493114999918
 20
39.99610999999936
 30
0.0
  0
POINT
  5
1FB
  8
DEFPOINTS
 62
     0
 10
82.99983400000092
 20
43.9928020066
 30
0.0
  0
POINT
  5
1FC
  8
DEFPOINTS
 62
     0
 10
82.99983400000092
 20
59.70780406391643
 30
0.0
  0
ENDBLK
  5
1B3
  8
0
  0
BLOCK
  8
0
  2
*D4
 70
     1
 10
0.0
 20
0.0
 30
0.0
  3
*D4
  1

  0
LINE
  5
1E2
  8
250
 62
     0
 10
82.05903600660051
 20
44.99610000000038
 30
0.0
 11
117.4669155965642
 21
44.99610000000037
 31
0.0
  0
LINE
  5
1E3
  8
250
 62
     0
 10
82.05903600660052
 20
-44.9961
 30
0.0
 11
117.4669155965642
 21
-44.9961
 31
0.0
  0
LINE
  5
1E4
  8
250
 62
     0
 10
117.2869155965642
 20
41.99610000000037
 30
0.0
 11
117.2869155965642
 21
-41.9961
 31
0.0
  0
SOLID
  5
1E5
  8
250
 62
     0
 10
117.7869155965642
 20
41.99610000000037
 30
0.0
 11
116.7869155965642
 21
41.99610000000037
 31
0.0
 12
117.2869155965642
 22
44.99610000000037
 32
0.0
 13
117.2869155965642
 23
44.99610000000037
 33
0.0
  0
SOLID
  5
1E6
  8
250
 62
     0
 10
116.7869155965642
 20
-41.9961
 30
0.0
 11
117.7869155965642
 21
-41.9961
 31
0.0
 12
117.2869155965642
 22
-44.9961
 32
0.0
 13
117.2869155965642
 23
-44.9961
 33
0.0
  0
INSERT
  5
1E7
  8
250
 62
     0
  2
*X5
 10
0.0
 20
0.0
 30
0.0
  0
POINT
  5
1E8
  8
DEFPOINTS
 62
     0
 10
81.99653600660051
 20
44.99610000000038
 30
0.0
  0
POINT
  5
1E9
  8
DEFPOINTS
 62
     0
 10
81.99653600660052
 20
-44.9961
 30
0.0
  0
POINT
  5
1EA
  8
DEFPOINTS
 62
     0
 10
117.2869155965642
 20
-44.9961
 30
0.0
  0
ENDBLK
  5
1C0
  8
0
  0
BLOCK
  8
0
  2
*X5
 70
     1
 10
0.0
 20
0.0
 30
0.0
  3
*X5
  1

  0
TEXT
  5
477
  8
250
  6
CONTINUOUS
 62
     0
 10
116.2869155965642
 20
-5.499999999999815
 30
0.0
 40
3.0
  1
ø
 50
90.0
  0
TEXT
  5
478
  8
250
  6
CONTINUOUS
 62
     0
 10
116.2869155965642
 20
-2.499999999999815
 30
0.0
 40
3.0
  1
90.0
 50
90.0
  0
ENDBLK
  5
47A
  8
0
  0
ENDSEC
  0
SECTION
  2
ENTITIES
  0
LINE
  5
E4
  8
240
 10
34.42493114999918
 20
39.99610999999936
 30
0.0
 11
34.42493114999918
 21
-39.99610999999911
 31
0.0
  0
LINE
  5
E5
  8
243
 10
-51.22526689224602
 20
-11.11247777500006
 30
0.0
 11
-57.14988570000064
 21
-12.69997459999971
 31
0.0
  0
LINE
  5
E7
  8
243
 10
-57.14988570000064
 20
12.69997459999988
 30
0.0
 11
-51.22526689224602
 21
11.11247777500024
 31
0.0
  0
LINE
  5
E8
  8
240
 10
14.66018703412032
 20
0.0
 30
0.0
 11
14.66018703412032
 21
49.2124015749997
 31
0.0
  0
LINE
  5
E9
  8
240
 10
14.66018703412032
 20
-49.21240157499951
 30
0.0
 11
14.66018703412032
 21
0.0
 31
0.0
  0
LINE
  5
EA
  8
240
 10
7.607948429516069
 20
0.0
 30
0.0
 11
7.607948429516069
 21
49.2124015749997
 31
0.0
  0
LINE
  5
EB
  8
240
 10
7.607948429516069
 20
-49.21240157499951
 30
0.0
 11
7.607948429516069
 21
0.0
 31
0.0
  0
ARC
  5
EC
  8
240
 10
2.666994665999479
 20
-35.43292913399997
 30
0.0
 40
0.507998984
 50
0.0
 51
90.0
  0
ARC
  5
ED
  8
240
 10
2.666994665999479
 20
35.43292913399997
 30
0.0
 40
0.507998984
 50
270.0
 51
0.0
  0
LINE
  5
EE
  8
240
 10
3.174993649999294
 20
0.0
 30
0.0
 11
3.174993649999294
 21
-48.45040309899974
 31
0.0
  0
LINE
  5
EF
  8
240
 10
3.174993649999294
 20
0.0
 30
0.0
 11
3.174993649999294
 21
48.45040309899997
 31
0.0
  0
ARC
  5
F0
  8
240
 10
19.81196037599982
 20
-35.68692862599987
 30
0.0
 40
0.7619984759999999
 50
90.0
 51
180.0
  0
ARC
  5
F1
  8
240
 10
19.81196037599982
 20
35.68692862599987
 30
0.0
 40
0.7619984759999999
 50
180.0
 51
269.9999999999998
  0
LINE
  5
F2
  8
240
 10
19.04996189999919
 20
0.0
 30
0.0
 11
19.04996189999919
 21
-48.45040309899974
 31
0.0
  0
LINE
  5
F3
  8
240
 10
19.04996189999919
 20
0.0
 30
0.0
 11
19.04996189999919
 21
48.45040309899997
 31
0.0
  0
LINE
  5
F4
  8
240
 10
34.42493114999918
 20
-34.92493015000015
 30
0.0
 11
19.81196037599982
 21
-34.92493015000015
 31
0.0
  0
LINE
  5
F5
  8
240
 10
19.81196037599982
 20
34.92493015000015
 30
0.0
 11
34.42493114999918
 21
34.92493015000015
 31
0.0
  0
LINE
  5
F6
  8
240
 10
0.0
 20
-34.92493015000015
 30
0.0
 11
2.666994665999479
 21
-34.92493015000015
 31
0.0
  0
LINE
  5
F7
  8
240
 10
9.216371567219374
 20
-45.64370871239974
 30
0.0
 11
13.05176389641955
 21
-45.64370871239974
 31
0.0
  0
LINE
  5
F8
  8
243
 10
-95.24980950000084
 20
-12.69997459999971
 30
0.0
 11
-57.14988570000064
 21
-12.69997459999971
 31
0.0
  0
LINE
  5
F9
  8
243
 10
-95.24980950000084
 20
-11.11247777500006
 30
0.0
 11
-19.82175979706588
 21
-11.11247777500006
 31
0.0
  0
LINE
  5
FA
  8
243
 10
-99.64206368767954
 20
-13.15717368559965
 30
0.0
 11
-95.24980950000084
 21
-13.15717368559965
 31
0.0
  0
LINE
  5
FB
  8
240
 10
0.0
 20
0.0
 30
0.0
 11
0.0
 21
-34.92493015000015
 31
0.0
  0
LINE
  5
FC
  8
240
 10
-101.5997968000005
 20
0.0
 30
0.0
 11
-101.5997968000005
 21
-17.4725574493741
 31
0.0
  0
LINE
  5
FD
  8
243
 10
-95.24980950000084
 20
0.0
 30
0.0
 11
-95.24980950000084
 21
-13.15717368559965
 31
0.0
  0
LINE
  5
FE
  8
240
 10
0.0
 20
-34.92493015000015
 30
0.0
 11
-98.99164942634397
 21
-20.48864794346769
 31
0.0
  0
ARC
  5
FF
  8
240
 10
-98.55180289600052
 20
-17.4725574493741
 30
0.0
 40
3.047993904
 50
180.0
 51
261.702855031
  0
LINE
  5
100
  8
243
 10
-101.5997968000005
 20
-14.28747142500025
 30
0.0
 11
-99.64206368767954
 21
-13.15717368559965
 31
0.0
  0
LINE
  5
101
  8
243
 10
-99.64206368767954
 20
-13.15717368559965
 30
0.0
 11
-99.64206368767954
 21
0.0
 31
0.0
  0
LINE
  5
102
  8
243
 10
-57.14988570000064
 20
-12.69997459999971
 30
0.0
 11
-57.14988570000064
 21
0.0
 31
0.0
  0
LINE
  5
103
  8
240
 10
13.05176389641955
 20
-46.42653098043346
 30
0.0
 11
14.66018703412032
 21
-49.21240157499951
 31
0.0
  0
LINE
  5
104
  8
240
 10
9.216371567219374
 20
-46.42653098042721
 30
0.0
 11
7.607948429516069
 21
-49.21240157499951
 31
0.0
  0
LINE
  5
105
  8
240
 10
14.66018703412032
 20
-49.21240157499951
 30
0.0
 11
18.28796342399947
 21
-49.21240157499951
 31
0.0
  0
LINE
  5
106
  8
240
 10
3.936992125999919
 20
-49.21240157499951
 30
0.0
 11
7.607948429516069
 21
-49.21240157499951
 31
0.0
  0
LINE
  5
107
  8
240
 10
13.05176389641955
 20
-46.42653098043346
 30
0.0
 11
13.05176389641955
 21
-45.64370871239974
 31
0.0
  0
LINE
  5
108
  8
240
 10
9.216371567219374
 20
-46.42653098042805
 30
0.0
 11
9.216371567219374
 21
-45.64370871239974
 31
0.0
  0
LINE
  5
109
  8
240
 10
18.28796342399947
 20
-49.21240157499951
 30
0.0
 11
19.04996189999919
 21
-48.45040309899974
 31
0.0
  0
LINE
  5
10A
  8
240
 10
3.174993649999294
 20
-48.45040309899974
 30
0.0
 11
3.936992125999919
 21
-49.21240157499951
 31
0.0
  0
LINE
  5
10D
  8
240
 10
9.216371567219374
 20
-45.64370871239974
 30
0.0
 11
9.216371567219374
 21
0.0
 31
0.0
  0
LINE
  5
10E
  8
240
 10
13.05176389641955
 20
-45.64370871239974
 30
0.0
 11
13.05176389641955
 21
0.0
 31
0.0
  0
LINE
  5
10F
  8
240
 10
13.05176389641955
 20
45.64370871239995
 30
0.0
 11
13.05176389641955
 21
0.0
 31
0.0
  0
LINE
  5
110
  8
240
 10
9.216371567219374
 20
45.64370871239995
 30
0.0
 11
9.216371567219374
 21
0.0
 31
0.0
  0
LINE
  5
113
  8
240
 10
3.174993649999294
 20
48.45040309899997
 30
0.0
 11
3.936992125999919
 21
49.2124015749997
 31
0.0
  0
LINE
  5
114
  8
240
 10
18.28796342399947
 20
49.2124015749997
 30
0.0
 11
19.04996189999919
 21
48.45040309899997
 31
0.0
  0
LINE
  5
115
  8
240
 10
9.216371567219374
 20
46.42653098042737
 30
0.0
 11
9.216371567219374
 21
45.64370871239995
 31
0.0
  0
LINE
  5
116
  8
240
 10
13.05176389641955
 20
46.42653098043366
 30
0.0
 11
13.05176389641955
 21
45.64370871239995
 31
0.0
  0
LINE
  5
117
  8
240
 10
3.936992125999919
 20
49.2124015749997
 30
0.0
 11
7.607948429516069
 21
49.2124015749997
 31
0.0
  0
LINE
  5
118
  8
240
 10
14.66018703412032
 20
49.2124015749997
 30
0.0
 11
18.28796342399947
 21
49.2124015749997
 31
0.0
  0
LINE
  5
119
  8
240
 10
9.216371567219374
 20
46.42653098042737
 30
0.0
 11
7.607948429516069
 21
49.2124015749997
 31
0.0
  0
LINE
  5
11A
  8
240
 10
13.05176389641955
 20
46.42653098043366
 30
0.0
 11
14.66018703412032
 21
49.2124015749997
 31
0.0
  0
LINE
  5
11B
  8
243
 10
-57.14988570000064
 20
12.69997459999988
 30
0.0
 11
-57.14988570000064
 21
0.0
 31
0.0
  0
LINE
  5
11C
  8
243
 10
-99.64206368767954
 20
13.15717368559965
 30
0.0
 11
-99.64206368767954
 21
0.0
 31
0.0
  0
LINE
  5
11D
  8
243
 10
-101.5997968000005
 20
14.28747142500043
 30
0.0
 11
-99.64206368767954
 21
13.15717368559965
 31
0.0
  0
ARC
  5
11E
  8
240
 10
-98.55180289600052
 20
17.4725574493741
 30
0.0
 40
3.047993904
 50
98.29714496900004
 51
179.9999999999999
  0
LINE
  5
11F
  8
240
 10
0.0
 20
34.92493015000015
 30
0.0
 11
-98.99164942634397
 21
20.48864794346769
 31
0.0
  0
LINE
  5
120
  8
243
 10
-95.24980950000084
 20
0.0
 30
0.0
 11
-95.24980950000084
 21
13.15717368559965
 31
0.0
  0
LINE
  5
121
  8
240
 10
-101.5997968000005
 20
0.0
 30
0.0
 11
-101.5997968000005
 21
17.4725574493741
 31
0.0
  0
LINE
  5
122
  8
240
 10
0.0
 20
0.0
 30
0.0
 11
0.0
 21
34.92493015000015
 31
0.0
  0
LINE
  5
123
  8
243
 10
-99.64206368767954
 20
13.15717368559965
 30
0.0
 11
-95.24980950000084
 21
13.15717368559965
 31
0.0
  0
LINE
  5
124
  8
243
 10
-95.24980950000084
 20
11.11247777500024
 30
0.0
 11
-19.82175979706588
 21
11.11247777500024
 31
0.0
  0
LINE
  5
125
  8
243
 10
-95.24980950000084
 20
12.69997459999988
 30
0.0
 11
-57.14988570000064
 21
12.69997459999988
 31
0.0
  0
LINE
  5
126
  8
240
 10
9.216371567219374
 20
45.64370871239995
 30
0.0
 11
13.05176389641955
 21
45.64370871239995
 31
0.0
  0
LINE
  5
127
  8
240
 10
0.0
 20
34.92493015000015
 30
0.0
 11
2.666994665999479
 21
34.92493015000015
 31
0.0
  0
LINE
  5
128
  8
245
 10
-103.1872936250008
 20
0.0
 30
0.0
 11
92.4325998852897
 21
0.0
 31
0.0
  0
LINE
  5
129
  8
240
 10
82.99983399999982
 20
0.0
 30
0.0
 11
82.99983399999982
 21
43.99280200660114
 31
0.0
  0
LINE
  5
12A
  8
243
 10
60.00017999940056
 20
-22.99965400060016
 30
0.0
 11
60.00017999940056
 21
-32.13093573800028
 31
0.0
  0
LINE
  5
12B
  8
240
 10
81.99653600660052
 20
44.99610000000038
 30
0.0
 11
82.99983400000092
 21
43.9928020066
 31
0.0
  0
LINE
  5
12C
  8
243
 10
30.39653920680081
 20
22.99965400059944
 30
0.0
 11
82.99983400000002
 21
22.99965400059944
 31
0.0
  0
LINE
  5
12D
  8
243
 10
30.39653920680081
 20
22.99965400059944
 30
0.0
 11
26.35526861011115
 21
15.99996800000014
 31
0.0
  0
LINE
  5
12E
  8
243
 10
30.39653920680081
 20
0.0
 30
0.0
 11
30.39653920680081
 21
22.99965400059944
 31
0.0
  0
LINE
  5
12F
  8
243
 10
30.39653920680081
 20
-22.99965400060016
 30
0.0
 11
26.35526861011115
 21
-15.99996799999942
 31
0.0
  0
LINE
  5
130
  8
243
 10
30.39653920680081
 20
0.0
 30
0.0
 11
30.39653920680081
 21
-22.99965400060016
 31
0.0
  0
LINE
  5
131
  8
243
 10
30.39653920680081
 20
-22.99965400060016
 30
0.0
 11
82.99983400000092
 21
-22.99965400060016
 31
0.0
  0
LINE
  5
133
  8
240
 10
82.99983400000092
 20
0.0
 30
0.0
 11
82.99983400000092
 21
-44.00541198900005
 31
0.0
  0
LINE
  5
134
  8
240
 10
39.42492114999911
 20
-44.99609999999909
 30
0.0
 11
81.99653600660052
 21
-44.9961
 31
0.0
  0
LINE
  5
135
  8
240
 10
81.99653600660052
 20
-44.9961
 30
0.0
 11
82.99983400000092
 21
-43.9928020065996
 31
0.0
  0
LINE
  5
136
  8
243
 10
82.99983400000092
 20
-32.13093573800028
 30
0.0
 11
60.00017999940056
 21
-32.13093573800028
 31
0.0
  0
CIRCLE
  5
138
  8
240
 10
63.94987210000064
 20
0.0
 30
0.0
 40
9.234164804333291
  0
POLYLINE
  5
139
  8
240
 66
     1
 10
0.0
 20
0.0
 30
0.0
 70
     1
  0
VERTEX
  5
460
  8
240
 10
52.91107187457844
 20
0.0
 30
0.0
 42
0.1044111848381521
  0
VERTEX
  5
461
  8
240
 10
53.74000800884293
 20
-3.926300262729617
 30
0.0
 42
0.1007495086748555
  0
VERTEX
  5
462
  8
240
 10
56.14426160444076
 20
-7.315785958889414
 30
0.0
 42
0.0959695462102251
  0
VERTEX
  5
463
  8
240
 10
59.6927069955151
 20
-9.548714329814382
 30
0.0
 42
0.0928430288977556
  0
VERTEX
  5
464
  8
240
 10
63.94987210000076
 20
-10.34608372247994
 30
0.0
 42
0.0928430288977547
  0
VERTEX
  5
465
  8
240
 10
68.20703720448545
 20
-9.548714329814382
 30
0.0
 42
0.0959695462102259
  0
VERTEX
  5
466
  8
240
 10
71.75548259555977
 20
-7.315785958889414
 30
0.0
 42
0.1007495086748551
  0
VERTEX
  5
467
  8
240
 10
74.15973619115842
 20
-3.926300262729617
 30
0.0
 42
0.1044111848381507
  0
VERTEX
  5
468
  8
240
 10
74.98867232542295
 20
0.0
 30
0.0
 42
0.1044111848381505
  0
VERTEX
  5
469
  8
240
 10
74.15973619115842
 20
3.926300262728715
 30
0.0
 42
0.1007495086748552
  0
VERTEX
  5
46A
  8
240
 10
71.75548259555977
 20
7.315785958888508
 30
0.0
 42
0.095969546210226
  0
VERTEX
  5
46B
  8
240
 10
68.20703720448545
 20
9.5487143298133
 30
0.0
 42
0.0928430288977559
  0
VERTEX
  5
46C
  8
240
 10
63.94987210000076
 20
10.34608372247904
 30
0.0
 42
0.0928430288977562
  0
VERTEX
  5
46D
  8
240
 10
59.6927069955151
 20
9.5487143298133
 30
0.0
 42
0.0959695462102269
  0
VERTEX
  5
46E
  8
240
 10
56.14426160444076
 20
7.315785958888508
 30
0.0
 42
0.1007495086748553
  0
VERTEX
  5
46F
  8
240
 10
53.74000800884293
 20
3.926300262728715
 30
0.0
 42
0.1044111848381514
  0
SEQEND
  5
47D
  8
240
  0
POLYLINE
  5
14B
  8
240
 66
     1
 10
0.0
 20
0.0
 30
0.0
 70
     1
  0
VERTEX
  5
470
  8
240
 10
71.39655980857574
 20
4.299347153116949
 30
0.0
  0
VERTEX
  5
471
  8
240
 10
63.94987210000076
 20
8.598694306233899
 30
0.0
  0
VERTEX
  5
472
  8
240
 10
56.50318439142562
 20
4.299347153116949
 30
0.0
  0
VERTEX
  5
473
  8
240
 10
56.50318439142562
 20
-4.299347153116949
 30
0.0
  0
VERTEX
  5
474
  8
240
 10
63.94987210000076
 20
-8.598694306233899
 30
0.0
  0
VERTEX
  5
475
  8
240
 10
71.39655980857574
 20
-4.299347153116949
 30
0.0
  0
SEQEND
  5
47C
  8
240
  0
LINE
  5
153
  8
243
 10
60.00017999940056
 20
22.99965400060034
 30
0.0
 11
60.00017999940056
 21
32.13093573799937
 31
0.0
  0
LINE
  5
154
  8
243
 10
82.99983400000092
 20
32.13093573799937
 30
0.0
 11
60.00017999940056
 21
32.13093573799937
 31
0.0
  0
LINE
  5
155
  8
240
 10
39.42492114999911
 20
44.99609999999949
 30
0.0
 11
81.99653600660052
 21
44.99610000000038
 31
0.0
  0
LINE
  5
156
  8
240
 10
39.42492114999911
 20
44.99609999999949
 30
0.0
 11
39.42492115000002
 21
-44.9961
 31
0.0
  0
LINE
  5
157
  8
243
 10
26.35526861011115
 20
15.99996800000014
 30
0.0
 11
26.35526861011115
 21
-15.99996799999942
 31
0.0
  0
LINE
  5
158
  8
240
 10
34.42493114999918
 20
39.99610999999936
 30
0.0
 11
39.42492114999911
 21
44.99609999999949
 31
0.0
  0
LINE
  5
159
  8
240
 10
34.42493114999918
 20
-39.99610999999911
 30
0.0
 11
39.42492114999911
 21
-44.99609999999909
 31
0.0
  0
INSERT
  5
15A
  8
243
  2
DK
 10
0.0
 20
0.0
 30
0.0
 41
0.999998
 42
0.999998
 43
0.999998
  0
LINE
  5
15B
  8
243
 10
26.35526861011115
 20
15.99996800000014
 30
0.0
 11
-16.9999660000001
 21
15.99996800000014
 31
0.0
  0
LINE
  5
15C
  8
243
 10
-16.9999660000001
 20
15.99996800000014
 30
0.0
 11
-16.9999660000001
 21
0.0
 31
0.0
  0
LINE
  5
15D
  8
243
 10
-16.9999660000001
 20
15.99996800000014
 30
0.0
 11
-19.82175979706588
 21
11.11247777500024
 31
0.0
  0
LINE
  5
15E
  8
243
 10
-19.82175979706588
 20
11.11247777500024
 30
0.0
 11
-19.82175979706588
 21
-11.11247777500006
 31
0.0
  0
LINE
  5
15F
  8
243
 10
-16.9999660000001
 20
-15.99996799999996
 30
0.0
 11
-19.82175979706588
 21
-11.11247777500006
 31
0.0
  0
LINE
  5
160
  8
243
 10
-16.9999660000001
 20
-15.99996799999996
 30
0.0
 11
-16.9999660000001
 21
0.0
 31
0.0
  0
LINE
  5
161
  8
243
 10
26.35526861011115
 20
-15.99996799999996
 30
0.0
 11
-16.9999660000001
 21
-15.99996799999996
 31
0.0
  0
LINE
  5
185
  8
243
 10
3.174993649999294
 20
36.28427475031024
 30
0.0
 11
23.45930040030942
 21
15.99996800000014
 31
0.0
  0
LINE
  5
186
  8
243
 10
3.174993649999294
 20
41.3050151396299
 30
0.0
 11
27.13298920506919
 21
17.34701958455982
 31
0.0
  0
LINE
  5
187
  8
243
 10
3.174993649999294
 20
-36.28427475031005
 30
0.0
 11
23.45930040030942
 21
-15.99996799999996
 31
0.0
  0
LINE
  5
188
  8
243
 10
3.174993649999294
 20
-41.3050151396297
 30
0.0
 11
27.13298920506936
 21
-17.34701958455964
 31
0.0
  0
DIMENSION
  5
19A
  8
250
  2
*D2
 10
82.99983400000092
 20
79.52315787078955
 30
0.0
 11
41.49991700000046
 21
82.02315787078955
 31
0.0
 70
    32
  3
STANDARD
 13
0.0
 23
34.92493015000015
 33
0.0
 14
82.99983400000092
 24
43.9928020066
 34
0.0
1001
ACAD
1000
DSTYLE
1002
{
1070
   271
1070
     1
1070
   147
1040
1.0
1070
   140
1040
3.0
1070
    41
1040
3.0
1002
}
  0
DIMENSION
  5
1A7
  8
250
  2
*D3
 10
82.99983400000092
 20
59.70780406391643
 30
0.0
 11
58.71238257500005
 21
62.20780406391643
 31
0.0
 70
    32
  3
STANDARD
 13
34.42493114999918
 23
39.99610999999936
 33
0.0
 14
82.99983400000092
 24
43.9928020066
 34
0.0
1001
ACAD
1000
DSTYLE
1002
{
1070
   271
1070
     1
1070
   147
1040
1.0
1070
   140
1040
3.0
1070
    41
1040
3.0
1002
}
  0
DIMENSION
  5
1B4
  8
250
  2
*D4
 10
117.2869155965642
 20
-44.9961
 30
0.0
 11
114.7869155965642
 21
0.0000000000001847
 31
0.0
 70
    32
  1
%%c<>
  3
STANDARD
 13
81.99653600660051
 23
44.99610000000038
 33
0.0
 14
81.99653600660052
 24
-44.9961
 34
0.0
 50
90.0
1001
ACAD
1000
DSTYLE
1002
{
1070
   271
1070
     1
1070
   147
1040
1.0
1070
   140
1040
3.0
1070
    41
1040
3.0
1002
}
  0
LINE
  5
3B8
  8
250
 10
-43.51137396195984
 20
46.52313523088573
 30
0.0
 11
-43.51137396195984
 21
47.68477112525205
 31
0.0
  0
LINE
  5
3B9
  8
250
 10
-47.73615993465494
 20
44.79860263240157
 30
0.0
 11
-49.99795717718334
 21
49.64904247179231
 31
0.0
  0
LINE
  5
3BA
  8
250
 10
-49.05989812368473
 20
44.55886388434533
 30
0.0
 11
-51.32169536621221
 21
49.40930372373624
 31
0.0
  0
LINE
  5
3BB
  8
250
 10
-42.6749961180162
 20
42.7362022152513
 30
0.0
 11
-42.6749961180162
 21
51.47170414088649
 31
0.0
  0
LINE
  5
3BC
  8
250
 10
-46.85688533773497
 20
42.7362022152513
 30
0.0
 11
-46.85688533773497
 21
51.47170414088649
 31
0.0
  0
LINE
  5
3BD
  8
250
 10
-53.73376983238368
 20
42.7362022152513
 30
0.0
 11
-53.73376983238368
 21
51.47170414088649
 31
0.0
  0
LINE
  5
3BE
  8
250
 10
-52.43273763069334
 20
51.47170414088649
 30
0.0
 11
-52.43273763069334
 21
42.7362022152513
 31
0.0
  0
ARC
  5
3BF
  8
250
 10
-39.56181192111379
 20
45.94231728370256
 30
0.0
 40
1.161635894366379
 50
0.0
 51
90.0
  0
LINE
  5
3C0
  8
250
 10
-71.21495644870359
 20
46.52313523088573
 30
0.0
 11
-71.21495644870359
 21
47.68477112525205
 31
0.0
  0
LINE
  5
3C1
  8
250
 10
-72.40622642132288
 20
46.52313523088573
 30
0.0
 11
-72.40622642132288
 21
48.9974196858862
 31
0.0
  0
LINE
  5
3C2
  8
250
 10
-60.51726822978441
 20
42.73620221525111
 30
0.0
 11
-62.39587003214667
 21
47.44302957483802
 31
0.0
  0
LINE
  5
3C3
  8
250
 10
-68.69879003906573
 20
45.21048667025178
 30
0.0
 11
-68.69879003906573
 21
47.68477112525205
 31
0.0
  0
LINE
  5
3C4
  8
250
 10
-73.80018949456249
 20
45.21048667025178
 30
0.0
 11
-73.80018949456249
 21
48.9974196858862
 31
0.0
  0
LINE
  5
3C5
  8
250
 10
-65.58363045408923
 20
51.47170414088649
 30
0.0
 11
-65.58363045408923
 21
42.7362022152513
 31
0.0
  0
LINE
  5
3C6
  8
250
 10
-76.07621389627606
 20
42.7362022152513
 30
0.0
 11
-76.07621389627606
 21
51.47170414088649
 31
0.0
  0
LINE
  5
3C7
  8
250
 10
-74.77518169458568
 20
51.47170414088649
 30
0.0
 11
-74.77518169458568
 21
42.7362022152513
 31
0.0
  0
LINE
  5
3C8
  8
250
 10
-82.15260555179643
 20
42.7362022152513
 30
0.0
 11
-82.15260555179643
 21
51.47170414088649
 31
0.0
  0
ARC
  5
3C9
  8
250
 10
-79.67245132800682
 20
45.21048667025178
 30
0.0
 40
2.621245231707499
 50
289.2767926682573
 51
46.2491597278179
  0
LINE
  5
3CA
  8
250
 10
-58.69193889331336
 20
43.89783810961763
 30
0.0
 11
-57.67035459865551
 21
49.1534336953524
 31
0.0
  0
LINE
  5
3CB
  8
250
 10
-60.10111591661582
 20
42.73620221525111
 30
0.0
 11
-58.40310635183786
 21
51.47170414088649
 31
0.0
  0
LINE
  5
3CC
  8
250
 10
-55.64201591768771
 20
42.73620221525111
 30
0.0
 11
-57.67035459865551
 21
49.1534336953524
 31
0.0
  0
LINE
  5
3CD
  8
250
 10
-56.58872353090235
 20
51.47170414088649
 30
0.0
 11
-54.24805284444778
 21
42.73620221525111
 31
0.0
  0
LINE
  5
3CE
  8
250
 10
-62.09709304612246
 20
42.7362022152513
 30
0.0
 11
-60.51726822978441
 21
42.7362022152513
 31
0.0
  0
ARC
  5
3CF
  8
250
 10
-71.17894426285497
 20
45.21048667025178
 30
0.0
 40
2.621245231707555
 50
180.0
 51
250.7232073317388
  0
LINE
  5
3D0
  8
250
 10
-79.16573987049803
 20
46.52313523088573
 30
0.0
 11
-80.75864247855685
 21
46.52313523088573
 31
0.0
  0
LINE
  5
3D1
  8
250
 10
-76.07621389627606
 20
42.7362022152513
 30
0.0
 11
-74.77518169458568
 21
42.7362022152513
 31
0.0
  0
LINE
  5
3D2
  8
250
 10
-80.38691899235954
 20
42.7362022152513
 30
0.0
 11
-78.80709417602147
 21
42.7362022152513
 31
0.0
  0
LINE
  5
3D3
  8
250
 10
-82.15260555179643
 20
42.7362022152513
 30
0.0
 11
-78.80709417602147
 21
42.7362022152513
 31
0.0
  0
LINE
  5
3D4
  8
250
 10
-80.75864247855685
 20
43.89783810961763
 30
0.0
 11
-79.16573987049803
 21
43.89783810961763
 31
0.0
  0
LINE
  5
3D5
  8
250
 10
-80.75864247855685
 20
43.89783810961763
 30
0.0
 11
-80.75864247855685
 21
46.52313523088573
 31
0.0
  0
ARC
  5
3D6
  8
250
 10
-79.86195765788898
 20
45.21048667025178
 30
0.0
 40
1.485855124571082
 50
297.941104069763
 51
62.05889593023716
  0
LINE
  5
3D7
  8
250
 10
-70.02368647608426
 20
46.52313523088573
 30
0.0
 11
-71.21495644870359
 21
46.52313523088573
 31
0.0
  0
LINE
  5
3D8
  8
250
 10
-62.09709304612246
 20
42.7362022152513
 30
0.0
 11
-63.24710476739126
 21
45.61755079412828
 31
0.0
  0
LINE
  5
3D9
  8
250
 10
-64.00380563775117
 20
43.99480054088671
 30
0.0
 11
-63.24710476739126
 21
45.61755079412828
 31
0.0
  0
LINE
  5
3DA
  8
250
 10
-64.00380563775117
 20
42.7362022152513
 30
0.0
 11
-64.00380563775117
 21
43.99480054088671
 31
0.0
  0
LINE
  5
3DB
  8
250
 10
-65.58363045408923
 20
42.7362022152513
 30
0.0
 11
-64.00380563775117
 21
42.7362022152513
 31
0.0
  0
ARC
  5
3DC
  8
250
 10
-71.32003527077288
 20
45.21048667025178
 30
0.0
 40
2.621245231707499
 50
289.2767926682573
 51
0.0
  0
LINE
  5
3DD
  8
250
 10
-72.03450293512559
 20
42.7362022152513
 30
0.0
 11
-70.45467811878719
 21
42.7362022152513
 31
0.0
  0
LINE
  5
3DE
  8
250
 10
-72.04430141484099
 20
42.7362022152513
 30
0.0
 11
-70.45467811878719
 21
42.7362022152513
 31
0.0
  0
ARC
  5
3DF
  8
250
 10
-70.92037129675214
 20
45.21048667025178
 30
0.0
 40
1.485855124571082
 50
180.0
 51
242.058895930237
  0
ARC
  5
3E0
  8
250
 10
-71.50954160065542
 20
45.21048667025178
 30
0.0
 40
1.485855124571082
 50
297.941104069763
 51
0.0
  0
LINE
  5
3E1
  8
250
 10
-71.61658908414306
 20
43.89783810961763
 30
0.0
 11
-70.81332381326446
 21
43.89783810961763
 31
0.0
  0
LINE
  5
3E2
  8
250
 10
-70.02368647608426
 20
45.21048667025178
 30
0.0
 11
-70.02368647608426
 21
46.52313523088573
 31
0.0
  0
LINE
  5
3E3
  8
250
 10
-72.40622642132288
 20
45.21048667025178
 30
0.0
 11
-72.40622642132288
 21
46.52313523088573
 31
0.0
  0
LINE
  5
3E4
  8
250
 10
-39.73601929095518
 20
42.7362022152513
 30
0.0
 11
-38.25561473139107
 21
42.7362022152513
 31
0.0
  0
LINE
  5
3E5
  8
250
 10
-51.50342891520064
 20
42.7362022152513
 30
0.0
 11
-49.05005390629832
 21
42.7362022152513
 31
0.0
  0
LINE
  5
3E6
  8
250
 10
-51.50342891520064
 20
43.89783810961763
 30
0.0
 11
-49.48101798639028
 21
43.89783810961763
 31
0.0
  0
LINE
  5
3E7
  8
250
 10
-51.50342891520064
 20
43.89783810961763
 30
0.0
 11
-51.50342891520064
 21
42.7362022152513
 31
0.0
  0
LINE
  5
3E8
  8
250
 10
-53.73376983238406
 20
42.7362022152513
 30
0.0
 11
-52.43273763069334
 21
42.7362022152513
 31
0.0
  0
LINE
  5
3E9
  8
250
 10
-56.75560454084123
 20
42.73620221525111
 30
0.0
 11
-57.06686394063571
 21
43.89783810961763
 31
0.0
  0
LINE
  5
3EA
  8
250
 10
-60.10111591661582
 20
42.73620221525111
 30
0.0
 11
-56.75560454084123
 21
42.73620221525111
 31
0.0
  0
LINE
  5
3EB
  8
250
 10
-58.69193889331336
 20
43.89783810961763
 30
0.0
 11
-57.06686394063571
 21
43.89783810961763
 31
0.0
  0
LINE
  5
3EC
  8
250
 10
-54.24805284444778
 20
42.73620221525111
 30
0.0
 11
-55.64201591768771
 21
42.73620221525111
 31
0.0
  0
LINE
  5
3ED
  8
250
 10
-40.63051694393107
 20
46.52313523088573
 30
0.0
 11
-41.28103304477643
 21
46.52313523088573
 31
0.0
  0
LINE
  5
3EE
  8
250
 10
-43.51137396195984
 20
46.52313523088573
 30
0.0
 11
-45.46292226449556
 21
46.52313523088573
 31
0.0
  0
LINE
  5
3EF
  8
250
 10
-39.79413909998723
 20
45.6867573869421
 30
0.0
 11
-39.79413909998723
 21
43.19736061330649
 31
0.0
  0
LINE
  5
3F0
  8
250
 10
-43.51137396195984
 20
42.7362022152513
 30
0.0
 11
-43.51137396195984
 21
43.89783810961763
 31
0.0
  0
LINE
  5
3F1
  8
250
 10
-42.6749961180162
 20
42.7362022152513
 30
0.0
 11
-41.28103304477643
 21
42.7362022152513
 31
0.0
  0
ARC
  5
3F2
  8
250
 10
-37.93552166900096
 20
43.19736061330649
 30
0.0
 40
1.858617430986207
 50
180.0
 51
194.3662353416886
  0
ARC
  5
3F3
  8
250
 10
-49.05005390629832
 20
44.18592381142079
 30
0.0
 40
1.449721596169241
 50
270.0
 51
24.99999999999866
  0
ARC
  5
3F4
  8
250
 10
-49.48101798639028
 20
44.36249246736433
 30
0.0
 40
0.4646543577465531
 50
270.0
 51
24.99999999999865
  0
LINE
  5
3F5
  8
250
 10
-46.85688533773497
 20
42.7362022152513
 30
0.0
 11
-43.51137396195984
 21
42.7362022152513
 31
0.0
  0
LINE
  5
3F6
  8
250
 10
-45.46292226449556
 20
43.89783810961763
 30
0.0
 11
-43.51137396195984
 21
43.89783810961763
 31
0.0
  0
LINE
  5
3F7
  8
250
 10
-45.46292226449556
 20
43.89783810961763
 30
0.0
 11
-45.46292226449556
 21
46.52313523088573
 31
0.0
  0
LINE
  5
3F8
  8
250
 10
-41.28103304477643
 20
42.7362022152513
 30
0.0
 11
-41.28103304477643
 21
46.52313523088573
 31
0.0
  0
ARC
  5
3F9
  8
250
 10
-40.63051694393107
 20
45.6867573869421
 30
0.0
 40
0.8363778439437937
 50
0.0
 51
90.0
  0
LINE
  5
3FA
  8
250
 10
-38.40017602674801
 20
43.28531331873179
 30
0.0
 11
-38.40017602674801
 21
45.94231728370256
 31
0.0
  0
ARC
  5
3FB
  8
250
 10
-37.28500556815631
 20
43.28531331873179
 30
0.0
 40
1.115170458591724
 50
180.0
 51
209.498518089503
  0
LINE
  5
3FC
  8
250
 10
-62.09709304612246
 20
51.47170414088649
 30
0.0
 11
-60.51726822978441
 21
51.47170414088649
 31
0.0
  0
LINE
  5
3FD
  8
250
 10
-62.39587003214667
 20
47.44302957483802
 30
0.0
 11
-60.51726822978441
 21
51.47170414088649
 31
0.0
  0
ARC
  5
3FE
  8
250
 10
-71.17894426285497
 20
48.9974196858862
 30
0.0
 40
2.621245231707555
 50
109.2767926682609
 51
180.0
  0
LINE
  5
3FF
  8
250
 10
-76.07621389627606
 20
51.47170414088649
 30
0.0
 11
-74.77518169458568
 21
51.47170414088649
 31
0.0
  0
ARC
  5
400
  8
250
 10
-79.86195765788898
 20
48.9974196858862
 30
0.0
 40
1.485855124571082
 50
297.9411040697628
 51
62.05889593023716
  0
LINE
  5
401
  8
250
 10
-80.75864247855685
 20
47.68477112525205
 30
0.0
 11
-80.75864247855685
 21
50.31006824652017
 31
0.0
  0
LINE
  5
402
  8
250
 10
-79.16573987049803
 20
47.68477112525205
 30
0.0
 11
-80.75864247855685
 21
47.68477112525205
 31
0.0
  0
LINE
  5
403
  8
250
 10
-80.75864247855685
 20
50.31006824652017
 30
0.0
 11
-79.16573987049803
 21
50.31006824652017
 31
0.0
  0
LINE
  5
404
  8
250
 10
-80.38691899235954
 20
51.47170414088649
 30
0.0
 11
-78.80709417602147
 21
51.47170414088649
 31
0.0
  0
LINE
  5
405
  8
250
 10
-82.15260555179643
 20
51.47170414088649
 30
0.0
 11
-78.80709417602147
 21
51.47170414088649
 31
0.0
  0
ARC
  5
406
  8
250
 10
-79.67245132800682
 20
48.9974196858862
 30
0.0
 40
2.621245231707555
 50
313.7508402721821
 51
70.72320733173903
  0
LINE
  5
407
  8
250
 10
-64.00380563775117
 20
47.38274579271677
 30
0.0
 11
-62.09709304612246
 21
51.47170414088649
 31
0.0
  0
LINE
  5
408
  8
250
 10
-64.00380563775117
 20
51.47170414088649
 30
0.0
 11
-64.00380563775117
 21
47.38274579271677
 31
0.0
  0
LINE
  5
409
  8
250
 10
-65.58363045408923
 20
51.47170414088649
 30
0.0
 11
-64.00380563775117
 21
51.47170414088649
 31
0.0
  0
ARC
  5
40A
  8
250
 10
-71.50954160065542
 20
48.9974196858862
 30
0.0
 40
1.485855124571082
 50
0.0
 51
62.05889593023716
  0
ARC
  5
40B
  8
250
 10
-70.92037129675214
 20
48.9974196858862
 30
0.0
 40
1.485855124571082
 50
117.9411040697629
 51
180.0
  0
ARC
  5
40C
  8
250
 10
-71.32003527077323
 20
48.9974196858862
 30
0.0
 40
2.621245231707555
 50
0.0
 51
70.72320733173903
  0
LINE
  5
40D
  8
250
 10
-68.69879003906573
 20
47.68477112525205
 30
0.0
 11
-71.21495644870359
 21
47.68477112525205
 31
0.0
  0
LINE
  5
40E
  8
250
 10
-70.02368647608426
 20
48.9974196858862
 30
0.0
 11
-68.69879003906573
 21
48.9974196858862
 31
0.0
  0
LINE
  5
40F
  8
250
 10
-71.61658908414306
 20
50.31006824652017
 30
0.0
 11
-70.81332381326446
 21
50.31006824652017
 31
0.0
  0
LINE
  5
410
  8
250
 10
-72.03450293512559
 20
51.47170414088649
 30
0.0
 11
-70.45467811878719
 21
51.47170414088649
 31
0.0
  0
LINE
  5
411
  8
250
 10
-72.04430141484099
 20
51.47170414088649
 30
0.0
 11
-70.45467811878719
 21
51.47170414088649
 31
0.0
  0
ARC
  5
412
  8
250
 10
-39.56181192111379
 20
48.2655890724354
 30
0.0
 40
1.161635894366379
 50
270.0
 51
0.0
  0
ARC
  5
413
  8
250
 10
-39.8498976229166
 20
50.02198254471737
 30
0.0
 40
1.449721596169241
 50
0.0
 51
90.0
  0
ARC
  5
414
  8
250
 10
-49.57683731447703
 20
49.84541388877362
 30
0.0
 40
0.4646543577465531
 50
90.0
 51
204.999999999999
  0
LINE
  5
415
  8
250
 10
-47.97205579632669
 20
51.47170414088649
 30
0.0
 11
-50.00780139456862
 21
51.47170414088649
 31
0.0
  0
ARC
  5
416
  8
250
 10
-50.00780139456862
 20
50.02198254471737
 30
0.0
 40
1.449721596169241
 50
90.0
 51
204.9999999999986
  0
LINE
  5
417
  8
250
 10
-53.73376983238368
 20
51.47170414088649
 30
0.0
 11
-52.43273763069334
 21
51.47170414088649
 31
0.0
  0
LINE
  5
418
  8
250
 10
-58.40310635183786
 20
51.47170414088649
 30
0.0
 11
-56.58872353090235
 21
51.47170414088649
 31
0.0
  0
LINE
  5
419
  8
250
 10
-41.28103304477643
 20
47.68477112525205
 30
0.0
 11
-41.28103304477643
 21
50.31006824652017
 31
0.0
  0
LINE
  5
41A
  8
250
 10
-39.79413909998723
 20
48.24235635454801
 30
0.0
 11
-39.79413909998723
 21
49.75248301722405
 31
0.0
  0
ARC
  5
41B
  8
250
 10
-40.35172432928299
 20
48.24235635454801
 30
0.0
 40
0.5575852292958633
 50
270.0
 51
0.0
  0
LINE
  5
41C
  8
250
 10
-40.35172432928299
 20
47.68477112525205
 30
0.0
 11
-41.28103304477643
 21
47.68477112525205
 31
0.0
  0
LINE
  5
41D
  8
250
 10
-43.51137396195984
 20
50.31006824652017
 30
0.0
 11
-43.51137396195984
 21
51.47170414088649
 31
0.0
  0
ARC
  5
41E
  8
250
 10
-40.35172432928299
 20
49.75248301722405
 30
0.0
 40
0.5575852292958633
 50
0.0
 51
90.0
  0
LINE
  5
41F
  8
250
 10
-41.28103304477643
 20
50.31006824652017
 30
0.0
 11
-40.35172432928299
 21
50.31006824652017
 31
0.0
  0
LINE
  5
420
  8
250
 10
-42.6749961180162
 20
51.47170414088649
 30
0.0
 11
-39.8498976229166
 21
51.47170414088649
 31
0.0
  0
LINE
  5
421
  8
250
 10
-47.97205579632669
 20
51.47170414088649
 30
0.0
 11
-47.97205579632669
 21
50.31006824652017
 31
0.0
  0
LINE
  5
422
  8
250
 10
-47.97205579632669
 20
50.31006824652017
 30
0.0
 11
-49.57683731447703
 21
50.31006824651997
 31
0.0
  0
LINE
  5
423
  8
250
 10
-45.46292226449556
 20
47.68477112525205
 30
0.0
 11
-45.46292226449556
 21
50.31006824652017
 31
0.0
  0
LINE
  5
424
  8
250
 10
-46.85688533773497
 20
51.47170414088649
 30
0.0
 11
-43.51137396195984
 21
51.47170414088649
 31
0.0
  0
LINE
  5
425
  8
250
 10
-43.51137396195984
 20
47.68477112525205
 30
0.0
 11
-45.46292226449556
 21
47.68477112525205
 31
0.0
  0
LINE
  5
426
  8
250
 10
-45.46292226449556
 20
50.31006824652017
 30
0.0
 11
-43.51137396195984
 21
50.31006824652017
 31
0.0
  0
LINE
  5
427
  8
250
 10
-38.40017602674801
 20
50.02198254471737
 30
0.0
 11
-38.40017602674801
 21
48.2655890724354
 31
0.0
  0
ENDSEC
  0
EOF
