  0
SECTION
  2
HEADER
  9
$ACADVER
  1
AC1009
  9
$DWGCODEPAGE
  3
ansi_1252
  9
$INSBASE
 10
0.0
 20
0.0
 30
0.0
  9
$EXTMIN
 10
-4.062491875000006
 20
-1.937496124999999
 30
0.0
  9
$EXTMAX
 10
6.637914302864957
 20
3.231502113373026
 30
0.0
  9
$LIMMIN
 10
0.0
 20
0.0
  9
$LIMMAX
 10
12.0
 20
9.0
  9
$ORTHOMODE
 70
     1
  9
$REGENMODE
 70
     1
  9
$FILLMODE
 70
     1
  9
$QTEXTMODE
 70
     0
  9
$MIRRTEXT
 70
     1
  9
$DRAGMODE
 70
     2
  9
$LTSCALE
 40
10.0
  9
$OSMODE
 70
   511
  9
$ATTMODE
 70
     1
  9
$TEXTSIZE
 40
0.24
  9
$TRACEWID
 40
0.05
  9
$TEXTSTYLE
  7
ROMANS
  9
$CLAYER
  8
250
  9
$CELTYPE
  6
BYLAYER
  9
$CECOLOR
 62
   256
  9
$DIMSCALE
 40
1.0
  9
$DIMASZ
 40
0.18
  9
$DIMEXO
 40
0.0625
  9
$DIMDLI
 40
0.38
  9
$DIMRND
 40
0.0
  9
$DIMDLE
 40
0.0
  9
$DIMEXE
 40
0.18
  9
$DIMTP
 40
0.0
  9
$DIMTM
 40
0.0
  9
$DIMTXT
 40
0.18
  9
$DIMCEN
 40
0.09
  9
$DIMTSZ
 40
0.0
  9
$DIMTOL
 70
     0
  9
$DIMLIM
 70
     0
  9
$DIMTIH
 70
     0
  9
$DIMTOH
 70
     0
  9
$DIMSE1
 70
     0
  9
$DIMSE2
 70
     0
  9
$DIMTAD
 70
     1
  9
$DIMZIN
 70
     0
  9
$DIMBLK
  1

  9
$DIMASO
 70
     1
  9
$DIMSHO
 70
     1
  9
$DIMPOST
  1

  9
$DIMAPOST
  1

  9
$DIMALT
 70
     0
  9
$DIMALTD
 70
     2
  9
$DIMALTF
 40
25.4
  9
$DIMLFAC
 40
1.0
  9
$DIMTOFL
 70
     0
  9
$DIMTVP
 40
0.0
  9
$DIMTIX
 70
     0
  9
$DIMSOXD
 70
     0
  9
$DIMSAH
 70
     0
  9
$DIMBLK1
  1

  9
$DIMBLK2
  1

  9
$DIMSTYLE
  2
STANDARD
  9
$DIMCLRD
 70
     0
  9
$DIMCLRE
 70
     0
  9
$DIMCLRT
 70
     0
  9
$DIMTFAC
 40
1.0
  9
$DIMGAP
 40
0.09
  9
$LUNITS
 70
     2
  9
$LUPREC
 70
     4
  9
$SKETCHINC
 40
0.1
  9
$FILLETRAD
 40
0.0
  9
$AUNITS
 70
     0
  9
$AUPREC
 70
     0
  9
$MENU
  1
.
  9
$ELEVATION
 40
0.0
  9
$PELEVATION
 40
0.0
  9
$THICKNESS
 40
0.0
  9
$LIMCHECK
 70
     0
  9
$CHAMFERA
 40
0.0
  9
$CHAMFERB
 40
0.0
  9
$SKPOLY
 70
     0
  9
$TDCREATE
 40
2453353.508792488
  9
$TDUPDATE
 40
2452852.587096713
  9
$TDINDWG
 40
0.0739676968
  9
$TDUSRTIMER
 40
2458339.608415613
  9
$USRTIMER
 70
     1
  9
$ANGBASE
 50
0.0
  9
$ANGDIR
 70
     0
  9
$PDMODE
 70
    65
  9
$PDSIZE
 40
-2.0
  9
$PLINEWID
 40
0.0
  9
$COORDS
 70
     1
  9
$SPLFRAME
 70
     0
  9
$SPLINETYPE
 70
     6
  9
$SPLINESEGS
 70
     8
  9
$ATTDIA
 70
     0
  9
$ATTREQ
 70
     1
  9
$HANDLING
 70
     1
  9
$HANDSEED
  5
453
  9
$SURFTAB1
 70
     6
  9
$SURFTAB2
 70
     6
  9
$SURFTYPE
 70
     6
  9
$SURFU
 70
     6
  9
$SURFV
 70
     6
  9
$UCSNAME
  2

  9
$UCSORG
 10
0.0
 20
0.0
 30
0.0
  9
$UCSXDIR
 10
1.0
 20
0.0
 30
0.0
  9
$UCSYDIR
 10
0.0
 20
1.0
 30
0.0
  9
$PUCSNAME
  2

  9
$PUCSORG
 10
0.0
 20
0.0
 30
0.0
  9
$PUCSXDIR
 10
1.0
 20
0.0
 30
0.0
  9
$PUCSYDIR
 10
0.0
 20
1.0
 30
0.0
  9
$USERI1
 70
     0
  9
$USERI2
 70
     0
  9
$USERI3
 70
     0
  9
$USERI4
 70
     0
  9
$USERI5
 70
     0
  9
$USERR1
 40
0.0
  9
$USERR2
 40
0.0
  9
$USERR3
 40
0.0
  9
$USERR4
 40
0.0
  9
$USERR5
 40
0.0
  9
$WORLDVIEW
 70
     1
  9
$SHADEDGE
 70
     3
  9
$SHADEDIF
 70
    70
  9
$TILEMODE
 70
     1
  9
$MAXACTVP
 70
    16
  9
$PLIMCHECK
 70
     0
  9
$PEXTMIN
 10
1.000000000000000E+20
 20
1.000000000000000E+20
 30
1.000000000000000E+20
  9
$PEXTMAX
 10
-1.000000000000000E+20
 20
-1.000000000000000E+20
 30
-1.000000000000000E+20
  9
$PLIMMIN
 10
0.0
 20
0.0
  9
$PLIMMAX
 10
12.0
 20
9.0
  9
$UNITMODE
 70
     0
  9
$VISRETAIN
 70
     0
  9
$PLINEGEN
 70
     0
  9
$PSLTSCALE
 70
     1
  0
ENDSEC
  0
SECTION
  2
TABLES
  0
TABLE
  2
VPORT
 70
     1
  0
VPORT
  2
*ACTIVE
 70
     0
 10
0.0
 20
0.0
 11
1.0
 21
1.0
 12
-7.516349108799005
 22
7.393111044632448
 13
0.0
 23
0.0
 14
1.0
 24
1.0
 15
0.0
 25
0.0
 16
0.0
 26
0.0
 36
1.0
 17
0.0
 27
0.0
 37
0.0
 40
146.8734105039147
 41
1.328822733423545
 42
50.0
 43
0.0
 44
0.0
 50
0.0
 51
0.0
 71
    16
 72
  1000
 73
     1
 74
     0
 75
     0
 76
     0
 77
     0
 78
     0
  0
ENDTAB
  0
TABLE
  2
LTYPE
 70
     3
  0
LTYPE
  2
CONTINUOUS
 70
     0
  3
Solid line
 72
    65
 73
     0
 40
0.0
  0
LTYPE
  2
HIDDEN
 70
     0
  3
__ __ __ __ __ __ __ __ __ __ __ __ __ __ __ __
 72
    65
 73
     2
 40
0.375
 49
0.25
 49
-0.125
  0
LTYPE
  2
CENTER
 70
     0
  3
____ _ ____ _ ____ _ ____ _ ____ _ ____ _ ____
 72
    65
 73
     4
 40
2.0
 49
1.25
 49
-0.25
 49
0.25
 49
-0.25
  0
ENDTAB
  0
TABLE
  2
LAYER
 70
     6
  0
LAYER
  2
0
 70
     0
 62
     7
  6
CONTINUOUS
  0
LAYER
  2
240
 70
     0
 62
     4
  6
CONTINUOUS
  0
LAYER
  2
243
 70
     0
 62
     6
  6
HIDDEN
  0
LAYER
  2
250
 70
     0
 62
     3
  6
CONTINUOUS
  0
LAYER
  2
245
 70
     0
 62
     2
  6
CENTER
  0
LAYER
  2
DEFPOINTS
 70
     0
 62
     7
  6
CONTINUOUS
  0
ENDTAB
  0
TABLE
  2
STYLE
 70
     2
  0
STYLE
  2
STANDARD
 70
     0
 40
0.0
 41
1.0
 50
0.0
 71
     0
 42
0.2
  3
txt
  4

  0
STYLE
  2
ROMANS
 70
     0
 40
0.0
 41
1.0
 50
0.0
 71
     0
 42
0.24
  3
romans
  4

  0
ENDTAB
  0
TABLE
  2
VIEW
 70
     0
  0
ENDTAB
  0
TABLE
  2
UCS
 70
     0
  0
ENDTAB
  0
TABLE
  2
APPID
 70
     1
  0
APPID
  2
ACAD
 70
     0
  0
ENDTAB
  0
TABLE
  2
DIMSTYLE
 70
     1
  0
DIMSTYLE
  2
STANDARD
 70
     0
  3

  4

  5

  6

  7

 40
1.0
 41
0.18
 42
0.0625
 43
0.38
 44
0.18
 45
0.0
 46
0.0
 47
0.0
 48
0.0
140
0.18
141
0.09
142
0.0
143
25.4
144
1.0
145
0.0
146
1.0
147
0.09
 71
     0
 72
     0
 73
     0
 74
     0
 75
     0
 76
     0
 77
     1
 78
     0
170
     0
171
     2
172
     0
173
     0
174
     0
175
     0
176
     0
177
     0
178
     0
  0
ENDTAB
  0
ENDSEC
  0
SECTION
  2
BLOCKS
  0
BLOCK
  8
0
  2
$MODEL_SPACE
 70
     0
 10
0.0
 20
0.0
 30
0.0
  3
$MODEL_SPACE
  1

  0
ENDBLK
  5
21
  8
0
  0
BLOCK
 67
     1
  8
0
  2
$PAPER_SPACE
 70
     0
 10
0.0
 20
0.0
 30
0.0
  3
$PAPER_SPACE
  1

  0
ENDBLK
  5
76
 67
     1
  8
0
  0
BLOCK
  8
0
  2
DK
 70
     0
 10
0.0
 20
0.0
 30
0.0
  3
DK
  1

  0
LINE
  5
102
  8
243
 10
3.17500000000006
 20
-35.29999999999999
 30
0.0
 11
19.05000000000006
 21
-35.29999999999999
 31
0.0
  0
LINE
  5
103
  8
243
 10
20.62500000000006
 20
28.32500000000002
 30
0.0
 11
26.97500000000005
 21
24.6588257906459
 31
0.0
  0
LINE
  5
104
  8
243
 10
33.32500000000004
 20
28.32500000000001
 30
0.0
 11
26.97500000000005
 21
24.6588257906459
 31
0.0
  0
LINE
  5
105
  8
243
 10
33.32500000000004
 20
34.92500000000001
 30
0.0
 11
33.32500000000004
 21
28.32500000000001
 31
0.0
  0
LINE
  5
106
  8
243
 10
20.62500000000006
 20
28.32500000000001
 30
0.0
 11
33.32500000000003
 21
28.32500000000002
 31
0.0
  0
LINE
  5
107
  8
243
 10
20.62500000000006
 20
34.92500000000001
 30
0.0
 11
20.62500000000006
 21
28.32500000000001
 31
0.0
  0
LINE
  5
108
  8
243
 10
15.88408999999988
 20
37.72
 30
0.0
 11
15.88408999999988
 21
37.35682493324103
 31
0.0
  0
LINE
  5
109
  8
243
 10
6.384089999999893
 20
37.35682493324103
 30
0.0
 11
15.88408999999988
 21
37.35682493324103
 31
0.0
  0
LINE
  5
10A
  8
243
 10
6.384089999999893
 20
37.72
 30
0.0
 11
6.384089999999893
 21
37.35682493324103
 31
0.0
  0
LINE
  5
10B
  8
243
 10
3.17500000000006
 20
37.72
 30
0.0
 11
19.05000000000006
 21
37.72
 31
0.0
  0
LINE
  5
10C
  8
243
 10
6.384089999999893
 20
37.35682493324105
 30
0.0
 11
11.13408999999988
 21
34.61441115459033
 31
0.0
  0
LINE
  5
10D
  8
243
 10
15.88408999999988
 20
37.35682493324105
 30
0.0
 11
11.13408999999988
 21
34.61441115459033
 31
0.0
  0
ENDBLK
  5
3E4
  8
0
  0
BLOCK
  8
0
  2
*D2
 70
     1
 10
0.0
 20
0.0
 30
0.0
  3
*D2
  1

  0
LINE
  5
199
  8
250
 62
     0
 10
0.0
 20
34.98743015
 30
0.0
 11
0.0
 21
60.17862366426487
 31
0.0
  0
LINE
  5
19A
  8
250
 62
     0
 10
68.99986199999994
 20
30.69820199999997
 30
0.0
 11
68.99986199999994
 21
60.17862366426487
 31
0.0
  0
LINE
  5
19B
  8
250
 62
     0
 10
3.0
 20
59.99862366426487
 30
0.0
 11
65.99986199999994
 21
59.99862366426487
 31
0.0
  0
SOLID
  5
19C
  8
250
 62
     0
 10
3.0
 20
60.49862366426487
 30
0.0
 11
3.0
 21
59.49862366426487
 31
0.0
 12
0.0
 22
59.99862366426487
 32
0.0
 13
0.0
 23
59.99862366426487
 33
0.0
  0
SOLID
  5
19D
  8
250
 62
     0
 10
65.99986199999994
 20
59.49862366426487
 30
0.0
 11
65.99986199999994
 21
60.49862366426487
 31
0.0
 12
68.99986199999994
 22
59.99862366426487
 32
0.0
 13
68.99986199999994
 23
59.99862366426487
 33
0.0
  0
TEXT
  5
19E
  8
250
  6
CONTINUOUS
 62
     0
 10
30.24993099999997
 20
60.99862366426487
 30
0.0
 40
3.0
  1
69.0
  0
POINT
  5
19F
  8
DEFPOINTS
 62
     0
 10
0.0
 20
34.92493015
 30
0.0
  0
POINT
  5
1A0
  8
DEFPOINTS
 62
     0
 10
68.99986199999994
 20
30.63570199999997
 30
0.0
  0
POINT
  5
1A1
  8
DEFPOINTS
 62
     0
 10
68.99986199999994
 20
59.99862366426487
 30
0.0
  0
ENDBLK
  5
3E8
  8
0
  0
BLOCK
  8
0
  2
*D3
 70
     1
 10
0.0
 20
0.0
 30
0.0
  3
*D3
  1

  0
LINE
  5
190
  8
250
 62
     0
 10
37.86930450163042
 20
31.6982
 30
0.0
 11
37.86930450163042
 21
42.56708922577821
 31
0.0
  0
LINE
  5
191
  8
250
 62
     0
 10
68.99986199999994
 20
30.69820199999997
 30
0.0
 11
68.99986199999994
 21
42.56708922577821
 31
0.0
  0
LINE
  5
192
  8
250
 62
     0
 10
40.86930450163042
 20
42.38708922577821
 30
0.0
 11
65.99986199999994
 21
42.38708922577821
 31
0.0
  0
SOLID
  5
193
  8
250
 62
     0
 10
40.86930450163042
 20
42.88708922577821
 30
0.0
 11
40.86930450163042
 21
41.88708922577821
 31
0.0
 12
37.86930450163042
 22
42.38708922577821
 32
0.0
 13
37.86930450163042
 23
42.38708922577821
 33
0.0
  0
SOLID
  5
194
  8
250
 62
     0
 10
65.99986199999994
 20
41.88708922577821
 30
0.0
 11
65.99986199999994
 21
42.88708922577821
 31
0.0
 12
68.99986199999994
 22
42.38708922577821
 32
0.0
 13
68.99986199999994
 23
42.38708922577821
 33
0.0
  0
TEXT
  5
195
  8
250
  6
CONTINUOUS
 62
     0
 10
49.93458325081518
 20
43.38708922577821
 30
0.0
 40
3.0
  1
31.1
  0
POINT
  5
196
  8
DEFPOINTS
 62
     0
 10
37.86930450163042
 20
31.6357
 30
0.0
  0
POINT
  5
197
  8
DEFPOINTS
 62
     0
 10
68.99986199999994
 20
30.63570199999997
 30
0.0
  0
POINT
  5
198
  8
DEFPOINTS
 62
     0
 10
68.99986199999994
 20
42.38708922577821
 30
0.0
  0
ENDBLK
  5
3EA
  8
0
  0
BLOCK
  8
0
  2
*D4
 70
     1
 10
0.0
 20
0.0
 30
0.0
  3
*D4
  1

  0
LINE
  5
420
  8
250
 62
     0
 10
68.06236399999992
 20
31.6357
 30
0.0
 11
87.83459540740219
 21
31.6357
 31
0.0
  0
LINE
  5
421
  8
250
 62
     0
 10
68.0623639999999
 20
-31.6357
 30
0.0
 11
87.83459540740219
 21
-31.6357
 31
0.0
  0
LINE
  5
422
  8
250
 62
     0
 10
87.65459540740218
 20
28.6357
 30
0.0
 11
87.65459540740218
 21
-28.6357
 31
0.0
  0
SOLID
  5
423
  8
250
 62
     0
 10
88.15459540740218
 20
28.6357
 30
0.0
 11
87.15459540740218
 21
28.6357
 31
0.0
 12
87.65459540740218
 22
31.6357
 32
0.0
 13
87.65459540740218
 23
31.6357
 33
0.0
  0
SOLID
  5
424
  8
250
 62
     0
 10
87.15459540740218
 20
-28.6357
 30
0.0
 11
88.15459540740218
 21
-28.6357
 31
0.0
 12
87.65459540740218
 22
-31.6357
 32
0.0
 13
87.65459540740218
 23
-31.6357
 33
0.0
  0
TEXT
  5
425
  8
250
  6
CONTINUOUS
 62
     0
 10
86.65459540740218
 20
-4.5
 30
0.0
 40
3.0
  1
63.3
 50
90.0
  0
POINT
  5
426
  8
DEFPOINTS
 62
     0
 10
67.99986399999992
 20
31.6357
 30
0.0
  0
POINT
  5
427
  8
DEFPOINTS
 62
     0
 10
67.9998639999999
 20
-31.6357
 30
0.0
  0
POINT
  5
428
  8
DEFPOINTS
 62
     0
 10
87.65459540740218
 20
-31.6357
 30
0.0
  0
ENDBLK
  5
42A
  8
0
  0
ENDSEC
  0
SECTION
  2
ENTITIES
  0
LINE
  5
3EF
  8
243
 10
3.174993650000015
 20
-41.30501513962975
 30
0.0
 11
26.48414478142979
 21
-17.99586400819998
 31
0.0
  0
LINE
  5
3F0
  8
243
 10
3.174993650000015
 20
-36.28427475031013
 30
0.0
 11
23.25916724277057
 21
-16.20010115753962
 31
0.0
  0
LINE
  5
3F1
  8
243
 10
3.174993650000015
 20
41.30501513962975
 30
0.0
 11
26.48414478142979
 21
17.99586400820002
 31
0.0
  0
LINE
  5
23
  8
243
 10
3.174993650000015
 20
36.28427475031021
 30
0.0
 11
23.25916724277057
 21
16.20010115753967
 31
0.0
  0
LINE
  5
24
  8
240
 10
67.9998639999999
 20
31.6357
 30
0.0
 11
68.99986199999994
 21
30.63570199999998
 31
0.0
  0
LINE
  5
26
  8
240
 10
67.9998639999999
 20
-31.6357
 30
0.0
 11
68.99986199999994
 21
-30.63570199999997
 31
0.0
  0
LINE
  5
3F2
  8
240
 10
68.99986199999994
 20
0.0000000000000036
 30
0.0
 11
68.99986199999994
 21
-30.63570199999997
 31
0.0
  0
LINE
  5
28
  8
240
 10
68.99986199999994
 20
0.0000000000000036
 30
0.0
 11
68.99986199999994
 21
30.63570199999998
 31
0.0
  0
LINE
  5
29
  8
240
 10
18.28796342399993
 20
49.21240157499999
 30
0.0
 11
19.0499619000001
 21
48.45040309899997
 31
0.0
  0
LINE
  5
2A
  8
240
 10
14.6601870341205
 20
49.21240157499999
 30
0.0
 11
18.28796342399993
 21
49.21240157499999
 31
0.0
  0
LINE
  5
2B
  8
240
 10
9.216371567219916
 20
46.42653098042769
 30
0.0
 11
7.607948429516161
 21
49.21240157499999
 31
0.0
  0
LINE
  5
2C
  8
240
 10
13.05176389641991
 20
46.42653098043346
 30
0.0
 11
13.05176389641991
 21
45.64370871239997
 31
0.0
  0
LINE
  5
2D
  8
240
 10
9.216371567219916
 20
46.42653098042774
 30
0.0
 11
9.216371567219916
 21
45.64370871239997
 31
0.0
  0
LINE
  5
2E
  8
240
 10
9.216371567219916
 20
45.64370871239997
 30
0.0
 11
13.05176389641991
 21
45.64370871239997
 31
0.0
  0
LINE
  5
2F
  8
240
 10
13.05176389641991
 20
46.42653098043346
 30
0.0
 11
14.6601870341205
 21
49.21240157499999
 31
0.0
  0
LINE
  5
30
  8
240
 10
34.92493015000005
 20
34.42493115
 30
0.0
 11
34.42493115
 21
34.92493015
 31
0.0
  0
ARC
  5
31
  8
240
 10
19.811960376
 20
35.686928626
 30
0.0
 40
0.7619984759999999
 50
180.0
 51
269.9999999999998
  0
LINE
  5
32
  8
240
 10
19.811960376
 20
34.92493015
 30
0.0
 11
34.42493115
 21
34.92493015
 31
0.0
  0
ARC
  5
33
  8
240
 10
37.86930450163042
 20
34.63569399999997
 30
0.0
 40
2.999994
 50
191.0500649592956
 51
270.0
  0
LINE
  5
34
  8
243
 10
52.31209537560001
 20
25.1967496064
 30
0.0
 11
52.31209537560001
 21
17.99586400820007
 31
0.0
  0
LINE
  5
35
  8
243
 10
24.29595140799999
 20
17.99586400820002
 30
0.0
 11
21.41157296692407
 21
12.99997400000006
 31
0.0
  0
LINE
  5
36
  8
240
 10
3.174993650000015
 20
48.45040309900005
 30
0.0
 11
3.93699212600001
 21
49.21240157499999
 31
0.0
  0
ARC
  5
37
  8
240
 10
2.666994665999932
 20
35.43292913399997
 30
0.0
 40
0.507998984
 50
270.0
 51
0.0
  0
LINE
  5
38
  8
240
 10
0.0
 20
34.92493015
 30
0.0
 11
2.66699466600002
 21
34.92493015
 31
0.0
  0
LINE
  5
39
  8
243
 10
-10.99997800000002
 20
12.99997399999997
 30
0.0
 11
-12.0897244535981
 21
11.1124777750001
 31
0.0
  0
LINE
  5
3A
  8
243
 10
21.41157296692407
 20
12.99997400000006
 30
0.0
 11
-10.99997800000002
 21
12.99997399999997
 31
0.0
  0
LINE
  5
3B
  8
240
 10
3.93699212600001
 20
49.21240157499999
 30
0.0
 11
7.607948429516161
 21
49.21240157499999
 31
0.0
  0
ARC
  5
3C
  8
240
 10
-98.55180289599996
 20
17.47255744937397
 30
0.0
 40
3.047993904
 50
98.2971449689998
 51
179.9999999999999
  0
LINE
  5
3D
  8
243
 10
-99.6420636876788
 20
13.15717368560005
 30
0.0
 11
-95.2498095000001
 21
13.15717368560005
 31
0.0
  0
LINE
  5
3E
  8
243
 10
-101.5997967999999
 20
14.28747142500003
 30
0.0
 11
-99.6420636876788
 21
13.15717368560005
 31
0.0
  0
LINE
  5
3F
  8
243
 10
-95.2498095000001
 20
12.69997460000007
 30
0.0
 11
-57.14988569999993
 21
12.69997460000007
 31
0.0
  0
LINE
  5
40
  8
243
 10
-57.14988569999993
 20
12.69997460000007
 30
0.0
 11
-51.22526689224564
 21
11.11247777500001
 31
0.0
  0
LINE
  5
41
  8
240
 10
0.0
 20
34.92493015
 30
0.0
 11
-98.99164942634363
 21
20.48864794346819
 31
0.0
  0
LINE
  5
42
  8
243
 10
-95.2498095000001
 20
11.11247777500001
 30
0.0
 11
-12.08972445359818
 21
11.11247777500001
 31
0.0
  0
LINE
  5
43
  8
243
 10
52.31209537560001
 20
-25.19674960639995
 30
0.0
 11
52.31209537560001
 21
-17.99586400819997
 31
0.0
  0
LINE
  5
DA
  8
243
 10
24.29595140799999
 20
-17.99586400819997
 30
0.0
 11
21.41157296692397
 21
-12.99997399999988
 31
0.0
  0
LINE
  5
DB
  8
240
 10
34.92493015000005
 20
-34.42493114999987
 30
0.0
 11
34.42493115
 21
-34.92493014999989
 31
0.0
  0
ARC
  5
DC
  8
240
 10
19.811960376
 20
-35.68692862599997
 30
0.0
 40
0.7619984759999999
 50
90.0
 51
180.0
  0
LINE
  5
DD
  8
240
 10
34.42493115
 20
-34.92493014999989
 30
0.0
 11
19.811960376
 21
-34.92493014999989
 31
0.0
  0
LINE
  5
DE
  8
240
 10
14.6601870341205
 20
-49.21240157499997
 30
0.0
 11
18.28796342399993
 21
-49.21240157499997
 31
0.0
  0
LINE
  5
DF
  8
240
 10
18.28796342399993
 20
-49.21240157499997
 30
0.0
 11
19.0499619000001
 21
-48.45040309899987
 31
0.0
  0
LINE
  5
E0
  8
240
 10
13.05176389641991
 20
-46.42653098043343
 30
0.0
 11
13.05176389641991
 21
-45.64370871239995
 31
0.0
  0
LINE
  5
E1
  8
240
 10
9.216371567219916
 20
-46.42653098042759
 30
0.0
 11
7.607948429516161
 21
-49.21240157499997
 31
0.0
  0
LINE
  5
E2
  8
240
 10
9.216371567219916
 20
-46.42653098042774
 30
0.0
 11
9.216371567219916
 21
-45.64370871239995
 31
0.0
  0
LINE
  5
E3
  8
240
 10
9.216371567219916
 20
-45.64370871239995
 30
0.0
 11
13.05176389641991
 21
-45.64370871239995
 31
0.0
  0
LINE
  5
E4
  8
240
 10
13.05176389641991
 20
-46.42653098043343
 30
0.0
 11
14.6601870341205
 21
-49.21240157499997
 31
0.0
  0
ARC
  5
E5
  8
240
 10
37.86930450162928
 20
-34.63569399999997
 30
0.0
 40
2.999994
 50
90.0
 51
168.9499350406765
  0
LINE
  5
E6
  8
240
 10
14.6601870341205
 20
-49.21240157499997
 30
0.0
 11
14.6601870341205
 21
0.0
 31
0.0
  0
LINE
  5
E7
  8
240
 10
7.607948429516161
 20
-49.21240157499997
 30
0.0
 11
7.607948429516161
 21
0.0
 31
0.0
  0
LINE
  5
E8
  8
240
 10
19.0499619000001
 20
0.0
 30
0.0
 11
19.0499619000001
 21
-48.45040309899987
 31
0.0
  0
LINE
  5
E9
  8
240
 10
9.216371567219916
 20
-45.64370871239995
 30
0.0
 11
9.216371567219916
 21
0.0
 31
0.0
  0
LINE
  5
EA
  8
240
 10
13.05176389641991
 20
-45.64370871239995
 30
0.0
 11
13.05176389641991
 21
0.0
 31
0.0
  0
LINE
  5
EB
  8
243
 10
-10.99997800000002
 20
-12.99997399999997
 30
0.0
 11
-12.0897244535981
 21
-11.1124777750001
 31
0.0
  0
LINE
  5
EC
  8
243
 10
-12.08972445359818
 20
-11.11247777500006
 30
0.0
 11
-12.08972445359818
 21
-0.0000000000000457
 31
0.0
  0
LINE
  5
ED
  8
243
 10
-10.99997800000002
 20
-12.99997399999997
 30
0.0
 11
-10.99997800000002
 21
-0.0000000000000457
 31
0.0
  0
ARC
  5
EE
  8
240
 10
2.666994665999932
 20
-35.43292913399997
 30
0.0
 40
0.507998984
 50
0.0
 51
90.0
  0
LINE
  5
EF
  8
240
 10
0.0
 20
-34.92493014999989
 30
0.0
 11
2.66699466600002
 21
-34.92493014999989
 31
0.0
  0
LINE
  5
F0
  8
240
 10
3.174993650000015
 20
-48.45040309899997
 30
0.0
 11
3.93699212600001
 21
-49.21240157499997
 31
0.0
  0
LINE
  5
F1
  8
240
 10
3.174993650000015
 20
0.0
 30
0.0
 11
3.174993650000015
 21
-48.45040309899997
 31
0.0
  0
LINE
  5
F2
  8
240
 10
0.0
 20
0.0
 30
0.0
 11
0.0
 21
-34.92493014999989
 31
0.0
  0
LINE
  5
F3
  8
240
 10
3.93699212600001
 20
-49.21240157499997
 30
0.0
 11
7.607948429516161
 21
-49.21240157499997
 31
0.0
  0
LINE
  5
F4
  8
243
 10
21.41157296692407
 20
-12.9999740000001
 30
0.0
 11
-10.99997800000002
 21
-12.99997399999997
 31
0.0
  0
LINE
  5
F5
  8
243
 10
-57.14988569999993
 20
-12.69997459999997
 30
0.0
 11
-57.14988569999993
 21
0.0
 31
0.0
  0
LINE
  5
F6
  8
243
 10
-99.6420636876788
 20
-13.15717368559996
 30
0.0
 11
-95.2498095000001
 21
-13.15717368559996
 31
0.0
  0
LINE
  5
F7
  8
243
 10
-95.2498095000001
 20
0.0
 30
0.0
 11
-95.2498095000001
 21
-13.15717368559996
 31
0.0
  0
LINE
  5
F8
  8
243
 10
-99.6420636876788
 20
-13.15717368559996
 30
0.0
 11
-99.6420636876788
 21
0.0
 31
0.0
  0
LINE
  5
F9
  8
243
 10
-101.5997967999999
 20
-14.28747142499994
 30
0.0
 11
-99.6420636876788
 21
-13.15717368559996
 31
0.0
  0
ARC
  5
FA
  8
240
 10
-98.55180289599996
 20
-17.47255744937383
 30
0.0
 40
3.047993904
 50
180.0
 51
261.7028550310002
  0
LINE
  5
FB
  8
240
 10
-101.5997967999999
 20
0.0
 30
0.0
 11
-101.5997967999999
 21
-17.47255744937383
 31
0.0
  0
LINE
  5
FC
  8
243
 10
-95.2498095000001
 20
-12.69997459999997
 30
0.0
 11
-57.14988569999993
 21
-12.69997459999997
 31
0.0
  0
LINE
  5
FD
  8
243
 10
-51.22526689224564
 20
-11.11247777499992
 30
0.0
 11
-57.14988569999993
 21
-12.69997459999997
 31
0.0
  0
LINE
  5
FE
  8
243
 10
-95.2498095000001
 20
-11.11247777499992
 30
0.0
 11
-12.08972445359818
 21
-11.11247777499992
 31
0.0
  0
LINE
  5
FF
  8
240
 10
0.0
 20
-34.92493014999989
 30
0.0
 11
-98.99164942634363
 21
-20.4886479434681
 31
0.0
  0
INSERT
  5
100
  8
250
  2
DK
 10
0.0
 20
0.0
 30
0.0
 41
0.999998
 42
0.999998
 43
0.999998
  0
LINE
  5
110
  8
243
 10
-95.2498095000001
 20
0.0
 30
0.0
 11
-95.2498095000001
 21
13.15717368560005
 31
0.0
  0
LINE
  5
111
  8
243
 10
-99.6420636876788
 20
13.15717368560005
 30
0.0
 11
-99.6420636876788
 21
0.0
 31
0.0
  0
LINE
  5
112
  8
240
 10
-101.5997967999999
 20
0.0
 30
0.0
 11
-101.5997967999999
 21
17.47255744937397
 31
0.0
  0
LINE
  5
113
  8
243
 10
-57.14988569999993
 20
12.69997460000007
 30
0.0
 11
-57.14988569999993
 21
0.0
 31
0.0
  0
LINE
  5
114
  8
240
 10
34.92493015000005
 20
-34.42493114999987
 30
0.0
 11
34.92493015000005
 21
34.42493115
 31
0.0
  0
LINE
  5
115
  8
240
 10
37.86930450163042
 20
31.6357
 30
0.0
 11
37.86930450162928
 21
-31.6357
 31
0.0
  0
LINE
  5
116
  8
240
 10
0.0
 20
0.0
 30
0.0
 11
0.0
 21
34.92493015
 31
0.0
  0
LINE
  5
117
  8
240
 10
14.6601870341205
 20
0.0
 30
0.0
 11
14.6601870341205
 21
49.21240157499999
 31
0.0
  0
LINE
  5
118
  8
240
 10
7.607948429516161
 20
0.0
 30
0.0
 11
7.607948429516161
 21
49.21240157499999
 31
0.0
  0
LINE
  5
119
  8
240
 10
3.174993650000015
 20
0.0
 30
0.0
 11
3.174993650000015
 21
48.45040309900005
 31
0.0
  0
LINE
  5
11A
  8
240
 10
19.0499619000001
 20
0.0
 30
0.0
 11
19.0499619000001
 21
48.45040309899997
 31
0.0
  0
LINE
  5
11B
  8
240
 10
13.05176389641991
 20
45.64370871239997
 30
0.0
 11
13.05176389641991
 21
0.0
 31
0.0
  0
LINE
  5
11C
  8
240
 10
9.216371567219916
 20
45.64370871239997
 30
0.0
 11
9.216371567219916
 21
0.0
 31
0.0
  0
LINE
  5
11D
  8
243
 10
-10.99997800000002
 20
12.99997399999997
 30
0.0
 11
-10.99997800000002
 21
0.0
 31
0.0
  0
LINE
  5
11E
  8
243
 10
-12.08972445359818
 20
11.11247777500001
 30
0.0
 11
-12.08972445359818
 21
0.0
 31
0.0
  0
CIRCLE
  5
11F
  8
240
 10
52.94709410559989
 20
0.0000000000000036
 30
0.0
 40
5.486389027200088
  0
POLYLINE
  5
120
  8
240
 66
     1
 10
0.0
 20
0.0
 30
0.0
 70
     1
  0
VERTEX
  5
43A
  8
240
 10
46.1311074844124
 20
0.0000000000000036
 30
0.0
 42
0.1075270714354371
  0
VERTEX
  5
43B
  8
240
 10
46.63916796081782
 20
-2.335161919479702
 30
0.0
 42
0.1017862429383482
  0
VERTEX
  5
43C
  8
240
 10
48.12746374528152
 20
-4.370681216101272
 30
0.0
 42
0.0945967217597763
  0
VERTEX
  5
43D
  8
240
 10
50.30873515404609
 20
-5.701899048136898
 30
0.0
 42
0.0900730289486178
  0
VERTEX
  5
43E
  8
240
 10
52.94709410559989
 20
-6.181076652619724
 30
0.0
 42
0.0900730289486174
  0
VERTEX
  5
43F
  8
240
 10
55.58545305715377
 20
-5.701899048136898
 30
0.0
 42
0.0945967217597764
  0
VERTEX
  5
440
  8
240
 10
57.76672446591839
 20
-4.370681216101272
 30
0.0
 42
0.1017862429383479
  0
VERTEX
  5
441
  8
240
 10
59.25502025038209
 20
-2.335161919479702
 30
0.0
 42
0.1075270714354359
  0
VERTEX
  5
442
  8
240
 10
59.76308072678745
 20
0.0000000000000036
 30
0.0
 42
0.1075270714354361
  0
VERTEX
  5
443
  8
240
 10
59.25502025038209
 20
2.335161919479798
 30
0.0
 42
0.1017862429383472
  0
VERTEX
  5
444
  8
240
 10
57.76672446591839
 20
4.370681216101279
 30
0.0
 42
0.0945967217597756
  0
VERTEX
  5
445
  8
240
 10
55.58545305715377
 20
5.70189904813695
 30
0.0
 42
0.0900730289486177
  0
VERTEX
  5
446
  8
240
 10
52.94709410559989
 20
6.181076652619731
 30
0.0
 42
0.0900730289486173
  0
VERTEX
  5
447
  8
240
 10
50.30873515404609
 20
5.70189904813695
 30
0.0
 42
0.0945967217597766
  0
VERTEX
  5
448
  8
240
 10
48.12746374528152
 20
4.370681216101279
 30
0.0
 42
0.1017862429383487
  0
VERTEX
  5
449
  8
240
 10
46.63916796081782
 20
2.335161919479798
 30
0.0
 42
0.1075270714354371
  0
SEQEND
  5
452
  8
240
  0
LINE
  5
121
  8
243
 10
24.29595140799992
 20
17.99586400820002
 30
0.0
 11
24.29595140800009
 21
-17.99586400819997
 31
0.0
  0
LINE
  5
122
  8
243
 10
21.41157296692407
 20
12.99997400000006
 30
0.0
 11
21.41157296692397
 21
-12.99997399999988
 31
0.0
  0
POLYLINE
  5
123
  8
240
 66
     1
 10
0.0
 20
0.0
 30
0.0
 70
     1
  0
VERTEX
  5
44A
  8
240
 10
50.42118460347628
 20
4.375003592999293
 30
0.0
  0
VERTEX
  5
44B
  8
240
 10
47.89527510135257
 20
0.0000000000000036
 30
0.0
  0
VERTEX
  5
44C
  8
240
 10
50.42118460347628
 20
-4.375003592999242
 30
0.0
  0
VERTEX
  5
44D
  8
240
 10
55.4730036077236
 20
-4.375003592999242
 30
0.0
  0
VERTEX
  5
44E
  8
240
 10
57.99891310984729
 20
0.0000000000000036
 30
0.0
  0
VERTEX
  5
44F
  8
240
 10
55.4730036077236
 20
4.375003592999293
 30
0.0
  0
SEQEND
  5
451
  8
240
  0
LINE
  5
124
  8
240
 10
37.86930450163042
 20
31.6357
 30
0.0
 11
67.99986399999992
 21
31.6357
 31
0.0
  0
LINE
  5
125
  8
243
 10
68.99986199999994
 20
25.1967496064
 30
0.0
 11
52.31209537560001
 21
25.1967496064
 31
0.0
  0
LINE
  5
126
  8
240
 10
37.86930450162928
 20
-31.6357
 30
0.0
 11
67.9998639999999
 21
-31.6357
 31
0.0
  0
LINE
  5
127
  8
243
 10
68.99986199999994
 20
-25.19674960639995
 30
0.0
 11
52.31209537560001
 21
-25.19674960639995
 31
0.0
  0
LINE
  5
128
  8
243
 10
24.29595140800009
 20
-17.99586400819997
 30
0.0
 11
68.99986199999994
 21
-17.99586400819997
 31
0.0
  0
LINE
  5
129
  8
243
 10
24.29595140799992
 20
17.99586400820002
 30
0.0
 11
68.99986199999994
 21
17.99586400820002
 31
0.0
  0
LINE
  5
12A
  8
245
 10
-103.1872936250002
 20
0.0
 30
0.0
 11
75.72626592381391
 21
0.0
 31
0.0
  0
DIMENSION
  5
15D
  8
250
  2
*D2
 10
68.99986199999994
 20
59.99862366426487
 30
0.0
 11
34.49993099999997
 21
62.49862366426487
 31
0.0
 70
    32
  3
STANDARD
 13
0.0
 23
34.92493015
 33
0.0
 14
68.99986199999994
 24
30.63570199999997
 34
0.0
1001
ACAD
1000
DSTYLE
1002
{
1070
   271
1070
     1
1070
   147
1040
1.0
1070
   140
1040
3.0
1070
    41
1040
3.0
1002
}
  0
DIMENSION
  5
16A
  8
250
  2
*D3
 10
68.99986199999994
 20
42.38708922577821
 30
0.0
 11
53.43458325081518
 21
44.88708922577821
 31
0.0
 70
    32
  3
STANDARD
 13
37.86930450163042
 23
31.6357
 33
0.0
 14
68.99986199999994
 24
30.63570199999997
 34
0.0
1001
ACAD
1000
DSTYLE
1002
{
1070
   271
1070
     1
1070
   147
1040
1.0
1070
   140
1040
3.0
1070
    41
1040
3.0
1002
}
  0
LINE
  5
364
  8
250
 10
-48.16412644067854
 20
40.14759669791334
 30
0.0
 11
-48.16412644067854
 21
41.30923259227966
 31
0.0
  0
LINE
  5
365
  8
250
 10
-52.38891241337361
 20
38.42306409942918
 30
0.0
 11
-54.65070965590201
 21
43.27350393881991
 31
0.0
  0
LINE
  5
366
  8
250
 10
-53.7126506024034
 20
38.18332535137294
 30
0.0
 11
-55.97444784493088
 21
43.03376519076385
 31
0.0
  0
LINE
  5
367
  8
250
 10
-47.32774859673488
 20
36.3606636822789
 30
0.0
 11
-47.32774859673488
 21
45.0961656079141
 31
0.0
  0
LINE
  5
368
  8
250
 10
-51.50963781645366
 20
36.3606636822789
 30
0.0
 11
-51.50963781645366
 21
45.0961656079141
 31
0.0
  0
LINE
  5
369
  8
250
 10
-58.38652231110235
 20
36.3606636822789
 30
0.0
 11
-58.38652231110235
 21
45.0961656079141
 31
0.0
  0
LINE
  5
36A
  8
250
 10
-57.08549010941201
 20
45.0961656079141
 30
0.0
 11
-57.08549010941201
 21
36.3606636822789
 31
0.0
  0
ARC
  5
36B
  8
250
 10
-44.21456439983246
 20
39.56677875073018
 30
0.0
 40
1.161635894366379
 50
0.0
 51
90.0
  0
LINE
  5
36C
  8
250
 10
-75.86770892742226
 20
40.14759669791334
 30
0.0
 11
-75.86770892742226
 21
41.30923259227966
 31
0.0
  0
LINE
  5
36D
  8
250
 10
-77.05897890004158
 20
40.14759669791334
 30
0.0
 11
-77.05897890004158
 21
42.62188115291382
 31
0.0
  0
LINE
  5
36E
  8
250
 10
-65.17002070850309
 20
36.36066368227873
 30
0.0
 11
-67.04862251086537
 21
41.06749104186564
 31
0.0
  0
LINE
  5
36F
  8
250
 10
-73.3515425177844
 20
38.8349481372794
 30
0.0
 11
-73.3515425177844
 21
41.30923259227966
 31
0.0
  0
LINE
  5
370
  8
250
 10
-78.45294197328116
 20
38.8349481372794
 30
0.0
 11
-78.45294197328116
 21
42.62188115291382
 31
0.0
  0
LINE
  5
371
  8
250
 10
-70.2363829328079
 20
45.0961656079141
 30
0.0
 11
-70.2363829328079
 21
36.3606636822789
 31
0.0
  0
LINE
  5
372
  8
250
 10
-80.72896637499473
 20
36.3606636822789
 30
0.0
 11
-80.72896637499473
 21
45.0961656079141
 31
0.0
  0
LINE
  5
373
  8
250
 10
-79.42793417330438
 20
45.0961656079141
 30
0.0
 11
-79.42793417330438
 21
36.3606636822789
 31
0.0
  0
LINE
  5
374
  8
250
 10
-86.80535803051511
 20
36.3606636822789
 30
0.0
 11
-86.80535803051511
 21
45.0961656079141
 31
0.0
  0
ARC
  5
375
  8
250
 10
-84.3252038067255
 20
38.8349481372794
 30
0.0
 40
2.621245231707499
 50
289.2767926682573
 51
46.24915972781767
  0
LINE
  5
376
  8
250
 10
-63.34469137203202
 20
37.52229957664525
 30
0.0
 11
-62.32310707737422
 21
42.77789516238001
 31
0.0
  0
LINE
  5
377
  8
250
 10
-64.7538683953345
 20
36.36066368227873
 30
0.0
 11
-63.05585883055652
 21
45.0961656079141
 31
0.0
  0
LINE
  5
378
  8
250
 10
-60.29476839640638
 20
36.36066368227873
 30
0.0
 11
-62.32310707737422
 21
42.77789516238001
 31
0.0
  0
LINE
  5
379
  8
250
 10
-61.24147600962102
 20
45.0961656079141
 30
0.0
 11
-58.90080532316644
 21
36.36066368227873
 31
0.0
  0
LINE
  5
37A
  8
250
 10
-66.74984552484113
 20
36.3606636822789
 30
0.0
 11
-65.17002070850309
 21
36.3606636822789
 31
0.0
  0
ARC
  5
37B
  8
250
 10
-75.83169674157364
 20
38.8349481372794
 30
0.0
 40
2.621245231707555
 50
180.0
 51
250.7232073317388
  0
LINE
  5
37C
  8
250
 10
-83.81849234921673
 20
40.14759669791334
 30
0.0
 11
-85.41139495727552
 21
40.14759669791334
 31
0.0
  0
LINE
  5
37D
  8
250
 10
-80.72896637499473
 20
36.3606636822789
 30
0.0
 11
-79.42793417330438
 21
36.3606636822789
 31
0.0
  0
LINE
  5
37E
  8
250
 10
-85.03967147107821
 20
36.3606636822789
 30
0.0
 11
-83.45984665474015
 21
36.3606636822789
 31
0.0
  0
LINE
  5
37F
  8
250
 10
-86.80535803051511
 20
36.3606636822789
 30
0.0
 11
-83.45984665474015
 21
36.3606636822789
 31
0.0
  0
LINE
  5
380
  8
250
 10
-85.41139495727552
 20
37.52229957664525
 30
0.0
 11
-83.81849234921673
 21
37.52229957664525
 31
0.0
  0
LINE
  5
381
  8
250
 10
-85.41139495727552
 20
37.52229957664525
 30
0.0
 11
-85.41139495727552
 21
40.14759669791334
 31
0.0
  0
ARC
  5
382
  8
250
 10
-84.51471013660765
 20
38.8349481372794
 30
0.0
 40
1.485855124571082
 50
297.941104069763
 51
62.05889593023716
  0
LINE
  5
383
  8
250
 10
-74.67643895480296
 20
40.14759669791334
 30
0.0
 11
-75.86770892742226
 21
40.14759669791334
 31
0.0
  0
LINE
  5
384
  8
250
 10
-66.74984552484113
 20
36.3606636822789
 30
0.0
 11
-67.89985724610997
 21
39.2420122611559
 31
0.0
  0
LINE
  5
385
  8
250
 10
-68.65655811646984
 20
37.61926200791433
 30
0.0
 11
-67.89985724610997
 21
39.2420122611559
 31
0.0
  0
LINE
  5
386
  8
250
 10
-68.65655811646984
 20
36.3606636822789
 30
0.0
 11
-68.65655811646984
 21
37.61926200791433
 31
0.0
  0
LINE
  5
387
  8
250
 10
-70.2363829328079
 20
36.3606636822789
 30
0.0
 11
-68.65655811646984
 21
36.3606636822789
 31
0.0
  0
ARC
  5
388
  8
250
 10
-75.97278774949154
 20
38.8349481372794
 30
0.0
 40
2.621245231707499
 50
289.2767926682573
 51
0.0
  0
LINE
  5
389
  8
250
 10
-76.68725541384427
 20
36.3606636822789
 30
0.0
 11
-75.10743059750585
 21
36.3606636822789
 31
0.0
  0
LINE
  5
38A
  8
250
 10
-76.69705389355968
 20
36.3606636822789
 30
0.0
 11
-75.10743059750585
 21
36.3606636822789
 31
0.0
  0
ARC
  5
38B
  8
250
 10
-75.5731237754708
 20
38.8349481372794
 30
0.0
 40
1.485855124571082
 50
180.0
 51
242.058895930237
  0
ARC
  5
38C
  8
250
 10
-76.16229407937409
 20
38.8349481372794
 30
0.0
 40
1.485855124571082
 50
297.941104069763
 51
0.0
  0
LINE
  5
38D
  8
250
 10
-76.26934156286175
 20
37.52229957664525
 30
0.0
 11
-75.46607629198314
 21
37.52229957664525
 31
0.0
  0
LINE
  5
38E
  8
250
 10
-74.67643895480296
 20
38.8349481372794
 30
0.0
 11
-74.67643895480296
 21
40.14759669791334
 31
0.0
  0
LINE
  5
38F
  8
250
 10
-77.05897890004158
 20
38.8349481372794
 30
0.0
 11
-77.05897890004158
 21
40.14759669791334
 31
0.0
  0
LINE
  5
390
  8
250
 10
-44.38877176967385
 20
36.3606636822789
 30
0.0
 11
-42.90836721010977
 21
36.3606636822789
 31
0.0
  0
LINE
  5
391
  8
250
 10
-56.15618139391931
 20
36.3606636822789
 30
0.0
 11
-53.70280638501702
 21
36.3606636822789
 31
0.0
  0
LINE
  5
392
  8
250
 10
-56.15618139391931
 20
37.52229957664525
 30
0.0
 11
-54.13377046510898
 21
37.52229957664525
 31
0.0
  0
LINE
  5
393
  8
250
 10
-56.15618139391931
 20
37.52229957664525
 30
0.0
 11
-56.15618139391931
 21
36.3606636822789
 31
0.0
  0
LINE
  5
394
  8
250
 10
-58.38652231110275
 20
36.3606636822789
 30
0.0
 11
-57.08549010941201
 21
36.3606636822789
 31
0.0
  0
LINE
  5
395
  8
250
 10
-61.40835701955991
 20
36.36066368227873
 30
0.0
 11
-61.71961641935442
 21
37.52229957664525
 31
0.0
  0
LINE
  5
396
  8
250
 10
-64.7538683953345
 20
36.36066368227873
 30
0.0
 11
-61.40835701955991
 21
36.36066368227873
 31
0.0
  0
LINE
  5
397
  8
250
 10
-63.34469137203202
 20
37.52229957664525
 30
0.0
 11
-61.71961641935442
 21
37.52229957664525
 31
0.0
  0
LINE
  5
398
  8
250
 10
-58.90080532316644
 20
36.36066368227873
 30
0.0
 11
-60.29476839640638
 21
36.36066368227873
 31
0.0
  0
LINE
  5
399
  8
250
 10
-45.28326942264975
 20
40.14759669791334
 30
0.0
 11
-45.9337855234951
 21
40.14759669791334
 31
0.0
  0
LINE
  5
39A
  8
250
 10
-48.16412644067854
 20
40.14759669791334
 30
0.0
 11
-50.11567474321424
 21
40.14759669791334
 31
0.0
  0
LINE
  5
39B
  8
250
 10
-44.44689157870593
 20
39.31121885396971
 30
0.0
 11
-44.44689157870593
 21
36.8218220803341
 31
0.0
  0
LINE
  5
39C
  8
250
 10
-48.16412644067854
 20
36.3606636822789
 30
0.0
 11
-48.16412644067854
 21
37.52229957664525
 31
0.0
  0
LINE
  5
39D
  8
250
 10
-47.32774859673488
 20
36.3606636822789
 30
0.0
 11
-45.9337855234951
 21
36.3606636822789
 31
0.0
  0
ARC
  5
39E
  8
250
 10
-42.58827414771962
 20
36.8218220803341
 30
0.0
 40
1.858617430986207
 50
180.0
 51
194.3662353416886
  0
ARC
  5
39F
  8
250
 10
-53.70280638501702
 20
37.8103852784484
 30
0.0
 40
1.449721596169241
 50
270.0
 51
24.99999999999877
  0
ARC
  5
3A0
  8
250
 10
-54.13377046510898
 20
37.98695393439195
 30
0.0
 40
0.4646543577465531
 50
270.0
 51
24.99999999999827
  0
LINE
  5
3A1
  8
250
 10
-51.50963781645366
 20
36.3606636822789
 30
0.0
 11
-48.16412644067854
 21
36.3606636822789
 31
0.0
  0
LINE
  5
3A2
  8
250
 10
-50.11567474321424
 20
37.52229957664525
 30
0.0
 11
-48.16412644067854
 21
37.52229957664525
 31
0.0
  0
LINE
  5
3A3
  8
250
 10
-50.11567474321424
 20
37.52229957664525
 30
0.0
 11
-50.11567474321424
 21
40.14759669791334
 31
0.0
  0
LINE
  5
3A4
  8
250
 10
-45.9337855234951
 20
36.3606636822789
 30
0.0
 11
-45.9337855234951
 21
40.14759669791334
 31
0.0
  0
ARC
  5
3A5
  8
250
 10
-45.28326942264975
 20
39.31121885396971
 30
0.0
 40
0.8363778439437937
 50
0.0
 51
90.0
  0
LINE
  5
3A6
  8
250
 10
-43.05292850546668
 20
36.9097747857594
 30
0.0
 11
-43.05292850546668
 21
39.56677875073018
 31
0.0
  0
ARC
  5
3A7
  8
250
 10
-41.93775804687498
 20
36.9097747857594
 30
0.0
 40
1.115170458591724
 50
180.0
 51
209.498518089503
  0
LINE
  5
3A8
  8
250
 10
-66.74984552484113
 20
45.0961656079141
 30
0.0
 11
-65.17002070850309
 21
45.0961656079141
 31
0.0
  0
LINE
  5
3A9
  8
250
 10
-67.04862251086537
 20
41.06749104186564
 30
0.0
 11
-65.17002070850309
 21
45.0961656079141
 31
0.0
  0
ARC
  5
3AA
  8
250
 10
-75.83169674157364
 20
42.62188115291382
 30
0.0
 40
2.621245231707555
 50
109.2767926682609
 51
180.0
  0
LINE
  5
3AB
  8
250
 10
-80.72896637499473
 20
45.0961656079141
 30
0.0
 11
-79.42793417330438
 21
45.0961656079141
 31
0.0
  0
ARC
  5
3AC
  8
250
 10
-84.51471013660765
 20
42.62188115291382
 30
0.0
 40
1.485855124571082
 50
297.9411040697628
 51
62.05889593023703
  0
LINE
  5
3AD
  8
250
 10
-85.41139495727552
 20
41.30923259227966
 30
0.0
 11
-85.41139495727552
 21
43.93452971354779
 31
0.0
  0
LINE
  5
3AE
  8
250
 10
-83.81849234921673
 20
41.30923259227966
 30
0.0
 11
-85.41139495727552
 21
41.30923259227966
 31
0.0
  0
LINE
  5
3AF
  8
250
 10
-85.41139495727552
 20
43.93452971354779
 30
0.0
 11
-83.81849234921673
 21
43.93452971354779
 31
0.0
  0
LINE
  5
3B0
  8
250
 10
-85.03967147107821
 20
45.0961656079141
 30
0.0
 11
-83.45984665474015
 21
45.0961656079141
 31
0.0
  0
LINE
  5
3B1
  8
250
 10
-86.80535803051511
 20
45.0961656079141
 30
0.0
 11
-83.45984665474015
 21
45.0961656079141
 31
0.0
  0
ARC
  5
3B2
  8
250
 10
-84.3252038067255
 20
42.62188115291382
 30
0.0
 40
2.621245231707555
 50
313.7508402721821
 51
70.72320733173908
  0
LINE
  5
3B3
  8
250
 10
-68.65655811646984
 20
41.00720725974438
 30
0.0
 11
-66.74984552484113
 21
45.0961656079141
 31
0.0
  0
LINE
  5
3B4
  8
250
 10
-68.65655811646984
 20
45.0961656079141
 30
0.0
 11
-68.65655811646984
 21
41.00720725974438
 31
0.0
  0
LINE
  5
3B5
  8
250
 10
-70.2363829328079
 20
45.0961656079141
 30
0.0
 11
-68.65655811646984
 21
45.0961656079141
 31
0.0
  0
ARC
  5
3B6
  8
250
 10
-76.16229407937409
 20
42.62188115291382
 30
0.0
 40
1.485855124571082
 50
0.0
 51
62.05889593023703
  0
ARC
  5
3B7
  8
250
 10
-75.5731237754708
 20
42.62188115291382
 30
0.0
 40
1.485855124571082
 50
117.941104069763
 51
180.0
  0
ARC
  5
3B8
  8
250
 10
-75.9727877494919
 20
42.62188115291382
 30
0.0
 40
2.621245231707555
 50
0.0
 51
70.72320733173908
  0
LINE
  5
3B9
  8
250
 10
-73.3515425177844
 20
41.30923259227966
 30
0.0
 11
-75.86770892742226
 21
41.30923259227966
 31
0.0
  0
LINE
  5
3BA
  8
250
 10
-74.67643895480296
 20
42.62188115291382
 30
0.0
 11
-73.3515425177844
 21
42.62188115291382
 31
0.0
  0
LINE
  5
3BB
  8
250
 10
-76.26934156286175
 20
43.93452971354779
 30
0.0
 11
-75.46607629198314
 21
43.93452971354779
 31
0.0
  0
LINE
  5
3BC
  8
250
 10
-76.68725541384427
 20
45.0961656079141
 30
0.0
 11
-75.10743059750585
 21
45.0961656079141
 31
0.0
  0
LINE
  5
3BD
  8
250
 10
-76.69705389355968
 20
45.0961656079141
 30
0.0
 11
-75.10743059750585
 21
45.0961656079141
 31
0.0
  0
ARC
  5
3BE
  8
250
 10
-44.21456439983246
 20
41.89005053946301
 30
0.0
 40
1.161635894366379
 50
270.0
 51
0.0
  0
ARC
  5
3BF
  8
250
 10
-44.50265010163528
 20
43.64644401174498
 30
0.0
 40
1.449721596169241
 50
0.0
 51
90.0
  0
ARC
  5
3C0
  8
250
 10
-54.22958979319571
 20
43.46987535580126
 30
0.0
 40
0.4646543577465531
 50
90.0
 51
204.9999999999983
  0
LINE
  5
3C1
  8
250
 10
-52.62480827504536
 20
45.0961656079141
 30
0.0
 11
-54.6605538732873
 21
45.0961656079141
 31
0.0
  0
ARC
  5
3C2
  8
250
 10
-54.6605538732873
 20
43.64644401174498
 30
0.0
 40
1.449721596169241
 50
90.0
 51
204.9999999999988
  0
LINE
  5
3C3
  8
250
 10
-58.38652231110235
 20
45.0961656079141
 30
0.0
 11
-57.08549010941201
 21
45.0961656079141
 31
0.0
  0
LINE
  5
3C4
  8
250
 10
-63.05585883055652
 20
45.0961656079141
 30
0.0
 11
-61.24147600962102
 21
45.0961656079141
 31
0.0
  0
LINE
  5
3C5
  8
250
 10
-45.9337855234951
 20
41.30923259227966
 30
0.0
 11
-45.9337855234951
 21
43.93452971354779
 31
0.0
  0
LINE
  5
3C6
  8
250
 10
-44.44689157870593
 20
41.86681782157563
 30
0.0
 11
-44.44689157870593
 21
43.37694448425167
 31
0.0
  0
ARC
  5
3C7
  8
250
 10
-45.00447680800169
 20
41.86681782157563
 30
0.0
 40
0.5575852292958633
 50
270.0
 51
0.0
  0
LINE
  5
3C8
  8
250
 10
-45.00447680800169
 20
41.30923259227966
 30
0.0
 11
-45.9337855234951
 21
41.30923259227966
 31
0.0
  0
LINE
  5
3C9
  8
250
 10
-48.16412644067854
 20
43.93452971354779
 30
0.0
 11
-48.16412644067854
 21
45.0961656079141
 31
0.0
  0
ARC
  5
3CA
  8
250
 10
-45.00447680800169
 20
43.37694448425167
 30
0.0
 40
0.5575852292958633
 50
0.0
 51
90.0
  0
LINE
  5
3CB
  8
250
 10
-45.9337855234951
 20
43.93452971354779
 30
0.0
 11
-45.00447680800169
 21
43.93452971354779
 31
0.0
  0
LINE
  5
3CC
  8
250
 10
-47.32774859673488
 20
45.0961656079141
 30
0.0
 11
-44.50265010163528
 21
45.0961656079141
 31
0.0
  0
LINE
  5
3CD
  8
250
 10
-52.62480827504536
 20
45.0961656079141
 30
0.0
 11
-52.62480827504536
 21
43.93452971354779
 31
0.0
  0
LINE
  5
3CE
  8
250
 10
-52.62480827504536
 20
43.93452971354779
 30
0.0
 11
-54.22958979319571
 21
43.93452971354758
 31
0.0
  0
LINE
  5
3CF
  8
250
 10
-50.11567474321424
 20
41.30923259227966
 30
0.0
 11
-50.11567474321424
 21
43.93452971354779
 31
0.0
  0
LINE
  5
3D0
  8
250
 10
-51.50963781645366
 20
45.0961656079141
 30
0.0
 11
-48.16412644067854
 21
45.0961656079141
 31
0.0
  0
LINE
  5
3D1
  8
250
 10
-48.16412644067854
 20
41.30923259227966
 30
0.0
 11
-50.11567474321424
 21
41.30923259227966
 31
0.0
  0
LINE
  5
3D2
  8
250
 10
-50.11567474321424
 20
43.93452971354779
 30
0.0
 11
-48.16412644067854
 21
43.93452971354779
 31
0.0
  0
LINE
  5
3D3
  8
250
 10
-43.05292850546668
 20
43.64644401174498
 30
0.0
 11
-43.05292850546668
 21
41.89005053946301
 31
0.0
  0
DIMENSION
  5
41E
  8
250
  2
*D4
 10
87.65459540740218
 20
-31.6357
 30
0.0
 11
85.15459540740218
 21
0.0
 31
0.0
 70
    32
  3
STANDARD
 13
67.99986399999992
 23
31.6357
 33
0.0
 14
67.9998639999999
 24
-31.6357
 34
0.0
 50
90.0
1001
ACAD
1000
DSTYLE
1002
{
1070
   271
1070
     1
1070
   147
1040
1.0
1070
   140
1040
3.0
1070
    41
1040
3.0
1002
}
  0
ENDSEC
  0
EOF
