  0
SECTION
  2
HEADER
  9
$ACADVER
  1
AC1009
  9
$DWGCODEPAGE
  3
ansi_1252
  9
$INSBASE
 10
0.0
 20
0.0
 30
0.0
  9
$EXTMIN
 10
-2.846827171807722
 20
-1.2499975
 30
0.0
  9
$EXTMAX
 10
4.193807911958508
 20
2.98145494528018
 30
0.0
  9
$LIMMIN
 10
0.0
 20
0.0
  9
$LIMMAX
 10
5.5
 20
4.25
  9
$ORTHOMODE
 70
     1
  9
$REGENMODE
 70
     1
  9
$FILLMODE
 70
     1
  9
$QTEXTMODE
 70
     0
  9
$MIRRTEXT
 70
     1
  9
$DRAGMODE
 70
     2
  9
$LTSCALE
 40
10.0
  9
$OSMODE
 70
   511
  9
$ATTMODE
 70
     1
  9
$TEXTSIZE
 40
0.2
  9
$TRACEWID
 40
0.05
  9
$TEXTSTYLE
  7
STANDARD
  9
$CLAYER
  8
240
  9
$CELTYPE
  6
BYLAYER
  9
$CECOLOR
 62
   256
  9
$DIMSCALE
 40
1.0
  9
$DIMASZ
 40
0.18
  9
$DIMEXO
 40
0.0625
  9
$DIMDLI
 40
0.38
  9
$DIMRND
 40
0.0
  9
$DIMDLE
 40
0.0
  9
$DIMEXE
 40
0.18
  9
$DIMTP
 40
0.0
  9
$DIMTM
 40
0.0
  9
$DIMTXT
 40
0.18
  9
$DIMCEN
 40
0.09
  9
$DIMTSZ
 40
0.0
  9
$DIMTOL
 70
     0
  9
$DIMLIM
 70
     0
  9
$DIMTIH
 70
     0
  9
$DIMTOH
 70
     0
  9
$DIMSE1
 70
     0
  9
$DIMSE2
 70
     0
  9
$DIMTAD
 70
     1
  9
$DIMZIN
 70
     0
  9
$DIMBLK
  1

  9
$DIMASO
 70
     1
  9
$DIMSHO
 70
     0
  9
$DIMPOST
  1

  9
$DIMAPOST
  1

  9
$DIMALT
 70
     0
  9
$DIMALTD
 70
     2
  9
$DIMALTF
 40
25.4
  9
$DIMLFAC
 40
1.0
  9
$DIMTOFL
 70
     0
  9
$DIMTVP
 40
0.0
  9
$DIMTIX
 70
     0
  9
$DIMSOXD
 70
     0
  9
$DIMSAH
 70
     0
  9
$DIMBLK1
  1

  9
$DIMBLK2
  1

  9
$DIMSTYLE
  2
STANDARD
  9
$DIMCLRD
 70
     0
  9
$DIMCLRE
 70
     0
  9
$DIMCLRT
 70
     0
  9
$DIMTFAC
 40
1.0
  9
$DIMGAP
 40
0.09
  9
$LUNITS
 70
     2
  9
$LUPREC
 70
     4
  9
$SKETCHINC
 40
0.1
  9
$FILLETRAD
 40
0.0
  9
$AUNITS
 70
     0
  9
$AUPREC
 70
     0
  9
$MENU
  1
acad
  9
$ELEVATION
 40
0.0
  9
$PELEVATION
 40
0.0
  9
$THICKNESS
 40
0.0
  9
$LIMCHECK
 70
     0
  9
$CHAMFERA
 40
5.0
  9
$CHAMFERB
 40
5.0
  9
$SKPOLY
 70
     0
  9
$TDCREATE
 40
2448383.421154028
  9
$TDUPDATE
 40
2452852.588077083
  9
$TDINDWG
 40
0.0330964931
  9
$TDUSRTIMER
 40
2458339.608518345
  9
$USRTIMER
 70
     1
  9
$ANGBASE
 50
0.0
  9
$ANGDIR
 70
     0
  9
$PDMODE
 70
     0
  9
$PDSIZE
 40
0.0
  9
$PLINEWID
 40
0.0
  9
$COORDS
 70
     1
  9
$SPLFRAME
 70
     0
  9
$SPLINETYPE
 70
     6
  9
$SPLINESEGS
 70
     8
  9
$ATTDIA
 70
     0
  9
$ATTREQ
 70
     1
  9
$HANDLING
 70
     1
  9
$HANDSEED
  5
6CB
  9
$SURFTAB1
 70
     6
  9
$SURFTAB2
 70
     6
  9
$SURFTYPE
 70
     6
  9
$SURFU
 70
     6
  9
$SURFV
 70
     6
  9
$UCSNAME
  2

  9
$UCSORG
 10
0.0
 20
0.0
 30
0.0
  9
$UCSXDIR
 10
1.0
 20
0.0
 30
0.0
  9
$UCSYDIR
 10
0.0
 20
1.0
 30
0.0
  9
$PUCSNAME
  2

  9
$PUCSORG
 10
0.0
 20
0.0
 30
0.0
  9
$PUCSXDIR
 10
1.0
 20
0.0
 30
0.0
  9
$PUCSYDIR
 10
0.0
 20
1.0
 30
0.0
  9
$USERI1
 70
     0
  9
$USERI2
 70
     0
  9
$USERI3
 70
     0
  9
$USERI4
 70
     0
  9
$USERI5
 70
     0
  9
$USERR1
 40
0.0
  9
$USERR2
 40
0.0
  9
$USERR3
 40
0.0
  9
$USERR4
 40
0.0
  9
$USERR5
 40
0.0
  9
$WORLDVIEW
 70
     1
  9
$SHADEDGE
 70
     3
  9
$SHADEDIF
 70
    70
  9
$TILEMODE
 70
     1
  9
$MAXACTVP
 70
    48
  9
$PLIMCHECK
 70
     0
  9
$PEXTMIN
 10
1.000000000000000E+20
 20
1.000000000000000E+20
 30
1.000000000000000E+20
  9
$PEXTMAX
 10
-1.000000000000000E+20
 20
-1.000000000000000E+20
 30
-1.000000000000000E+20
  9
$PLIMMIN
 10
0.0
 20
0.0
  9
$PLIMMAX
 10
12.0
 20
9.0
  9
$UNITMODE
 70
     0
  9
$VISRETAIN
 70
     0
  9
$PLINEGEN
 70
     0
  9
$PSLTSCALE
 70
     0
  0
ENDSEC
  0
SECTION
  2
TABLES
  0
TABLE
  2
VPORT
 70
     1
  0
VPORT
  2
*ACTIVE
 70
     0
 10
0.0
 20
0.0
 11
1.0
 21
1.0
 12
15.07065539991498
 22
15.0483736871225
 13
0.0
 23
0.0
 14
1.0
 24
1.0
 15
0.0
 25
0.0
 16
0.0
 26
0.0
 36
1.0
 17
0.0
 27
0.0
 37
0.0
 40
134.1453071704778
 41
1.328822733423545
 42
50.0
 43
0.0
 44
0.0
 50
0.0
 51
0.0
 71
    16
 72
   100
 73
     1
 74
     1
 75
     0
 76
     0
 77
     0
 78
     0
  0
ENDTAB
  0
TABLE
  2
LTYPE
 70
     3
  0
LTYPE
  2
CONTINUOUS
 70
     0
  3
Solid line
 72
    65
 73
     0
 40
0.0
  0
LTYPE
  2
HIDDEN
 70
     0
  3
_ _ _ _ _ _ _ _ _ _ _ _ _ _ _ _ _ _ _ _ _ _ _
 72
    65
 73
     2
 40
0.375
 49
0.25
 49
-0.125
  0
LTYPE
  2
CENTER
 70
     0
  3
____ _ ____ _ ____ _ ____ _ ____ _ ____ _ ____
 72
    65
 73
     4
 40
2.0
 49
1.25
 49
-0.25
 49
0.25
 49
-0.25
  0
ENDTAB
  0
TABLE
  2
LAYER
 70
     6
  0
LAYER
  2
0
 70
     0
 62
     7
  6
CONTINUOUS
  0
LAYER
  2
240
 70
     0
 62
     4
  6
CONTINUOUS
  0
LAYER
  2
243
 70
     0
 62
     6
  6
HIDDEN
  0
LAYER
  2
250
 70
     0
 62
     3
  6
CONTINUOUS
  0
LAYER
  2
245
 70
     0
 62
     2
  6
CENTER
  0
LAYER
  2
DEFPOINTS
 70
     0
 62
     7
  6
CONTINUOUS
  0
ENDTAB
  0
TABLE
  2
STYLE
 70
     2
  0
STYLE
  2
STANDARD
 70
     0
 40
0.0
 41
1.0
 50
0.0
 71
     0
 42
0.2
  3
txt
  4

  0
STYLE
  2
ROMANS
 70
     0
 40
0.0
 41
1.0
 50
0.0
 71
     0
 42
0.24
  3
romans
  4

  0
ENDTAB
  0
TABLE
  2
VIEW
 70
     0
  0
ENDTAB
  0
TABLE
  2
UCS
 70
     0
  0
ENDTAB
  0
TABLE
  2
APPID
 70
     1
  0
APPID
  2
ACAD
 70
     0
  0
ENDTAB
  0
TABLE
  2
DIMSTYLE
 70
     1
  0
DIMSTYLE
  2
STANDARD
 70
     0
  3

  4

  5

  6

  7

 40
1.0
 41
0.18
 42
0.0625
 43
0.38
 44
0.18
 45
0.0
 46
0.0
 47
0.0
 48
0.0
140
0.18
141
0.09
142
0.0
143
25.4
144
1.0
145
0.0
146
1.0
147
0.09
 71
     0
 72
     0
 73
     0
 74
     0
 75
     0
 76
     0
 77
     1
 78
     0
170
     0
171
     2
172
     0
173
     0
174
     0
175
     0
176
     0
177
     0
178
     0
  0
ENDTAB
  0
ENDSEC
  0
SECTION
  2
BLOCKS
  0
BLOCK
  8
0
  2
$MODEL_SPACE
 70
     0
 10
0.0
 20
0.0
 30
0.0
  3
$MODEL_SPACE
  1

  0
ENDBLK
  5
37
  8
0
  0
BLOCK
 67
     1
  8
0
  2
$PAPER_SPACE
 70
     0
 10
0.0
 20
0.0
 30
0.0
  3
$PAPER_SPACE
  1

  0
ENDBLK
  5
35
 67
     1
  8
0
  0
BLOCK
  8
240
  2
DK
 70
     0
 10
0.0
 20
0.0
 30
0.0
  3
DK
  1

  0
LINE
  5
1EE
  8
243
 10
3.175000000000004
 20
25.01999999999998
 30
0.0
 11
19.05
 21
25.01999999999998
 31
0.0
  0
LINE
  5
1EF
  8
243
 10
15.8625
 20
25.01999999999998
 30
0.0
 11
11.1125
 21
22.27758622134926
 31
0.0
  0
LINE
  5
1F0
  8
243
 10
6.362500000000002
 20
25.01999999999998
 30
0.0
 11
11.1125
 21
22.27758622134926
 31
0.0
  0
LINE
  5
1F1
  8
243
 10
3.175000000000011
 20
-22.6
 30
0.0
 11
19.05
 21
-22.6
 31
0.0
  0
ENDBLK
  5
1F2
  8
240
  0
BLOCK
  8
0
  2
*D1
 70
     1
 10
0.0
 20
0.0
 30
0.0
  3
*D1
  1

  0
LINE
  5
3F6
  8
250
 62
     0
 10
67.53836504799992
 20
31.63569999999995
 30
0.0
 11
102.1307209637461
 21
31.63569999999995
 31
0.0
  0
LINE
  5
3F7
  8
250
 62
     0
 10
67.53836504799992
 20
-31.6357
 30
0.0
 11
102.1307209637461
 21
-31.6357
 31
0.0
  0
LINE
  5
3F8
  8
250
 62
     0
 10
101.9507209637461
 20
28.63569999999995
 30
0.0
 11
101.9507209637461
 21
-28.6357
 31
0.0
  0
SOLID
  5
3F9
  8
250
 62
     0
 10
102.4507209637461
 20
28.63569999999995
 30
0.0
 11
101.4507209637461
 21
28.63569999999995
 31
0.0
 12
101.9507209637461
 22
31.63569999999995
 32
0.0
 13
101.9507209637461
 23
31.63569999999995
 33
0.0
  0
SOLID
  5
3FA
  8
250
 62
     0
 10
101.4507209637461
 20
-28.6357
 30
0.0
 11
102.4507209637461
 21
-28.6357
 31
0.0
 12
101.9507209637461
 22
-31.6357
 32
0.0
 13
101.9507209637461
 23
-31.6357
 33
0.0
  0
INSERT
  5
3FB
  8
250
 62
     0
  2
*X5
 10
0.0
 20
0.0
 30
0.0
  0
POINT
  5
3FC
  8
DEFPOINTS
 62
     0
 10
67.47586504799992
 20
31.63569999999995
 30
0.0
  0
POINT
  5
3FD
  8
DEFPOINTS
 62
     0
 10
67.47586504799992
 20
-31.6357
 30
0.0
  0
POINT
  5
3FE
  8
DEFPOINTS
 62
     0
 10
101.9507209637461
 20
-31.6357
 30
0.0
  0
ENDBLK
  5
3D7
  8
0
  0
BLOCK
  8
0
  2
*D2
 70
     1
 10
0.0
 20
0.0
 30
0.0
  3
*D2
  1

  0
LINE
  5
422
  8
250
 62
     0
 10
0.0
 20
22.28745554999997
 30
0.0
 11
0.0
 21
58.02668387424501
 31
0.0
  0
LINE
  5
423
  8
250
 62
     0
 10
68.99986199999994
 20
30.17420304799995
 30
0.0
 11
68.99986199999994
 21
58.02668387424501
 31
0.0
  0
LINE
  5
424
  8
250
 62
     0
 10
3.0
 20
57.84668387424501
 30
0.0
 11
65.99986199999994
 21
57.84668387424501
 31
0.0
  0
SOLID
  5
425
  8
250
 62
     0
 10
3.0
 20
58.34668387424501
 30
0.0
 11
3.0
 21
57.34668387424501
 31
0.0
 12
0.0
 22
57.84668387424501
 32
0.0
 13
0.0
 23
57.84668387424501
 33
0.0
  0
SOLID
  5
426
  8
250
 62
     0
 10
65.99986199999994
 20
57.34668387424501
 30
0.0
 11
65.99986199999994
 21
58.34668387424501
 31
0.0
 12
68.99986199999994
 22
57.84668387424501
 32
0.0
 13
68.99986199999994
 23
57.84668387424501
 33
0.0
  0
TEXT
  5
427
  8
250
  6
CONTINUOUS
 62
     0
 10
29.4285024285714
 20
58.84668387424501
 30
0.0
 40
3.0
  1
69.0
  7
ROMANS
  0
POINT
  5
428
  8
DEFPOINTS
 62
     0
 10
0.0
 20
22.22495554999997
 30
0.0
  0
POINT
  5
429
  8
DEFPOINTS
 62
     0
 10
68.99986199999994
 20
30.11170304799995
 30
0.0
  0
POINT
  5
42A
  8
DEFPOINTS
 62
     0
 10
68.99986199999994
 20
57.84668387424501
 30
0.0
  0
ENDBLK
  5
40B
  8
0
  0
BLOCK
  8
0
  2
*D4
 70
     1
 10
0.0
 20
0.0
 30
0.0
  3
*D4
  1

  0
LINE
  5
42D
  8
250
 62
     0
 10
34.92493014999997
 20
26.6982099999999
 30
0.0
 11
34.92493014999997
 21
43.87390265865437
 31
0.0
  0
LINE
  5
42E
  8
250
 62
     0
 10
68.99986199999994
 20
30.17420304799995
 30
0.0
 11
68.99986199999994
 21
43.87390265865437
 31
0.0
  0
LINE
  5
42F
  8
250
 62
     0
 10
37.92493014999997
 20
43.69390265865437
 30
0.0
 11
65.99986199999994
 21
43.69390265865437
 31
0.0
  0
SOLID
  5
430
  8
250
 62
     0
 10
37.92493014999997
 20
44.19390265865437
 30
0.0
 11
37.92493014999997
 21
43.19390265865437
 31
0.0
 12
34.92493014999997
 22
43.69390265865437
 32
0.0
 13
34.92493014999997
 23
43.69390265865437
 33
0.0
  0
SOLID
  5
431
  8
250
 62
     0
 10
65.99986199999994
 20
43.19390265865437
 30
0.0
 11
65.99986199999994
 21
44.19390265865437
 31
0.0
 12
68.99986199999994
 22
43.69390265865437
 32
0.0
 13
68.99986199999994
 23
43.69390265865437
 33
0.0
  0
TEXT
  5
432
  8
250
  6
CONTINUOUS
 62
     0
 10
47.39096750357139
 20
44.69390265865437
 30
0.0
 40
3.0
  1
34.1
  7
ROMANS
  0
POINT
  5
433
  8
DEFPOINTS
 62
     0
 10
34.92493014999997
 20
26.6357099999999
 30
0.0
  0
POINT
  5
434
  8
DEFPOINTS
 62
     0
 10
68.99986199999994
 20
30.11170304799995
 30
0.0
  0
POINT
  5
435
  8
DEFPOINTS
 62
     0
 10
68.99986199999994
 20
43.69390265865437
 30
0.0
  0
ENDBLK
  5
437
  8
0
  0
BLOCK
  8
0
  2
*X5
 70
     1
 10
0.0
 20
0.0
 30
0.0
  3
*X5
  1

  0
TEXT
  5
6C4
  8
250
  6
CONTINUOUS
 62
     0
 10
100.9507209637461
 20
-6.437500000000028
 30
0.0
 40
3.0
  1
ø
 50
90.0
  7
ROMANS
  0
TEXT
  5
6C5
  8
250
  6
CONTINUOUS
 62
     0
 10
100.9507209637461
 20
-3.580357142857167
 30
0.0
 40
3.0
  1
63.3
 50
90.0
  7
ROMANS
  0
ENDBLK
  5
6C7
  8
0
  0
ENDSEC
  0
SECTION
  2
ENTITIES
  0
ARC
  5
284
  8
240
 10
1.65099669800003
 20
23.74895250199996
 30
0.0
 40
1.523996952
 50
270.0
 51
0.0
  0
ARC
  5
285
  8
240
 10
1.65099669800003
 20
-23.74895250200001
 30
0.0
 40
1.523996952
 50
0.0
 51
90.0
  0
LINE
  5
286
  8
240
 10
18.28796342400001
 20
-31.7499365
 30
0.0
 11
19.04996189999991
 21
-30.98793802399997
 31
0.0
  0
LINE
  5
287
  8
240
 10
18.10714247660389
 20
-31.7499365
 30
0.0
 11
18.33187992211731
 21
-31.7499365
 31
0.0
  0
LINE
  5
288
  8
240
 10
18.10714247660389
 20
-31.7499365
 30
0.0
 11
18.33187992211731
 21
-31.7499365
 31
0.0
  0
LINE
  5
289
  8
240
 10
3.936992125999919
 20
-31.74993649999995
 30
0.0
 11
3.174993650000015
 21
-30.98793802399997
 31
0.0
  0
LINE
  5
28A
  8
240
 10
18.10714247660389
 20
-31.7499365
 30
0.0
 11
18.33187992211731
 21
-31.7499365
 31
0.0
  0
LINE
  5
28B
  8
240
 10
3.936992125999919
 20
-31.74993649999995
 30
0.0
 11
7.594584810799992
 21
-31.74993649999995
 31
0.0
  0
LINE
  5
28C
  8
240
 10
14.64307071379991
 20
-31.74993649999995
 30
0.0
 11
18.10714247660389
 21
-31.7499365
 31
0.0
  0
LINE
  5
28D
  8
243
 10
-63.49987300000004
 20
6.756386487199963
 30
0.0
 11
-63.49987300000004
 21
8.140683718599984
 31
0.0
  0
LINE
  5
28E
  8
240
 10
-68.26236347499994
 20
9.143981712000004
 30
0.0
 11
-68.26236347499994
 21
10.95215970984319
 31
0.0
  0
LINE
  5
28F
  8
240
 10
-68.26236347499994
 20
-9.14398171200005
 30
0.0
 11
-68.26236347499994
 21
-10.95215970984323
 31
0.0
  0
LINE
  5
290
  8
243
 10
-66.52460037529922
 20
8.140683718599984
 30
0.0
 11
-66.52460037529922
 21
-8.140683718600027
 31
0.0
  0
LINE
  5
291
  8
243
 10
-63.49987300000004
 20
-6.756386487200055
 30
0.0
 11
-63.49987300000004
 21
6.756386487199963
 31
0.0
  0
LINE
  5
292
  8
243
 10
-66.52460037529922
 20
8.140683718599984
 30
0.0
 11
-63.49987300000004
 21
8.140683718599984
 31
0.0
  0
LINE
  5
293
  8
243
 10
-66.52460037529922
 20
-8.140683718600027
 30
0.0
 11
-63.49987300000004
 21
-8.140683718600027
 31
0.0
  0
LINE
  5
294
  8
243
 10
-68.26236347499994
 20
9.143981711999961
 30
0.0
 11
-66.52460037529922
 21
8.140683718599984
 31
0.0
  0
LINE
  5
295
  8
243
 10
-68.26236347499994
 20
-9.14398171200005
 30
0.0
 11
-66.52460037529922
 21
-8.140683718600027
 31
0.0
  0
LINE
  5
296
  8
243
 10
-63.49987300000004
 20
-8.140683718600027
 30
0.0
 11
-63.49987300000004
 21
-6.756386487200055
 31
0.0
  0
LINE
  5
297
  8
245
 10
-72.30941016391614
 20
0.0
 30
0.0
 11
78.51282892616099
 21
-0.0000000000000457
 31
0.0
  0
LINE
  5
298
  8
243
 10
-39.68742062499997
 20
-7.93748412500004
 30
0.0
 11
-39.68742062499997
 21
-0.0000000000000457
 31
0.0
  0
LINE
  5
299
  8
243
 10
-63.49987300000004
 20
-6.756386487200055
 30
0.0
 11
-4.604734931223956
 21
-6.75638648720001
 31
0.0
  0
LINE
  5
29A
  8
243
 10
-63.49987300000004
 20
-7.93748412500004
 30
0.0
 11
-39.68742062499997
 21
-7.93748412500004
 31
0.0
  0
LINE
  5
29B
  8
240
 10
0.0
 20
-22.22495555000001
 30
0.0
 11
-66.95828978817191
 21
-12.46020495689039
 31
0.0
  0
ARC
  5
29C
  8
240
 10
-66.73836652299997
 20
-10.95215970984323
 30
0.0
 40
1.523996952
 50
180.0
 51
261.7028550309997
  0
LINE
  5
29D
  8
240
 10
-68.26236347499994
 20
-0.0000000000000457
 30
0.0
 11
-68.26236347499994
 21
-9.14398171200005
 31
0.0
  0
LINE
  5
29E
  8
243
 10
-63.49987300000004
 20
6.75638648720001
 30
0.0
 11
-4.604734931224137
 21
6.756386487199963
 31
0.0
  0
LINE
  5
29F
  8
243
 10
-39.68742062499997
 20
7.937484124999949
 30
0.0
 11
-39.68742062499997
 21
-0.0000000000000457
 31
0.0
  0
LINE
  5
2A0
  8
243
 10
-63.49987300000004
 20
7.937484124999949
 30
0.0
 11
-39.68742062499997
 21
7.937484124999949
 31
0.0
  0
ARC
  5
2A1
  8
240
 10
-66.73836652299997
 20
10.95215970984319
 30
0.0
 40
1.523996952
 50
98.29714496900033
 51
179.9999999999999
  0
LINE
  5
2A2
  8
240
 10
0.0
 20
22.22495554999997
 30
0.0
 11
-66.95828978817191
 21
12.4602049568903
 31
0.0
  0
LINE
  5
2A3
  8
240
 10
-68.26236347499994
 20
-0.0000000000000457
 30
0.0
 11
-68.26236347499994
 21
9.143981712000004
 31
0.0
  0
LINE
  5
2A4
  8
240
 10
14.64307071379991
 20
-31.7499365
 30
0.0
 11
13.03111549430057
 21
-28.95794816030141
 31
0.0
  0
LINE
  5
2A5
  8
240
 10
13.03017393959996
 20
-28.18124363740003
 30
0.0
 11
13.03017393959996
 21
-28.95849176716134
 31
0.0
  0
LINE
  5
2A6
  8
240
 10
9.19478161039997
 20
-28.18124363740003
 30
0.0
 11
13.03017393959996
 21
-28.18124363740003
 31
0.0
  0
LINE
  5
2A7
  8
240
 10
9.19478161039997
 20
-28.18124363740003
 30
0.0
 11
9.19478161039997
 21
-28.97831434098365
 31
0.0
  0
LINE
  5
2A8
  8
240
 10
7.594584810799992
 20
-31.7499365
 30
0.0
 11
9.19478161039997
 21
-28.97831434098365
 31
0.0
  0
LINE
  5
2A9
  8
240
 10
9.19478161039997
 20
28.18124363739992
 30
0.0
 11
9.19478161039997
 21
28.97831434098363
 31
0.0
  0
LINE
  5
2AA
  8
240
 10
13.03017393959996
 20
28.18124363739992
 30
0.0
 11
13.03017393959996
 21
28.95849176716123
 31
0.0
  0
LINE
  5
2AB
  8
240
 10
14.64307071379991
 20
31.74993649999995
 30
0.0
 11
13.03111549430057
 21
28.95794816030123
 31
0.0
  0
LINE
  5
2AC
  8
240
 10
7.594584810799992
 20
31.74993649999995
 30
0.0
 11
9.19478161039997
 21
28.97831434098363
 31
0.0
  0
LINE
  5
2AD
  8
240
 10
9.19478161039997
 20
28.18124363739992
 30
0.0
 11
13.03017393959996
 21
28.18124363739992
 31
0.0
  0
LINE
  5
2AE
  8
240
 10
14.64307071379991
 20
31.74993649999995
 30
0.0
 11
18.28796342400001
 21
31.74993649999995
 31
0.0
  0
ARC
  5
2AF
  8
240
 10
19.811960376
 20
-22.98695402600006
 30
0.0
 40
0.7619984759999999
 50
90.0
 51
179.9999999999997
  0
ARC
  5
2B0
  8
240
 10
19.811960376
 20
22.98695402599997
 30
0.0
 40
0.7619984759999999
 50
180.0
 51
269.9999999999998
  0
LINE
  5
2B1
  8
240
 10
3.936992125999919
 20
31.74993649999995
 30
0.0
 11
3.174993650000015
 21
30.98793802399992
 31
0.0
  0
LINE
  5
2B2
  8
240
 10
18.28796342400001
 20
31.74993649999995
 30
0.0
 11
19.04996189999991
 21
30.98793802399997
 31
0.0
  0
LINE
  5
2B3
  8
240
 10
3.936992125999919
 20
31.74993649999995
 30
0.0
 11
7.594584810799992
 21
31.74993649999995
 31
0.0
  0
LINE
  5
2B4
  8
240
 10
3.174993650000015
 20
30.98793802399992
 30
0.0
 11
3.174993650000015
 21
-30.98793802399997
 31
0.0
  0
LINE
  5
2B5
  8
240
 10
19.04996189999991
 20
30.98793802399997
 30
0.0
 11
19.04996189999991
 21
-30.98793802399997
 31
0.0
  0
LINE
  5
2B6
  8
240
 10
32.92493414999987
 20
22.22495554999997
 30
0.0
 11
19.811960376
 21
22.22495554999997
 31
0.0
  0
LINE
  5
2B7
  8
240
 10
19.811960376
 20
-22.22495555000001
 30
0.0
 11
32.92493414999987
 21
-22.22495555000006
 31
0.0
  0
LINE
  5
2B8
  8
240
 10
1.65099669800003
 20
-22.22495555000001
 30
0.0
 11
0.0
 21
-22.22495555000001
 31
0.0
  0
LINE
  5
2B9
  8
240
 10
0.0
 20
22.22495554999997
 30
0.0
 11
1.65099669800003
 21
22.22495554999997
 31
0.0
  0
LINE
  5
2BA
  8
240
 10
13.03017393959996
 20
-28.18124363739998
 30
0.0
 11
13.03017393959996
 21
28.18124363739992
 31
0.0
  0
LINE
  5
2BC
  8
240
 10
14.64307071379991
 20
31.74993649999995
 30
0.0
 11
14.64307071379991
 21
-31.74993649999995
 31
0.0
  0
LINE
  5
2BD
  8
240
 10
9.19478161039997
 20
28.18124363739992
 30
0.0
 11
9.19478161039997
 21
-28.18124363740003
 31
0.0
  0
LINE
  5
2BE
  8
240
 10
7.594584810799992
 20
31.74993649999995
 30
0.0
 11
7.594584810799992
 21
-31.74993649999995
 31
0.0
  0
LINE
  5
2C0
  8
240
 10
0.0
 20
22.22495554999997
 30
0.0
 11
0.0
 21
-22.22495555000001
 31
0.0
  0
LINE
  5
2C1
  8
240
 10
34.92493014999997
 20
26.6357099999999
 30
0.0
 11
34.92493014999997
 21
-26.63571000000005
 31
0.0
  0
LINE
  5
2C2
  8
243
 10
-39.68742062499997
 20
7.937484124999949
 30
0.0
 11
-35.27950423203086
 21
6.756386487199963
 31
0.0
  0
LINE
  5
2C3
  8
243
 10
-35.27950423203086
 20
6.756386487199963
 30
0.0
 11
-35.27950423203086
 21
-6.756386487200055
 31
0.0
  0
LINE
  5
2C4
  8
243
 10
-35.27950423203086
 20
-6.756386487200055
 30
0.0
 11
-39.68742062499997
 21
-7.93748412500004
 31
0.0
  0
LINE
  5
2C5
  8
243
 10
24.29595140799983
 20
17.99586400819998
 30
0.0
 11
24.295951408
 21
-17.99586400820011
 31
0.0
  0
LINE
  5
2C6
  8
243
 10
24.295951408
 20
-17.99586400820011
 30
0.0
 11
21.41157296692389
 21
-12.99997400000002
 31
0.0
  0
LINE
  5
2C7
  8
240
 10
68.99986199999994
 20
-0.0000000000000457
 30
0.0
 11
68.99986199999994
 21
-30.11170304800002
 31
0.0
  0
LINE
  5
2C9
  8
240
 10
68.99986199999994
 20
-30.11170304800002
 30
0.0
 11
67.47586504799992
 21
-31.6357
 31
0.0
  0
LINE
  5
2CA
  8
243
 10
24.295951408
 20
-17.99586400820011
 30
0.0
 11
68.99986199999994
 21
-17.99586400820007
 31
0.0
  0
LINE
  5
2CB
  8
243
 10
52.3120953755999
 20
-25.19674960640005
 30
0.0
 11
52.3120953755999
 21
-17.99586400820007
 31
0.0
  0
LINE
  5
2CC
  8
243
 10
24.295951408
 20
17.99586400819998
 30
0.0
 11
21.41157296692389
 21
12.99997399999997
 31
0.0
  0
LINE
  5
2CD
  8
243
 10
24.29595140799983
 20
17.99586400819998
 30
0.0
 11
68.99986199999994
 21
17.99586400819998
 31
0.0
  0
LINE
  5
2CF
  8
240
 10
68.99986199999994
 20
30.11170304799995
 30
0.0
 11
67.47586504799992
 21
31.63569999999995
 31
0.0
  0
LINE
  5
2D0
  8
240
 10
68.99986199999994
 20
-0.0000000000000457
 30
0.0
 11
68.99986199999994
 21
30.11170304799995
 31
0.0
  0
LINE
  5
2D1
  8
240
 10
39.92492014999987
 20
-31.6357
 30
0.0
 11
67.47586504799992
 21
-31.6357
 31
0.0
  0
LINE
  5
2D2
  8
240
 10
39.92492014999987
 20
31.63569999999995
 30
0.0
 11
67.47586504799992
 21
31.63569999999995
 31
0.0
  0
CIRCLE
  5
2D3
  8
243
 10
52.94709410559987
 20
-0.0000000000000457
 30
0.0
 40
5.994388011200083
  0
CIRCLE
  5
2D4
  8
240
 10
52.94709410559987
 20
-0.0000000000000457
 30
0.0
 40
5.486389027200088
  0
POLYLINE
  5
2D5
  8
240
 66
     1
 10
0.0
 20
0.0
 30
0.0
 70
     1
  0
VERTEX
  5
6AD
  8
240
 10
46.13110748441241
 20
-0.0000000000000457
 30
0.0
 42
0.1075270714354371
  0
VERTEX
  5
6AE
  8
240
 10
46.63916796081788
 20
-2.335161919479795
 30
0.0
 42
0.1017862429383482
  0
VERTEX
  5
6AF
  8
240
 10
48.1274637452814
 20
-4.370681216101322
 30
0.0
 42
0.0945967217597763
  0
VERTEX
  5
6B0
  8
240
 10
50.3087351540461
 20
-5.701899048136993
 30
0.0
 42
0.0900730289486178
  0
VERTEX
  5
6B1
  8
240
 10
52.94709410559987
 20
-6.181076652619773
 30
0.0
 42
0.0900730289486174
  0
VERTEX
  5
6B2
  8
240
 10
55.58545305715379
 20
-5.701899048136993
 30
0.0
 42
0.0945967217597764
  0
VERTEX
  5
6B3
  8
240
 10
57.76672446591839
 20
-4.370681216101322
 30
0.0
 42
0.1017862429383479
  0
VERTEX
  5
6B4
  8
240
 10
59.2550202503822
 20
-2.335161919479795
 30
0.0
 42
0.1075270714354359
  0
VERTEX
  5
6B5
  8
240
 10
59.76308072678743
 20
-0.0000000000000457
 30
0.0
 42
0.1075270714354361
  0
VERTEX
  5
6B6
  8
240
 10
59.2550202503822
 20
2.335161919479706
 30
0.0
 42
0.1017862429383472
  0
VERTEX
  5
6B7
  8
240
 10
57.76672446591839
 20
4.370681216101184
 30
0.0
 42
0.0945967217597756
  0
VERTEX
  5
6B8
  8
240
 10
55.58545305715379
 20
5.701899048136902
 30
0.0
 42
0.0900730289486177
  0
VERTEX
  5
6B9
  8
240
 10
52.94709410559987
 20
6.181076652619682
 30
0.0
 42
0.0900730289486173
  0
VERTEX
  5
6BA
  8
240
 10
50.3087351540461
 20
5.701899048136902
 30
0.0
 42
0.0945967217597766
  0
VERTEX
  5
6BB
  8
240
 10
48.1274637452814
 20
4.370681216101184
 30
0.0
 42
0.1017862429383487
  0
VERTEX
  5
6BC
  8
240
 10
46.63916796081788
 20
2.335161919479706
 30
0.0
 42
0.1075270714354371
  0
SEQEND
  5
6CA
  8
240
  0
POLYLINE
  5
2E7
  8
240
 66
     1
 10
0.0
 20
0.0
 30
0.0
 70
     1
  0
VERTEX
  5
6BD
  8
240
 10
50.4211846034762
 20
4.375003592999199
 30
0.0
  0
VERTEX
  5
6BE
  8
240
 10
47.89527510135257
 20
-0.0000000000000457
 30
0.0
  0
VERTEX
  5
6BF
  8
240
 10
50.4211846034762
 20
-4.375003592999289
 30
0.0
  0
VERTEX
  5
6C0
  8
240
 10
55.47300360772372
 20
-4.375003592999289
 30
0.0
  0
VERTEX
  5
6C1
  8
240
 10
57.99891310984729
 20
-0.0000000000000457
 30
0.0
  0
VERTEX
  5
6C2
  8
240
 10
55.47300360772372
 20
4.375003592999199
 30
0.0
  0
SEQEND
  5
6C9
  8
240
  0
LINE
  5
2EF
  8
243
 10
68.99986199999994
 20
-25.19674960640005
 30
0.0
 11
52.3120953755999
 21
-25.19674960640005
 31
0.0
  0
LINE
  5
2F0
  8
243
 10
52.3120953755999
 20
25.19674960639995
 30
0.0
 11
52.3120953755999
 21
17.99586400820002
 31
0.0
  0
LINE
  5
2F1
  8
243
 10
68.99986199999994
 20
25.19674960639995
 30
0.0
 11
52.3120953755999
 21
25.19674960639995
 31
0.0
  0
ARC
  5
2F2
  8
240
 10
32.92493414999987
 20
-24.22495155000006
 30
0.0
 40
1.999996
 50
0.0
 51
90.0
  0
ARC
  5
2F3
  8
240
 10
32.92493414999987
 20
24.22495154999996
 30
0.0
 40
1.999996
 50
270.0
 51
0.0
  0
LINE
  5
2F4
  8
240
 10
39.92492014999987
 20
31.63569999999995
 30
0.0
 11
34.92493014999997
 21
26.6357099999999
 31
0.0
  0
LINE
  5
2F5
  8
240
 10
34.92493014999997
 20
-26.63571000000005
 30
0.0
 11
39.92492014999987
 21
-31.6357
 31
0.0
  0
LINE
  5
2F6
  8
240
 10
39.92492014999987
 20
31.63569999999995
 30
0.0
 11
39.92492014999987
 21
-31.6357
 31
0.0
  0
INSERT
  5
2F7
  8
240
  2
DK
 10
0.0
 20
0.0
 30
0.0
 41
0.999998
 42
0.999998
 43
0.999998
  0
LINE
  5
387
  8
243
 10
-0.9999979999999518
 20
-12.99997400000002
 30
0.0
 11
-0.9999980000001321
 21
12.99997399999983
 31
0.0
  0
LINE
  5
388
  8
243
 10
21.41157296692389
 20
12.99997399999997
 30
0.0
 11
-0.9999979999999518
 21
12.99997399999997
 31
0.0
  0
LINE
  5
389
  8
243
 10
-0.9999979999999518
 20
12.99997399999997
 30
0.0
 11
-4.604734931223956
 21
6.756386487199963
 31
0.0
  0
LINE
  5
38A
  8
243
 10
-4.604734931223956
 20
6.756386487199963
 30
0.0
 11
-4.604734931223956
 21
-6.75638648720001
 31
0.0
  0
LINE
  5
38B
  8
243
 10
-0.9999979999999518
 20
-12.99997400000002
 30
0.0
 11
-4.604734931223956
 21
-6.75638648720001
 31
0.0
  0
LINE
  5
38C
  8
243
 10
21.41157296692389
 20
-12.99997400000002
 30
0.0
 11
-0.9999979999999518
 21
-12.99997400000002
 31
0.0
  0
LINE
  5
38D
  8
243
 10
21.41157296692389
 20
12.99997399999997
 30
0.0
 11
21.41157296692389
 21
-12.99997400000002
 31
0.0
  0
LINE
  5
3AC
  8
243
 10
3.174993650000015
 20
29.44149029442443
 30
0.0
 11
22.92133281292399
 21
15.61495476049946
 31
0.0
  0
LINE
  5
3AD
  8
243
 10
3.174993650000015
 20
24.55840170557539
 30
0.0
 11
19.68213913879067
 21
12.99997399999974
 31
0.0
  0
LINE
  5
3AE
  8
243
 10
3.174993650000015
 20
-24.55840170557588
 30
0.0
 11
19.68213913879067
 21
-12.99997400000025
 31
0.0
  0
LINE
  5
3AF
  8
243
 10
3.174993650000015
 20
-29.44149029442494
 30
0.0
 11
22.92133281292399
 21
-15.61495476049996
 31
0.0
  0
DIMENSION
  5
3CB
  8
250
  2
*D1
 10
101.9507209637461
 20
-31.6357
 30
0.0
 11
99.4507209637461
 21
-0.0000000000000249
 31
0.0
 70
    32
  1
%%c<>
  3
STANDARD
 13
67.47586504799992
 23
31.63569999999995
 33
0.0
 14
67.47586504799992
 24
-31.6357
 34
0.0
 50
90.0
1001
ACAD
1000
DSTYLE
1002
{
1070
   340
1005
442
1070
   271
1070
     1
1070
   147
1040
1.0
1070
   140
1040
3.0
1070
    41
1040
3.0
1002
}
  0
DIMENSION
  5
3FF
  8
250
  2
*D2
 10
68.99986199999994
 20
57.84668387424501
 30
0.0
 11
34.49993099999997
 21
57.84668387424501
 31
0.0
 70
   160
  3
STANDARD
 13
0.0
 23
22.22495554999997
 33
0.0
 14
68.99986199999994
 24
30.11170304799995
 34
0.0
1001
ACAD
1000
DSTYLE
1002
{
1070
   340
1005
442
1070
   271
1070
     1
1070
   147
1040
1.0
1070
   140
1040
3.0
1070
    41
1040
3.0
1002
}
  0
DIMENSION
  5
42B
  8
250
  2
*D4
 10
68.99986199999994
 20
43.69390265865437
 30
0.0
 11
51.96239607499996
 21
46.19390265865437
 31
0.0
 70
    32
  3
STANDARD
 13
34.92493014999997
 23
26.6357099999999
 33
0.0
 14
68.99986199999994
 24
30.11170304799995
 34
0.0
1001
ACAD
1000
DSTYLE
1002
{
1070
   340
1005
442
1070
   271
1070
     1
1070
   147
1040
1.0
1070
   140
1040
3.0
1070
    41
1040
3.0
1002
}
  0
LINE
  5
5E5
  8
250
 10
-21.57968258702376
 20
31.45857693119942
 30
0.0
 11
-21.57968258702376
 21
32.62021282556576
 31
0.0
  0
LINE
  5
5E6
  8
250
 10
-25.80446855971884
 20
29.73404433271526
 30
0.0
 11
-28.06626580224724
 21
34.584484172106
 31
0.0
  0
LINE
  5
5E7
  8
250
 10
-27.12820674874863
 20
29.49430558465901
 30
0.0
 11
-29.39000399127611
 21
34.34474542404993
 31
0.0
  0
LINE
  5
5E8
  8
250
 10
-20.74330474308013
 20
27.671643915565
 30
0.0
 11
-20.74330474308013
 21
36.4071458412002
 31
0.0
  0
LINE
  5
5E9
  8
250
 10
-24.92519396279889
 20
27.671643915565
 30
0.0
 11
-24.92519396279889
 21
36.4071458412002
 31
0.0
  0
LINE
  5
5EA
  8
250
 10
-31.8020784574476
 20
27.671643915565
 30
0.0
 11
-31.8020784574476
 21
36.4071458412002
 31
0.0
  0
LINE
  5
5EB
  8
250
 10
-30.50104625575724
 20
36.4071458412002
 30
0.0
 11
-30.50104625575724
 21
27.671643915565
 31
0.0
  0
ARC
  5
5EC
  8
250
 10
-17.63012054617771
 20
30.87775898401628
 30
0.0
 40
1.161635894366379
 50
0.0
 51
90.0
  0
LINE
  5
5ED
  8
250
 10
-49.28326507376748
 20
31.45857693119942
 30
0.0
 11
-49.28326507376748
 21
32.62021282556576
 31
0.0
  0
LINE
  5
5EE
  8
250
 10
-50.4745350463868
 20
31.45857693119942
 30
0.0
 11
-50.4745350463868
 21
33.93286138619992
 31
0.0
  0
LINE
  5
5EF
  8
250
 10
-38.58557685484831
 20
27.67164391556483
 30
0.0
 11
-40.46417865721057
 21
32.37847127515171
 31
0.0
  0
LINE
  5
5F0
  8
250
 10
-46.76709866412962
 20
30.14592837056547
 30
0.0
 11
-46.76709866412962
 21
32.62021282556576
 31
0.0
  0
LINE
  5
5F1
  8
250
 10
-51.86849811962639
 20
30.14592837056547
 30
0.0
 11
-51.86849811962639
 21
33.93286138619992
 31
0.0
  0
LINE
  5
5F2
  8
250
 10
-43.65193907915312
 20
36.4071458412002
 30
0.0
 11
-43.65193907915312
 21
27.671643915565
 31
0.0
  0
LINE
  5
5F3
  8
250
 10
-54.14452252133995
 20
27.671643915565
 30
0.0
 11
-54.14452252133995
 21
36.4071458412002
 31
0.0
  0
LINE
  5
5F4
  8
250
 10
-52.84349031964961
 20
36.4071458412002
 30
0.0
 11
-52.84349031964961
 21
27.671643915565
 31
0.0
  0
LINE
  5
5F5
  8
250
 10
-60.22091417686032
 20
27.671643915565
 30
0.0
 11
-60.22091417686032
 21
36.4071458412002
 31
0.0
  0
ARC
  5
5F6
  8
250
 10
-57.74075995307072
 20
30.14592837056547
 30
0.0
 40
2.621245231707499
 50
289.2767926682573
 51
46.24915972781773
  0
LINE
  5
5F7
  8
250
 10
-36.76024751837725
 20
28.83327980993132
 30
0.0
 11
-35.73866322371944
 21
34.08887539566609
 31
0.0
  0
LINE
  5
5F8
  8
250
 10
-38.16942454167972
 20
27.67164391556483
 30
0.0
 11
-36.47141497690176
 21
36.4071458412002
 31
0.0
  0
LINE
  5
5F9
  8
250
 10
-33.71032454275161
 20
27.67164391556483
 30
0.0
 11
-35.73866322371944
 21
34.08887539566609
 31
0.0
  0
LINE
  5
5FA
  8
250
 10
-34.65703215596625
 20
36.4071458412002
 30
0.0
 11
-32.31636146951168
 21
27.67164391556483
 31
0.0
  0
LINE
  5
5FB
  8
250
 10
-40.16540167118637
 20
27.671643915565
 30
0.0
 11
-38.58557685484831
 21
27.671643915565
 31
0.0
  0
ARC
  5
5FC
  8
250
 10
-49.24725288791887
 20
30.14592837056547
 30
0.0
 40
2.621245231707555
 50
180.0
 51
250.723207331739
  0
LINE
  5
5FD
  8
250
 10
-57.23404849556196
 20
31.45857693119942
 30
0.0
 11
-58.82695110362075
 21
31.45857693119942
 31
0.0
  0
LINE
  5
5FE
  8
250
 10
-54.14452252133995
 20
27.671643915565
 30
0.0
 11
-52.84349031964961
 21
27.671643915565
 31
0.0
  0
LINE
  5
5FF
  8
250
 10
-58.45522761742343
 20
27.671643915565
 30
0.0
 11
-56.87540280108538
 21
27.671643915565
 31
0.0
  0
LINE
  5
600
  8
250
 10
-60.22091417686032
 20
27.671643915565
 30
0.0
 11
-56.87540280108538
 21
27.671643915565
 31
0.0
  0
LINE
  5
601
  8
250
 10
-58.82695110362075
 20
28.83327980993132
 30
0.0
 11
-57.23404849556196
 21
28.83327980993132
 31
0.0
  0
LINE
  5
602
  8
250
 10
-58.82695110362075
 20
28.83327980993132
 30
0.0
 11
-58.82695110362075
 21
31.45857693119942
 31
0.0
  0
ARC
  5
603
  8
250
 10
-57.93026628295288
 20
30.14592837056547
 30
0.0
 40
1.485855124571082
 50
297.9411040697628
 51
62.0588959302371
  0
LINE
  5
604
  8
250
 10
-48.09199510114819
 20
31.45857693119942
 30
0.0
 11
-49.28326507376748
 21
31.45857693119942
 31
0.0
  0
LINE
  5
605
  8
250
 10
-40.16540167118637
 20
27.671643915565
 30
0.0
 11
-41.31541339245517
 21
30.55299249444197
 31
0.0
  0
LINE
  5
606
  8
250
 10
-42.07211426281507
 20
28.93024224120041
 30
0.0
 11
-41.31541339245517
 21
30.55299249444197
 31
0.0
  0
LINE
  5
607
  8
250
 10
-42.07211426281507
 20
27.671643915565
 30
0.0
 11
-42.07211426281507
 21
28.93024224120041
 31
0.0
  0
LINE
  5
608
  8
250
 10
-43.65193907915312
 20
27.671643915565
 30
0.0
 11
-42.07211426281507
 21
27.671643915565
 31
0.0
  0
ARC
  5
609
  8
250
 10
-49.38834389583678
 20
30.14592837056547
 30
0.0
 40
2.621245231707499
 50
289.2767926682573
 51
0.0
  0
LINE
  5
60A
  8
250
 10
-50.10281156018949
 20
27.671643915565
 30
0.0
 11
-48.52298674385109
 21
27.671643915565
 31
0.0
  0
LINE
  5
60B
  8
250
 10
-50.11261003990492
 20
27.671643915565
 30
0.0
 11
-48.52298674385109
 21
27.671643915565
 31
0.0
  0
ARC
  5
60C
  8
250
 10
-48.98867992181603
 20
30.14592837056547
 30
0.0
 40
1.485855124571082
 50
180.0
 51
242.0588959302372
  0
ARC
  5
60D
  8
250
 10
-49.57785022571932
 20
30.14592837056547
 30
0.0
 40
1.485855124571082
 50
297.9411040697626
 51
0.0
  0
LINE
  5
60E
  8
250
 10
-49.68489770920698
 20
28.83327980993132
 30
0.0
 11
-48.88163243832837
 21
28.83327980993132
 31
0.0
  0
LINE
  5
60F
  8
250
 10
-48.09199510114819
 20
30.14592837056547
 30
0.0
 11
-48.09199510114819
 21
31.45857693119942
 31
0.0
  0
LINE
  5
610
  8
250
 10
-50.4745350463868
 20
30.14592837056547
 30
0.0
 11
-50.4745350463868
 21
31.45857693119942
 31
0.0
  0
LINE
  5
611
  8
250
 10
-17.80432791601909
 20
27.671643915565
 30
0.0
 11
-16.323923356455
 21
27.671643915565
 31
0.0
  0
LINE
  5
612
  8
250
 10
-29.57173754026454
 20
27.671643915565
 30
0.0
 11
-27.11836253136224
 21
27.671643915565
 31
0.0
  0
LINE
  5
613
  8
250
 10
-29.57173754026454
 20
28.83327980993132
 30
0.0
 11
-27.54932661145421
 21
28.83327980993132
 31
0.0
  0
LINE
  5
614
  8
250
 10
-29.57173754026454
 20
28.83327980993132
 30
0.0
 11
-29.57173754026454
 21
27.671643915565
 31
0.0
  0
LINE
  5
615
  8
250
 10
-31.80207845744795
 20
27.671643915565
 30
0.0
 11
-30.50104625575724
 21
27.671643915565
 31
0.0
  0
LINE
  5
616
  8
250
 10
-34.82391316590513
 20
27.67164391556483
 30
0.0
 11
-35.13517256569964
 21
28.83327980993132
 31
0.0
  0
LINE
  5
617
  8
250
 10
-38.16942454167972
 20
27.67164391556483
 30
0.0
 11
-34.82391316590513
 21
27.67164391556483
 31
0.0
  0
LINE
  5
618
  8
250
 10
-36.76024751837725
 20
28.83327980993132
 30
0.0
 11
-35.13517256569964
 21
28.83327980993132
 31
0.0
  0
LINE
  5
619
  8
250
 10
-32.31636146951168
 20
27.67164391556483
 30
0.0
 11
-33.71032454275161
 21
27.67164391556483
 31
0.0
  0
LINE
  5
61A
  8
250
 10
-18.69882556899499
 20
31.45857693119942
 30
0.0
 11
-19.34934166984035
 21
31.45857693119942
 31
0.0
  0
LINE
  5
61B
  8
250
 10
-21.57968258702376
 20
31.45857693119942
 30
0.0
 11
-23.53123088955948
 21
31.45857693119942
 31
0.0
  0
LINE
  5
61C
  8
250
 10
-17.86244772505116
 20
30.62219908725579
 30
0.0
 11
-17.86244772505116
 21
28.13280231362018
 31
0.0
  0
LINE
  5
61D
  8
250
 10
-21.57968258702376
 20
27.671643915565
 30
0.0
 11
-21.57968258702376
 21
28.83327980993132
 31
0.0
  0
LINE
  5
61E
  8
250
 10
-20.74330474308013
 20
27.671643915565
 30
0.0
 11
-19.34934166984035
 21
27.671643915565
 31
0.0
  0
ARC
  5
61F
  8
250
 10
-16.00383029406487
 20
28.13280231362018
 30
0.0
 40
1.858617430986207
 50
180.0
 51
194.3662353416887
  0
ARC
  5
620
  8
250
 10
-27.11836253136224
 20
29.12136551173451
 30
0.0
 40
1.449721596169241
 50
270.0
 51
24.99999999999866
  0
ARC
  5
621
  8
250
 10
-27.54932661145421
 20
29.29793416767802
 30
0.0
 40
0.4646543577465531
 50
270.0
 51
24.99999999999904
  0
LINE
  5
622
  8
250
 10
-24.92519396279889
 20
27.671643915565
 30
0.0
 11
-21.57968258702376
 21
27.671643915565
 31
0.0
  0
LINE
  5
623
  8
250
 10
-23.53123088955948
 20
28.83327980993132
 30
0.0
 11
-21.57968258702376
 21
28.83327980993132
 31
0.0
  0
LINE
  5
624
  8
250
 10
-23.53123088955948
 20
28.83327980993132
 30
0.0
 11
-23.53123088955948
 21
31.45857693119942
 31
0.0
  0
LINE
  5
625
  8
250
 10
-19.34934166984035
 20
27.671643915565
 30
0.0
 11
-19.34934166984035
 21
31.45857693119942
 31
0.0
  0
ARC
  5
626
  8
250
 10
-18.69882556899499
 20
30.62219908725579
 30
0.0
 40
0.8363778439437937
 50
0.0
 51
90.0
  0
LINE
  5
627
  8
250
 10
-16.46848465181194
 20
28.22075501904548
 30
0.0
 11
-16.46848465181194
 21
30.87775898401628
 31
0.0
  0
ARC
  5
628
  8
250
 10
-15.35331419322023
 20
28.22075501904548
 30
0.0
 40
1.115170458591724
 50
180.0
 51
209.4985180895029
  0
LINE
  5
629
  8
250
 10
-40.16540167118637
 20
36.4071458412002
 30
0.0
 11
-38.58557685484831
 21
36.4071458412002
 31
0.0
  0
LINE
  5
62A
  8
250
 10
-40.46417865721057
 20
32.37847127515171
 30
0.0
 11
-38.58557685484831
 21
36.4071458412002
 31
0.0
  0
ARC
  5
62B
  8
250
 10
-49.24725288791887
 20
33.93286138619992
 30
0.0
 40
2.621245231707555
 50
109.2767926682609
 51
180.0
  0
LINE
  5
62C
  8
250
 10
-54.14452252133995
 20
36.4071458412002
 30
0.0
 11
-52.84349031964961
 21
36.4071458412002
 31
0.0
  0
ARC
  5
62D
  8
250
 10
-57.93026628295288
 20
33.93286138619992
 30
0.0
 40
1.485855124571082
 50
297.9411040697628
 51
62.05889593023716
  0
LINE
  5
62E
  8
250
 10
-58.82695110362075
 20
32.62021282556576
 30
0.0
 11
-58.82695110362075
 21
35.24550994683386
 31
0.0
  0
LINE
  5
62F
  8
250
 10
-57.23404849556196
 20
32.62021282556576
 30
0.0
 11
-58.82695110362075
 21
32.62021282556576
 31
0.0
  0
LINE
  5
630
  8
250
 10
-58.82695110362075
 20
35.24550994683386
 30
0.0
 11
-57.23404849556196
 21
35.24550994683386
 31
0.0
  0
LINE
  5
631
  8
250
 10
-58.45522761742343
 20
36.4071458412002
 30
0.0
 11
-56.87540280108538
 21
36.4071458412002
 31
0.0
  0
LINE
  5
632
  8
250
 10
-60.22091417686032
 20
36.4071458412002
 30
0.0
 11
-56.87540280108538
 21
36.4071458412002
 31
0.0
  0
ARC
  5
633
  8
250
 10
-57.74075995307072
 20
33.93286138619992
 30
0.0
 40
2.621245231707555
 50
313.750840272182
 51
70.72320733173922
  0
LINE
  5
634
  8
250
 10
-42.07211426281507
 20
32.31818749303049
 30
0.0
 11
-40.16540167118637
 21
36.4071458412002
 31
0.0
  0
LINE
  5
635
  8
250
 10
-42.07211426281507
 20
36.4071458412002
 30
0.0
 11
-42.07211426281507
 21
32.31818749303049
 31
0.0
  0
LINE
  5
636
  8
250
 10
-43.65193907915312
 20
36.4071458412002
 30
0.0
 11
-42.07211426281507
 21
36.4071458412002
 31
0.0
  0
ARC
  5
637
  8
250
 10
-49.57785022571932
 20
33.93286138619992
 30
0.0
 40
1.485855124571082
 50
0.0
 51
62.05889593023716
  0
ARC
  5
638
  8
250
 10
-48.98867992181603
 20
33.93286138619992
 30
0.0
 40
1.485855124571082
 50
117.9411040697626
 51
180.0
  0
ARC
  5
639
  8
250
 10
-49.38834389583713
 20
33.93286138619992
 30
0.0
 40
2.621245231707555
 50
0.0
 51
70.72320733173922
  0
LINE
  5
63A
  8
250
 10
-46.76709866412962
 20
32.62021282556576
 30
0.0
 11
-49.28326507376748
 21
32.62021282556576
 31
0.0
  0
LINE
  5
63B
  8
250
 10
-48.09199510114819
 20
33.93286138619992
 30
0.0
 11
-46.76709866412962
 21
33.93286138619992
 31
0.0
  0
LINE
  5
63C
  8
250
 10
-49.68489770920698
 20
35.24550994683386
 30
0.0
 11
-48.88163243832837
 21
35.24550994683386
 31
0.0
  0
LINE
  5
63D
  8
250
 10
-50.10281156018949
 20
36.4071458412002
 30
0.0
 11
-48.52298674385109
 21
36.4071458412002
 31
0.0
  0
LINE
  5
63E
  8
250
 10
-50.11261003990492
 20
36.4071458412002
 30
0.0
 11
-48.52298674385109
 21
36.4071458412002
 31
0.0
  0
ARC
  5
63F
  8
250
 10
-17.63012054617771
 20
33.20103077274911
 30
0.0
 40
1.161635894366379
 50
270.0
 51
0.0
  0
ARC
  5
640
  8
250
 10
-17.91820624798052
 20
34.95742424503108
 30
0.0
 40
1.449721596169241
 50
0.0
 51
90.0
  0
ARC
  5
641
  8
250
 10
-27.64514593954095
 20
34.78085558908734
 30
0.0
 40
0.4646543577465531
 50
90.0
 51
204.9999999999988
  0
LINE
  5
642
  8
250
 10
-26.04036442139059
 20
36.4071458412002
 30
0.0
 11
-28.07611001963255
 21
36.4071458412002
 31
0.0
  0
ARC
  5
643
  8
250
 10
-28.07611001963255
 20
34.95742424503108
 30
0.0
 40
1.449721596169241
 50
90.0
 51
204.9999999999986
  0
LINE
  5
644
  8
250
 10
-31.8020784574476
 20
36.4071458412002
 30
0.0
 11
-30.50104625575724
 21
36.4071458412002
 31
0.0
  0
LINE
  5
645
  8
250
 10
-36.47141497690176
 20
36.4071458412002
 30
0.0
 11
-34.65703215596625
 21
36.4071458412002
 31
0.0
  0
LINE
  5
646
  8
250
 10
-19.34934166984035
 20
32.62021282556576
 30
0.0
 11
-19.34934166984035
 21
35.24550994683386
 31
0.0
  0
LINE
  5
647
  8
250
 10
-17.86244772505116
 20
33.1777980548617
 30
0.0
 11
-17.86244772505116
 21
34.68792471753774
 31
0.0
  0
ARC
  5
648
  8
250
 10
-18.42003295434693
 20
33.1777980548617
 30
0.0
 40
0.5575852292958633
 50
270.0
 51
0.0
  0
LINE
  5
649
  8
250
 10
-18.42003295434693
 20
32.62021282556576
 30
0.0
 11
-19.34934166984035
 21
32.62021282556576
 31
0.0
  0
LINE
  5
64A
  8
250
 10
-21.57968258702376
 20
35.24550994683386
 30
0.0
 11
-21.57968258702376
 21
36.4071458412002
 31
0.0
  0
ARC
  5
64B
  8
250
 10
-18.42003295434693
 20
34.68792471753774
 30
0.0
 40
0.5575852292958633
 50
0.0
 51
90.0
  0
LINE
  5
64C
  8
250
 10
-19.34934166984035
 20
35.24550994683386
 30
0.0
 11
-18.42003295434693
 21
35.24550994683386
 31
0.0
  0
LINE
  5
64D
  8
250
 10
-20.74330474308013
 20
36.4071458412002
 30
0.0
 11
-17.91820624798052
 21
36.4071458412002
 31
0.0
  0
LINE
  5
64E
  8
250
 10
-26.04036442139059
 20
36.4071458412002
 30
0.0
 11
-26.04036442139059
 21
35.24550994683386
 31
0.0
  0
LINE
  5
64F
  8
250
 10
-26.04036442139059
 20
35.24550994683386
 30
0.0
 11
-27.64514593954095
 21
35.24550994683369
 31
0.0
  0
LINE
  5
650
  8
250
 10
-23.53123088955948
 20
32.62021282556576
 30
0.0
 11
-23.53123088955948
 21
35.24550994683386
 31
0.0
  0
LINE
  5
651
  8
250
 10
-24.92519396279889
 20
36.4071458412002
 30
0.0
 11
-21.57968258702376
 21
36.4071458412002
 31
0.0
  0
LINE
  5
652
  8
250
 10
-21.57968258702376
 20
32.62021282556576
 30
0.0
 11
-23.53123088955948
 21
32.62021282556576
 31
0.0
  0
LINE
  5
653
  8
250
 10
-23.53123088955948
 20
35.24550994683386
 30
0.0
 11
-21.57968258702376
 21
35.24550994683386
 31
0.0
  0
LINE
  5
654
  8
250
 10
-16.46848465181194
 20
34.95742424503108
 30
0.0
 11
-16.46848465181194
 21
33.20103077274911
 31
0.0
  0
ENDSEC
  0
EOF
