  0
SECTION
  2
HEADER
  9
$ACADVER
  1
AC1009
  9
$DWGCODEPAGE
  3
ansi_1252
  9
$INSBASE
 10
0.0
 20
0.0
 30
0.0
  9
$EXTMIN
 10
-2.846827171807717
 20
-1.2499975
 30
0.0
  9
$EXTMAX
 10
3.84626213810608
 20
2.440859643760678
 30
0.0
  9
$LIMMIN
 10
0.0
 20
0.0
  9
$LIMMAX
 10
5.5
 20
4.25
  9
$ORTHOMODE
 70
     1
  9
$REGENMODE
 70
     1
  9
$FILLMODE
 70
     1
  9
$QTEXTMODE
 70
     0
  9
$MIRRTEXT
 70
     1
  9
$DRAGMODE
 70
     2
  9
$LTSCALE
 40
10.0
  9
$OSMODE
 70
   511
  9
$ATTMODE
 70
     1
  9
$TEXTSIZE
 40
0.2
  9
$TRACEWID
 40
0.05
  9
$TEXTSTYLE
  7
STANDARD
  9
$CLAYER
  8
250
  9
$CELTYPE
  6
BYLAYER
  9
$CECOLOR
 62
   256
  9
$DIMSCALE
 40
1.0
  9
$DIMASZ
 40
0.18
  9
$DIMEXO
 40
0.0625
  9
$DIMDLI
 40
0.38
  9
$DIMRND
 40
0.0
  9
$DIMDLE
 40
0.0
  9
$DIMEXE
 40
0.18
  9
$DIMTP
 40
0.0
  9
$DIMTM
 40
0.0
  9
$DIMTXT
 40
0.18
  9
$DIMCEN
 40
0.09
  9
$DIMTSZ
 40
0.0
  9
$DIMTOL
 70
     0
  9
$DIMLIM
 70
     0
  9
$DIMTIH
 70
     0
  9
$DIMTOH
 70
     0
  9
$DIMSE1
 70
     0
  9
$DIMSE2
 70
     0
  9
$DIMTAD
 70
     1
  9
$DIMZIN
 70
     0
  9
$DIMBLK
  1

  9
$DIMASO
 70
     1
  9
$DIMSHO
 70
     0
  9
$DIMPOST
  1

  9
$DIMAPOST
  1

  9
$DIMALT
 70
     0
  9
$DIMALTD
 70
     2
  9
$DIMALTF
 40
25.4
  9
$DIMLFAC
 40
1.0
  9
$DIMTOFL
 70
     0
  9
$DIMTVP
 40
0.0
  9
$DIMTIX
 70
     0
  9
$DIMSOXD
 70
     0
  9
$DIMSAH
 70
     0
  9
$DIMBLK1
  1

  9
$DIMBLK2
  1

  9
$DIMSTYLE
  2
STANDARD
  9
$DIMCLRD
 70
     0
  9
$DIMCLRE
 70
     0
  9
$DIMCLRT
 70
     0
  9
$DIMTFAC
 40
1.0
  9
$DIMGAP
 40
0.09
  9
$LUNITS
 70
     2
  9
$LUPREC
 70
     4
  9
$SKETCHINC
 40
0.1
  9
$FILLETRAD
 40
0.0
  9
$AUNITS
 70
     0
  9
$AUPREC
 70
     0
  9
$MENU
  1
acad
  9
$ELEVATION
 40
0.0
  9
$PELEVATION
 40
0.0
  9
$THICKNESS
 40
0.0
  9
$LIMCHECK
 70
     0
  9
$CHAMFERA
 40
1.0
  9
$CHAMFERB
 40
1.0
  9
$SKPOLY
 70
     0
  9
$TDCREATE
 40
2448630.639480312
  9
$TDUPDATE
 40
2452852.588168993
  9
$TDINDWG
 40
0.0211575
  9
$TDUSRTIMER
 40
2458339.608649618
  9
$USRTIMER
 70
     1
  9
$ANGBASE
 50
0.0
  9
$ANGDIR
 70
     0
  9
$PDMODE
 70
     0
  9
$PDSIZE
 40
0.0
  9
$PLINEWID
 40
0.0
  9
$COORDS
 70
     1
  9
$SPLFRAME
 70
     0
  9
$SPLINETYPE
 70
     6
  9
$SPLINESEGS
 70
     8
  9
$ATTDIA
 70
     0
  9
$ATTREQ
 70
     1
  9
$HANDLING
 70
     1
  9
$HANDSEED
  5
6A7
  9
$SURFTAB1
 70
     6
  9
$SURFTAB2
 70
     6
  9
$SURFTYPE
 70
     6
  9
$SURFU
 70
     6
  9
$SURFV
 70
     6
  9
$UCSNAME
  2

  9
$UCSORG
 10
0.0
 20
0.0
 30
0.0
  9
$UCSXDIR
 10
1.0
 20
0.0
 30
0.0
  9
$UCSYDIR
 10
0.0
 20
1.0
 30
0.0
  9
$PUCSNAME
  2

  9
$PUCSORG
 10
0.0
 20
0.0
 30
0.0
  9
$PUCSXDIR
 10
1.0
 20
0.0
 30
0.0
  9
$PUCSYDIR
 10
0.0
 20
1.0
 30
0.0
  9
$USERI1
 70
     0
  9
$USERI2
 70
     0
  9
$USERI3
 70
     0
  9
$USERI4
 70
     0
  9
$USERI5
 70
     0
  9
$USERR1
 40
0.0
  9
$USERR2
 40
0.0
  9
$USERR3
 40
0.0
  9
$USERR4
 40
0.0
  9
$USERR5
 40
0.0
  9
$WORLDVIEW
 70
     1
  9
$SHADEDGE
 70
     3
  9
$SHADEDIF
 70
    70
  9
$TILEMODE
 70
     1
  9
$MAXACTVP
 70
    48
  9
$PLIMCHECK
 70
     0
  9
$PEXTMIN
 10
1.000000000000000E+20
 20
1.000000000000000E+20
 30
1.000000000000000E+20
  9
$PEXTMAX
 10
-1.000000000000000E+20
 20
-1.000000000000000E+20
 30
-1.000000000000000E+20
  9
$PLIMMIN
 10
0.0
 20
0.0
  9
$PLIMMAX
 10
12.0
 20
9.0
  9
$UNITMODE
 70
     0
  9
$VISRETAIN
 70
     0
  9
$PLINEGEN
 70
     0
  9
$PSLTSCALE
 70
     0
  0
ENDSEC
  0
SECTION
  2
TABLES
  0
TABLE
  2
VPORT
 70
     1
  0
VPORT
  2
*ACTIVE
 70
     0
 10
0.0
 20
0.0
 11
1.0
 21
1.0
 12
10.65682407198921
 22
8.422521669234786
 13
0.0
 23
0.0
 14
1.0
 24
1.0
 15
0.0
 25
0.0
 16
0.0
 26
0.0
 36
1.0
 17
0.0
 27
0.0
 37
0.0
 40
127.3692220821601
 41
1.328822733423545
 42
50.0
 43
0.0
 44
0.0
 50
0.0
 51
0.0
 71
    16
 72
   100
 73
     1
 74
     1
 75
     0
 76
     0
 77
     0
 78
     0
  0
ENDTAB
  0
TABLE
  2
LTYPE
 70
     3
  0
LTYPE
  2
CONTINUOUS
 70
     0
  3
Solid line
 72
    65
 73
     0
 40
0.0
  0
LTYPE
  2
HIDDEN
 70
     0
  3
_ _ _ _ _ _ _ _ _ _ _ _ _ _ _ _ _ _ _ _ _ _ _
 72
    65
 73
     2
 40
0.375
 49
0.25
 49
-0.125
  0
LTYPE
  2
CENTER
 70
     0
  3
____ _ ____ _ ____ _ ____ _ ____ _ ____ _ ____
 72
    65
 73
     4
 40
2.0
 49
1.25
 49
-0.25
 49
0.25
 49
-0.25
  0
ENDTAB
  0
TABLE
  2
LAYER
 70
     6
  0
LAYER
  2
0
 70
     0
 62
     7
  6
CONTINUOUS
  0
LAYER
  2
240
 70
     0
 62
     4
  6
CONTINUOUS
  0
LAYER
  2
243
 70
     0
 62
     6
  6
HIDDEN
  0
LAYER
  2
250
 70
     0
 62
     3
  6
CONTINUOUS
  0
LAYER
  2
245
 70
     0
 62
     2
  6
CENTER
  0
LAYER
  2
DEFPOINTS
 70
     0
 62
     7
  6
CONTINUOUS
  0
ENDTAB
  0
TABLE
  2
STYLE
 70
     2
  0
STYLE
  2
STANDARD
 70
     0
 40
0.0
 41
1.0
 50
0.0
 71
     0
 42
0.2
  3
txt
  4

  0
STYLE
  2
ROMANS
 70
     0
 40
0.0
 41
1.0
 50
0.0
 71
     0
 42
0.24
  3
romans
  4

  0
ENDTAB
  0
TABLE
  2
VIEW
 70
     0
  0
ENDTAB
  0
TABLE
  2
UCS
 70
     0
  0
ENDTAB
  0
TABLE
  2
APPID
 70
     1
  0
APPID
  2
ACAD
 70
     0
  0
ENDTAB
  0
TABLE
  2
DIMSTYLE
 70
     1
  0
DIMSTYLE
  2
STANDARD
 70
     0
  3

  4

  5

  6

  7

 40
1.0
 41
0.18
 42
0.0625
 43
0.38
 44
0.18
 45
0.0
 46
0.0
 47
0.0
 48
0.0
140
0.18
141
0.09
142
0.0
143
25.4
144
1.0
145
0.0
146
1.0
147
0.09
 71
     0
 72
     0
 73
     0
 74
     0
 75
     0
 76
     0
 77
     1
 78
     0
170
     0
171
     2
172
     0
173
     0
174
     0
175
     0
176
     0
177
     0
178
     0
  0
ENDTAB
  0
ENDSEC
  0
SECTION
  2
BLOCKS
  0
BLOCK
  8
0
  2
$MODEL_SPACE
 70
     0
 10
0.0
 20
0.0
 30
0.0
  3
$MODEL_SPACE
  1

  0
ENDBLK
  5
37
  8
0
  0
BLOCK
 67
     1
  8
0
  2
$PAPER_SPACE
 70
     0
 10
0.0
 20
0.0
 30
0.0
  3
$PAPER_SPACE
  1

  0
ENDBLK
  5
35
 67
     1
  8
0
  0
BLOCK
  8
250
  2
DK
 70
     0
 10
0.0
 20
0.0
 30
0.0
  3
DK
  1

  0
LINE
  5
113
  8
243
 10
3.175000000000004
 20
25.01999999999998
 30
0.0
 11
19.05
 21
25.01999999999998
 31
0.0
  0
LINE
  5
114
  8
243
 10
15.8625
 20
25.01999999999998
 30
0.0
 11
11.1125
 21
22.27758622134926
 31
0.0
  0
LINE
  5
115
  8
243
 10
6.362500000000002
 20
25.01999999999998
 30
0.0
 11
11.1125
 21
22.27758622134926
 31
0.0
  0
LINE
  5
116
  8
243
 10
3.175000000000011
 20
-22.6
 30
0.0
 11
19.05
 21
-22.6
 31
0.0
  0
ENDBLK
  5
117
  8
250
  0
BLOCK
  8
0
  2
*D2
 70
     1
 10
0.0
 20
0.0
 30
0.0
  3
*D2
  1

  0
LINE
  5
430
  8
250
 62
     0
 10
0.0
 20
22.28745554999995
 30
0.0
 11
0.0
 21
44.77497983846958
 31
0.0
  0
LINE
  5
431
  8
250
 62
     0
 10
62.99987400000005
 20
24.04010203199991
 30
0.0
 11
62.99987400000005
 21
44.77497983846958
 31
0.0
  0
LINE
  5
432
  8
250
 62
     0
 10
3.0
 20
44.59497983846958
 30
0.0
 11
59.99987400000005
 21
44.59497983846958
 31
0.0
  0
SOLID
  5
433
  8
250
 62
     0
 10
3.0
 20
45.09497983846958
 30
0.0
 11
3.0
 21
44.09497983846958
 31
0.0
 12
0.0
 22
44.59497983846958
 32
0.0
 13
0.0
 23
44.59497983846958
 33
0.0
  0
SOLID
  5
434
  8
250
 62
     0
 10
59.99987400000005
 20
44.09497983846958
 30
0.0
 11
59.99987400000005
 21
45.09497983846958
 31
0.0
 12
62.99987400000005
 22
44.59497983846958
 32
0.0
 13
62.99987400000005
 23
44.59497983846958
 33
0.0
  0
TEXT
  5
435
  8
250
  6
CONTINUOUS
 62
     0
 10
26.42850842857145
 20
45.59497983846958
 30
0.0
 40
3.0
  1
63.0
  7
ROMANS
  0
POINT
  5
436
  8
DEFPOINTS
 62
     0
 10
0.0
 20
22.22495554999995
 30
0.0
  0
POINT
  5
437
  8
DEFPOINTS
 62
     0
 10
62.99987400000005
 20
23.97760203199991
 30
0.0
  0
POINT
  5
438
  8
DEFPOINTS
 62
     0
 10
62.99987400000005
 20
44.59497983846958
 30
0.0
  0
ENDBLK
  5
3CA
  8
0
  0
BLOCK
  8
0
  2
*D3
 70
     1
 10
0.0
 20
0.0
 30
0.0
  3
*D3
  1

  0
LINE
  5
427
  8
250
 62
     0
 10
34.92493014999997
 20
24.081451962
 30
0.0
 11
34.92493014999997
 21
32.78562384162189
 31
0.0
  0
LINE
  5
428
  8
250
 62
     0
 10
62.99987400000005
 20
24.04010203199991
 30
0.0
 11
62.99987400000005
 21
32.78562384162189
 31
0.0
  0
LINE
  5
429
  8
250
 62
     0
 10
37.92493014999997
 20
32.60562384162189
 30
0.0
 11
59.99987400000005
 21
32.60562384162189
 31
0.0
  0
SOLID
  5
42A
  8
250
 62
     0
 10
37.92493014999997
 20
33.10562384162189
 30
0.0
 11
37.92493014999997
 21
32.10562384162189
 31
0.0
 12
34.92493014999997
 22
32.60562384162189
 32
0.0
 13
34.92493014999997
 23
32.60562384162189
 33
0.0
  0
SOLID
  5
42B
  8
250
 62
     0
 10
59.99987400000005
 20
32.10562384162189
 30
0.0
 11
59.99987400000005
 21
33.10562384162189
 31
0.0
 12
62.99987400000005
 22
32.60562384162189
 32
0.0
 13
62.99987400000005
 23
32.60562384162189
 33
0.0
  0
TEXT
  5
42C
  8
250
  6
CONTINUOUS
 62
     0
 10
44.39097350357144
 20
33.60562384162189
 30
0.0
 40
3.0
  1
28.1
  7
ROMANS
  0
POINT
  5
42D
  8
DEFPOINTS
 62
     0
 10
34.92493014999997
 20
24.018951962
 30
0.0
  0
POINT
  5
42E
  8
DEFPOINTS
 62
     0
 10
62.99987400000005
 20
23.97760203199991
 30
0.0
  0
POINT
  5
42F
  8
DEFPOINTS
 62
     0
 10
62.99987400000005
 20
32.60562384162189
 30
0.0
  0
ENDBLK
  5
3D7
  8
0
  0
BLOCK
  8
0
  2
*D4
 70
     1
 10
0.0
 20
0.0
 30
0.0
  3
*D4
  1

  0
LINE
  5
3FA
  8
250
 62
     0
 10
62.0463760319999
 20
24.99359999999998
 30
0.0
 11
93.30305830789443
 21
24.99359999999998
 31
0.0
  0
LINE
  5
3FB
  8
250
 62
     0
 10
62.0463760319999
 20
-24.99360000000002
 30
0.0
 11
93.30305830789443
 21
-24.99360000000003
 31
0.0
  0
LINE
  5
3FC
  8
250
 62
     0
 10
93.12305830789442
 20
21.99359999999998
 30
0.0
 11
93.12305830789442
 21
-21.99360000000003
 31
0.0
  0
SOLID
  5
3FD
  8
250
 62
     0
 10
93.62305830789442
 20
21.99359999999998
 30
0.0
 11
92.62305830789442
 21
21.99359999999998
 31
0.0
 12
93.12305830789442
 22
24.99359999999998
 32
0.0
 13
93.12305830789442
 23
24.99359999999998
 33
0.0
  0
SOLID
  5
3FE
  8
250
 62
     0
 10
92.62305830789442
 20
-21.99360000000003
 30
0.0
 11
93.62305830789442
 21
-21.99360000000003
 31
0.0
 12
93.12305830789442
 22
-24.99360000000003
 32
0.0
 13
93.12305830789442
 23
-24.99360000000003
 33
0.0
  0
INSERT
  5
3FF
  8
250
 62
     0
  2
*X5
 10
0.0
 20
0.0
 30
0.0
  0
POINT
  5
400
  8
DEFPOINTS
 62
     0
 10
61.9838760319999
 20
24.99359999999998
 30
0.0
  0
POINT
  5
401
  8
DEFPOINTS
 62
     0
 10
61.9838760319999
 20
-24.99360000000002
 30
0.0
  0
POINT
  5
402
  8
DEFPOINTS
 62
     0
 10
93.12305830789442
 20
-24.99360000000003
 30
0.0
  0
ENDBLK
  5
3E4
  8
0
  0
BLOCK
  8
0
  2
*X5
 70
     1
 10
0.0
 20
0.0
 30
0.0
  3
*X5
  1

  0
TEXT
  5
6A0
  8
250
  6
CONTINUOUS
 62
     0
 10
92.12305830789442
 20
-6.437500000000028
 30
0.0
 40
3.0
  1
ø
 50
90.0
  7
ROMANS
  0
TEXT
  5
6A1
  8
250
  6
CONTINUOUS
 62
     0
 10
92.12305830789442
 20
-3.580357142857167
 30
0.0
 40
3.0
  1
50.0
 50
90.0
  7
ROMANS
  0
ENDBLK
  5
6A3
  8
0
  0
ENDSEC
  0
SECTION
  2
ENTITIES
  0
ARC
  5
287
  8
240
 10
1.65099669800003
 20
23.74895250199996
 30
0.0
 40
1.523996952
 50
270.0
 51
0.0
  0
ARC
  5
288
  8
240
 10
1.65099669800003
 20
-23.74895250200001
 30
0.0
 40
1.523996952
 50
0.0
 51
90.0
  0
LINE
  5
289
  8
240
 10
18.28796342400001
 20
-31.7499365
 30
0.0
 11
19.0499619000001
 21
-30.98793802400002
 31
0.0
  0
LINE
  5
28A
  8
240
 10
18.10714247660407
 20
-31.7499365
 30
0.0
 11
18.33187992211749
 21
-31.7499365
 31
0.0
  0
LINE
  5
28B
  8
240
 10
18.10714247660407
 20
-31.7499365
 30
0.0
 11
18.33187992211749
 21
-31.7499365
 31
0.0
  0
LINE
  5
28C
  8
240
 10
3.936992126000099
 20
-31.7499365
 30
0.0
 11
3.174993650000015
 21
-30.98793802399997
 31
0.0
  0
LINE
  5
28D
  8
240
 10
18.10714247660407
 20
-31.7499365
 30
0.0
 11
18.33187992211749
 21
-31.7499365
 31
0.0
  0
LINE
  5
28E
  8
240
 10
3.936992126000099
 20
-31.7499365
 30
0.0
 11
7.594584810799992
 21
-31.7499365
 31
0.0
  0
LINE
  5
28F
  8
240
 10
14.64307071380009
 20
-31.7499365
 30
0.0
 11
18.10714247660407
 21
-31.7499365
 31
0.0
  0
LINE
  5
290
  8
243
 10
-63.49987299999992
 20
6.756386487199963
 30
0.0
 11
-63.49987299999992
 21
8.140683718599984
 31
0.0
  0
LINE
  5
291
  8
240
 10
-68.26236347499994
 20
9.143981712000004
 30
0.0
 11
-68.26236347499994
 21
10.95215970984319
 31
0.0
  0
LINE
  5
292
  8
240
 10
-68.26236347499994
 20
-9.14398171200005
 30
0.0
 11
-68.26236347499994
 21
-10.95215970984325
 31
0.0
  0
LINE
  5
293
  8
243
 10
-66.52460037529922
 20
8.140683718599984
 30
0.0
 11
-66.52460037529922
 21
-8.140683718600027
 31
0.0
  0
LINE
  5
294
  8
243
 10
-63.49987299999992
 20
-6.756386487200055
 30
0.0
 11
-63.49987299999992
 21
6.756386487199963
 31
0.0
  0
LINE
  5
295
  8
243
 10
-66.52460037529922
 20
8.140683718599984
 30
0.0
 11
-63.49987299999992
 21
8.140683718599984
 31
0.0
  0
LINE
  5
296
  8
243
 10
-66.52460037529922
 20
-8.140683718600027
 30
0.0
 11
-63.49987299999992
 21
-8.140683718600027
 31
0.0
  0
LINE
  5
297
  8
243
 10
-68.26236347499994
 20
9.143981711999984
 30
0.0
 11
-66.52460037529922
 21
8.140683718599984
 31
0.0
  0
LINE
  5
298
  8
243
 10
-68.26236347499994
 20
-9.143981712000027
 30
0.0
 11
-66.52460037529922
 21
-8.140683718600027
 31
0.0
  0
LINE
  5
299
  8
243
 10
-63.49987299999992
 20
-8.140683718600027
 30
0.0
 11
-63.49987299999992
 21
-6.756386487200055
 31
0.0
  0
LINE
  5
29A
  8
245
 10
-72.30941016391601
 20
0.0
 30
0.0
 11
70.33021908916008
 21
-0.0000000000000229
 31
0.0
  0
LINE
  5
29B
  8
243
 10
-39.68742062499997
 20
-7.937484125000017
 30
0.0
 11
-39.68742062499997
 21
-0.0000000000000229
 31
0.0
  0
LINE
  5
29C
  8
243
 10
-63.49987299999992
 20
-6.756386487200055
 30
0.0
 11
1.415661314978034
 21
-6.75638648720001
 31
0.0
  0
LINE
  5
29D
  8
243
 10
-63.49987299999992
 20
-7.937484125000017
 30
0.0
 11
-39.68742062499997
 21
-7.937484125000017
 31
0.0
  0
LINE
  5
29E
  8
240
 10
0.0
 20
-22.22495555000001
 30
0.0
 11
-66.95828978817191
 21
-12.46020495689039
 31
0.0
  0
ARC
  5
29F
  8
240
 10
-66.73836652299997
 20
-10.95215970984323
 30
0.0
 40
1.523996952
 50
180.0
 51
261.7028550309997
  0
LINE
  5
2A0
  8
240
 10
-68.26236347499994
 20
-0.0000000000000229
 30
0.0
 11
-68.26236347499994
 21
-9.14398171200005
 31
0.0
  0
LINE
  5
2A1
  8
243
 10
-63.49987299999992
 20
6.756386487199987
 30
0.0
 11
1.415661314978034
 21
6.756386487199941
 31
0.0
  0
LINE
  5
2A2
  8
243
 10
-39.68742062499997
 20
7.937484124999972
 30
0.0
 11
-39.68742062499997
 21
-0.0000000000000229
 31
0.0
  0
LINE
  5
2A3
  8
243
 10
-63.49987299999992
 20
7.937484124999972
 30
0.0
 11
-39.68742062499997
 21
7.937484124999972
 31
0.0
  0
ARC
  5
2A4
  8
240
 10
-66.73836652299997
 20
10.95215970984319
 30
0.0
 40
1.523996952
 50
98.29714496900033
 51
179.9999999999999
  0
LINE
  5
2A5
  8
240
 10
0.0
 20
22.22495554999995
 30
0.0
 11
-66.95828978817191
 21
12.46020495689032
 31
0.0
  0
LINE
  5
2A6
  8
240
 10
-68.26236347499994
 20
-0.0000000000000229
 30
0.0
 11
-68.26236347499994
 21
9.143981712000004
 31
0.0
  0
LINE
  5
2A7
  8
240
 10
14.64307071380009
 20
-31.7499365
 30
0.0
 11
13.03111549430075
 21
-28.95794816030141
 31
0.0
  0
LINE
  5
2A8
  8
240
 10
13.03017393959996
 20
-28.18124363739998
 30
0.0
 11
13.03017393959996
 21
-28.95849176716134
 31
0.0
  0
LINE
  5
2A9
  8
240
 10
9.19478161039997
 20
-28.18124363739998
 30
0.0
 11
13.03017393959996
 21
-28.18124363739998
 31
0.0
  0
LINE
  5
2AA
  8
240
 10
9.19478161039997
 20
-28.18124363739998
 30
0.0
 11
9.19478161039997
 21
-28.97831434098365
 31
0.0
  0
LINE
  5
2AB
  8
240
 10
7.594584810799992
 20
-31.7499365
 30
0.0
 11
9.19478161039997
 21
-28.97831434098365
 31
0.0
  0
LINE
  5
2AC
  8
240
 10
9.19478161039997
 20
28.18124363739998
 30
0.0
 11
9.19478161039997
 21
28.97831434098363
 31
0.0
  0
LINE
  5
2AD
  8
240
 10
13.03017393959996
 20
28.18124363739998
 30
0.0
 11
13.03017393959996
 21
28.95849176716123
 31
0.0
  0
LINE
  5
2AE
  8
240
 10
14.64307071380009
 20
31.74993649999995
 30
0.0
 11
13.03111549430075
 21
28.95794816030128
 31
0.0
  0
LINE
  5
2AF
  8
240
 10
7.594584810799992
 20
31.74993649999995
 30
0.0
 11
9.19478161039997
 21
28.97831434098363
 31
0.0
  0
LINE
  5
2B0
  8
240
 10
9.19478161039997
 20
28.18124363739998
 30
0.0
 11
13.03017393959996
 21
28.18124363739998
 31
0.0
  0
LINE
  5
2B1
  8
240
 10
14.64307071380009
 20
31.74993649999995
 30
0.0
 11
18.28796342400001
 21
31.74993649999995
 31
0.0
  0
ARC
  5
2B2
  8
240
 10
19.811960376
 20
-22.98695402600003
 30
0.0
 40
0.7619984759999999
 50
90.0
 51
179.9999999999997
  0
ARC
  5
2B3
  8
240
 10
19.811960376
 20
22.98695402599999
 30
0.0
 40
0.7619984759999999
 50
180.0
 51
269.9999999999998
  0
LINE
  5
2B4
  8
240
 10
3.936992126000099
 20
31.74993649999995
 30
0.0
 11
3.174993650000015
 21
30.98793802399992
 31
0.0
  0
LINE
  5
2B5
  8
240
 10
18.28796342400001
 20
31.74993649999995
 30
0.0
 11
19.0499619000001
 21
30.98793802399997
 31
0.0
  0
LINE
  5
2B6
  8
240
 10
3.936992126000099
 20
31.74993649999995
 30
0.0
 11
7.594584810799992
 21
31.74993649999995
 31
0.0
  0
LINE
  5
2B7
  8
240
 10
3.174993650000015
 20
30.98793802399992
 30
0.0
 11
3.174993650000015
 21
-30.98793802400002
 31
0.0
  0
LINE
  5
2B8
  8
240
 10
19.0499619000001
 20
30.98793802399997
 30
0.0
 11
19.0499619000001
 21
-30.98793802400002
 31
0.0
  0
LINE
  5
2B9
  8
240
 10
33.92493215000002
 20
22.22495554999995
 30
0.0
 11
19.811960376
 21
22.22495554999995
 31
0.0
  0
LINE
  5
2BA
  8
240
 10
19.811960376
 20
-22.22495555000001
 30
0.0
 11
33.92493215000002
 21
-22.22495555000004
 31
0.0
  0
LINE
  5
2BB
  8
240
 10
1.65099669800003
 20
-22.22495555000001
 30
0.0
 11
0.0
 21
-22.22495555000001
 31
0.0
  0
LINE
  5
2BC
  8
240
 10
0.0
 20
22.22495554999995
 30
0.0
 11
1.65099669800003
 21
22.22495554999995
 31
0.0
  0
LINE
  5
2BD
  8
240
 10
13.03017393959996
 20
-28.18124363739998
 30
0.0
 11
13.03017393959996
 21
28.18124363739998
 31
0.0
  0
LINE
  5
2BF
  8
240
 10
14.64307071380009
 20
31.74993649999995
 30
0.0
 11
14.64307071380009
 21
-31.7499365
 31
0.0
  0
LINE
  5
2C0
  8
240
 10
9.19478161039997
 20
28.18124363739998
 30
0.0
 11
9.19478161039997
 21
-28.18124363739998
 31
0.0
  0
LINE
  5
2C1
  8
240
 10
7.594584810800172
 20
31.74993649999995
 30
0.0
 11
7.594584810799992
 21
-31.7499365
 31
0.0
  0
LINE
  5
2C3
  8
240
 10
0.0
 20
22.22495554999995
 30
0.0
 11
0.0
 21
-22.22495555000001
 31
0.0
  0
LINE
  5
2C4
  8
240
 10
34.92493014999997
 20
24.018951962
 30
0.0
 11
34.92493014999997
 21
-24.01895196200002
 31
0.0
  0
LINE
  5
2C5
  8
243
 10
-39.68742062499997
 20
7.937484124999972
 30
0.0
 11
-35.27950423203086
 21
6.756386487199987
 31
0.0
  0
LINE
  5
2C6
  8
243
 10
-35.27950423203086
 20
6.756386487199987
 30
0.0
 11
-35.27950423203086
 21
-6.756386487200032
 31
0.0
  0
LINE
  5
2C7
  8
243
 10
-35.27950423203086
 20
-6.756386487200032
 30
0.0
 11
-39.68742062499997
 21
-7.937484125000017
 31
0.0
  0
INSERT
  5
2C8
  8
250
  2
DK
 10
0.0
 20
-0.0000000000000229
 30
0.0
 41
0.999998
 42
0.999998
 43
0.999998
  0
LINE
  5
2C9
  8
240
 10
62.99987400000005
 20
23.97760203199991
 30
0.0
 11
62.99987400000005
 21
-24.00295199399998
 31
0.0
  0
LINE
  5
2CA
  8
240
 10
35.92492814999987
 20
-24.99360000000007
 30
0.0
 11
61.9838760319999
 21
-24.99360000000002
 31
0.0
  0
LINE
  5
2CB
  8
240
 10
35.92492814999987
 20
24.99359999999998
 30
0.0
 11
61.9838760319999
 21
24.99359999999998
 31
0.0
  0
LINE
  5
2CD
  8
240
 10
62.99987400000005
 20
-23.97760203200001
 30
0.0
 11
61.9838760319999
 21
-24.99360000000002
 31
0.0
  0
LINE
  5
2CF
  8
240
 10
62.99987400000005
 20
23.97760203199991
 30
0.0
 11
61.9838760319999
 21
24.99359999999998
 31
0.0
  0
LINE
  5
2D0
  8
243
 10
30.81813836360002
 20
-14.0017219965
 30
0.0
 11
62.99987400000005
 21
-14.00172199650004
 31
0.0
  0
LINE
  5
2D1
  8
243
 10
30.81813836360002
 20
-14.0017219965
 30
0.0
 11
28.50773154469329
 21
-9.999979999999997
 31
0.0
  0
LINE
  5
2D2
  8
243
 10
30.81813836360002
 20
14.0017219965
 30
0.0
 11
28.50773154469329
 21
9.999979999999974
 31
0.0
  0
LINE
  5
2D3
  8
243
 10
30.81813836360002
 20
14.0017219965
 30
0.0
 11
62.99987400000005
 21
14.0017219965
 31
0.0
  0
LINE
  5
2D4
  8
243
 10
30.81813836360002
 20
14.0017219965
 30
0.0
 11
30.81813836360002
 21
-14.0017219965
 31
0.0
  0
POLYLINE
  5
2D5
  8
240
 66
     1
 10
0.0
 20
0.0
 30
0.0
 70
     1
  0
VERTEX
  5
689
  8
240
 10
55.843748960783
 20
-0.0000000000000229
 30
0.0
 42
0.1138102214018407
  0
VERTEX
  5
68A
  8
240
 10
55.41073595524865
 20
1.877706079118337
 30
0.0
 42
0.1035727593959015
  0
VERTEX
  5
68B
  8
240
 10
54.11584039800337
 20
3.547194073419805
 30
0.0
 42
0.0917653985016239
  0
VERTEX
  5
68C
  8
240
 10
52.24340878994601
 20
4.623429342503659
 30
0.0
 42
0.0848654413823146
  0
VERTEX
  5
68D
  8
240
 10
49.9443001112001
 20
5.01648996699975
 30
0.0
 42
0.0848654413823177
  0
VERTEX
  5
68E
  8
240
 10
47.64519143245408
 20
4.623429342503659
 30
0.0
 42
0.0917653985016233
  0
VERTEX
  5
68F
  8
240
 10
45.77275982439667
 20
3.547194073419805
 30
0.0
 42
0.1035727593958979
  0
VERTEX
  5
690
  8
240
 10
44.47786426715144
 20
1.877706079118314
 30
0.0
 42
0.1138102214018312
  0
VERTEX
  5
691
  8
240
 10
44.0448512616171
 20
-0.0000000000000229
 30
0.0
 42
0.1138102214018476
  0
VERTEX
  5
692
  8
240
 10
44.47786426715144
 20
-1.877706079118451
 30
0.0
 42
0.1035727593958984
  0
VERTEX
  5
693
  8
240
 10
45.77275982439667
 20
-3.547194073419829
 30
0.0
 42
0.0917653985016307
  0
VERTEX
  5
694
  8
240
 10
47.64519143245424
 20
-4.623429342503659
 30
0.0
 42
0.0848654413823218
  0
VERTEX
  5
695
  8
240
 10
49.9443001112001
 20
-5.016489966999797
 30
0.0
 42
0.0848654413823177
  0
VERTEX
  5
696
  8
240
 10
52.24340878994601
 20
-4.623429342503682
 30
0.0
 42
0.091765398501623
  0
VERTEX
  5
697
  8
240
 10
54.11584039800337
 20
-3.547194073419829
 30
0.0
 42
0.1035727593958915
  0
VERTEX
  5
698
  8
240
 10
55.41073595524865
 20
-1.877706079118383
 30
0.0
 42
0.1138102214018285
  0
SEQEND
  5
6A6
  8
240
  0
CIRCLE
  5
2E7
  8
240
 10
49.94430011119994
 20
-0.0000000000000229
 30
0.0
 40
4.381491237
  0
CIRCLE
  5
2E8
  8
243
 10
49.94430011119994
 20
-0.0000000000000229
 30
0.0
 40
5.016489966999999
  0
LINE
  5
2E9
  8
243
 10
62.99987400000005
 20
19.58336083320007
 30
0.0
 11
48.99990199999997
 21
19.58336083320007
 31
0.0
  0
LINE
  5
2EA
  8
243
 10
48.99990199999997
 20
19.58336083320007
 30
0.0
 11
48.99990199999997
 21
14.0017219965
 31
0.0
  0
LINE
  5
2EB
  8
243
 10
48.99990199999997
 20
-19.58336083320007
 30
0.0
 11
48.99990199999997
 21
-14.0017219965
 31
0.0
  0
LINE
  5
2EC
  8
243
 10
62.99987400000005
 20
-19.58336083320007
 30
0.0
 11
48.99990199999997
 21
-19.58336083320007
 31
0.0
  0
POLYLINE
  5
2ED
  8
240
 66
     1
 10
0.0
 20
0.0
 30
0.0
 70
     1
  0
VERTEX
  5
699
  8
240
 10
53.4753782241631
 20
2.038668899048718
 30
0.0
  0
VERTEX
  5
69A
  8
240
 10
49.9443001112001
 20
4.077337798097457
 30
0.0
  0
VERTEX
  5
69B
  8
240
 10
46.41322199823718
 20
2.038668899048718
 30
0.0
  0
VERTEX
  5
69C
  8
240
 10
46.41322199823718
 20
-2.038668899048764
 30
0.0
  0
VERTEX
  5
69D
  8
240
 10
49.9443001112001
 20
-4.077337798097503
 30
0.0
  0
VERTEX
  5
69E
  8
240
 10
53.4753782241631
 20
-2.038668899048764
 30
0.0
  0
SEQEND
  5
6A5
  8
240
  0
LINE
  5
2F5
  8
243
 10
28.50773154469329
 20
9.999979999999997
 30
0.0
 11
3.288350902734772
 21
9.999979999999997
 31
0.0
  0
LINE
  5
2F6
  8
243
 10
28.50773154469329
 20
9.999979999999997
 30
0.0
 11
28.50773154469329
 21
-9.999979999999997
 31
0.0
  0
LINE
  5
2F7
  8
243
 10
3.288350902734772
 20
9.999979999999997
 30
0.0
 11
1.415661314978034
 21
6.756386487199941
 31
0.0
  0
LINE
  5
2F8
  8
243
 10
1.415661314978034
 20
6.756386487199941
 30
0.0
 11
1.415661314978034
 21
-6.75638648720001
 31
0.0
  0
LINE
  5
2F9
  8
243
 10
3.288350902734772
 20
-9.99998000000002
 30
0.0
 11
1.415661314978034
 21
-6.756386487199963
 31
0.0
  0
LINE
  5
2FA
  8
243
 10
28.50773154469329
 20
-9.999979999999997
 30
0.0
 11
3.288350902734772
 21
-9.99998000000002
 31
0.0
  0
LINE
  5
2FB
  8
240
 10
35.92492814999987
 20
24.99359999999998
 30
0.0
 11
34.92493014999997
 21
23.99360199999997
 31
0.0
  0
LINE
  5
2FC
  8
240
 10
34.92493014999997
 20
-23.99360200000005
 30
0.0
 11
35.92492814999987
 21
-24.99360000000007
 31
0.0
  0
ARC
  5
2FD
  8
240
 10
33.92493215000002
 20
23.22495354999997
 30
0.0
 40
0.999998
 50
270.0
 51
0.0
  0
ARC
  5
2FE
  8
240
 10
33.92493215000002
 20
-23.22495354999999
 30
0.0
 40
0.999998
 50
0.0
 51
90.0
  0
LINE
  5
3A9
  8
243
 10
3.174993650000015
 20
29.44149029442445
 30
0.0
 11
29.20804212643127
 21
11.21295350864847
 31
0.0
  0
LINE
  5
3AA
  8
243
 10
3.174993650000015
 20
24.55840170557539
 30
0.0
 11
23.96657459012864
 21
9.999979999999974
 31
0.0
  0
LINE
  5
3AB
  8
243
 10
3.174993650000015
 20
-24.55840170557588
 30
0.0
 11
23.96657459012919
 21
-9.999979999999997
 31
0.0
  0
LINE
  5
3AC
  8
243
 10
3.174993650000015
 20
-29.44149029442499
 30
0.0
 11
29.20804212643163
 21
-11.21295350864883
 31
0.0
  0
DIMENSION
  5
3BE
  8
250
  2
*D2
 10
62.99987400000005
 20
44.59497983846958
 30
0.0
 11
31.49993700000002
 21
47.09497983846958
 31
0.0
 70
    32
  3
STANDARD
 13
0.0
 23
22.22495554999995
 33
0.0
 14
62.99987400000005
 24
23.97760203199991
 34
0.0
1001
ACAD
1000
DSTYLE
1002
{
1070
   271
1070
     1
1070
   340
1005
43E
1070
   147
1040
1.0
1070
   140
1040
3.0
1070
    41
1040
3.0
1002
}
  0
DIMENSION
  5
3CB
  8
250
  2
*D3
 10
62.99987400000005
 20
32.60562384162189
 30
0.0
 11
48.96240207500001
 21
35.10562384162189
 31
0.0
 70
    32
  3
STANDARD
 13
34.92493014999997
 23
24.018951962
 33
0.0
 14
62.99987400000005
 24
23.97760203199991
 34
0.0
1001
ACAD
1000
DSTYLE
1002
{
1070
   271
1070
     1
1070
   340
1005
43E
1070
   147
1040
1.0
1070
   140
1040
3.0
1070
    41
1040
3.0
1002
}
  0
DIMENSION
  5
3D8
  8
250
  2
*D4
 10
93.12305830789442
 20
-24.99360000000003
 30
0.0
 11
90.62305830789442
 21
-0.0000000000000249
 31
0.0
 70
    32
  1
%%c<>
  3
STANDARD
 13
61.9838760319999
 23
24.99359999999998
 33
0.0
 14
61.9838760319999
 24
-24.99360000000002
 34
0.0
 50
90.0
1001
ACAD
1000
DSTYLE
1002
{
1070
   271
1070
     1
1070
   340
1005
43E
1070
   147
1040
1.0
1070
   140
1040
3.0
1070
    41
1040
3.0
1002
}
  0
LINE
  5
5E1
  8
250
 10
-19.53691047906955
 20
32.21264149600906
 30
0.0
 11
-19.53691047906955
 21
33.3742773903754
 31
0.0
  0
LINE
  5
5E2
  8
250
 10
-23.76169645176465
 20
30.48810889752489
 30
0.0
 11
-26.02349369429302
 21
35.33854873691563
 31
0.0
  0
LINE
  5
5E3
  8
250
 10
-25.08543464079443
 20
30.24837014946866
 30
0.0
 11
-27.34723188332189
 21
35.09880998885956
 31
0.0
  0
LINE
  5
5E4
  8
250
 10
-18.70053263512591
 20
28.42570848037465
 30
0.0
 11
-18.70053263512591
 21
37.16121040600984
 31
0.0
  0
LINE
  5
5E5
  8
250
 10
-22.88242185484467
 20
28.42570848037465
 30
0.0
 11
-22.88242185484467
 21
37.16121040600984
 31
0.0
  0
LINE
  5
5E6
  8
250
 10
-29.75930634949338
 20
28.42570848037465
 30
0.0
 11
-29.75930634949338
 21
37.16121040600984
 31
0.0
  0
LINE
  5
5E7
  8
250
 10
-28.45827414780302
 20
37.16121040600984
 30
0.0
 11
-28.45827414780302
 21
28.42570848037465
 31
0.0
  0
ARC
  5
5E8
  8
250
 10
-15.5873484382235
 20
31.63182354882591
 30
0.0
 40
1.161635894366379
 50
0.0
 51
90.0
  0
LINE
  5
5E9
  8
250
 10
-47.24049296581327
 20
32.21264149600906
 30
0.0
 11
-47.24049296581327
 21
33.3742773903754
 31
0.0
  0
LINE
  5
5EA
  8
250
 10
-48.43176293843259
 20
32.21264149600906
 30
0.0
 11
-48.43176293843259
 21
34.68692595100953
 31
0.0
  0
LINE
  5
5EB
  8
250
 10
-36.54280474689409
 20
28.42570848037444
 30
0.0
 11
-38.42140654925635
 21
33.13253583996134
 31
0.0
  0
LINE
  5
5EC
  8
250
 10
-44.72432655617541
 20
30.89999293537511
 30
0.0
 11
-44.72432655617541
 21
33.3742773903754
 31
0.0
  0
LINE
  5
5ED
  8
250
 10
-49.82572601167217
 20
30.89999293537511
 30
0.0
 11
-49.82572601167217
 21
34.68692595100953
 31
0.0
  0
LINE
  5
5EE
  8
250
 10
-41.6091669711989
 20
37.16121040600984
 30
0.0
 11
-41.6091669711989
 21
28.42570848037465
 31
0.0
  0
LINE
  5
5EF
  8
250
 10
-52.10175041338573
 20
28.42570848037465
 30
0.0
 11
-52.10175041338573
 21
37.16121040600984
 31
0.0
  0
LINE
  5
5F0
  8
250
 10
-50.8007182116954
 20
37.16121040600984
 30
0.0
 11
-50.8007182116954
 21
28.42570848037465
 31
0.0
  0
LINE
  5
5F1
  8
250
 10
-58.17814206890611
 20
28.42570848037465
 30
0.0
 11
-58.17814206890611
 21
37.16121040600984
 31
0.0
  0
ARC
  5
5F2
  8
250
 10
-55.6979878451165
 20
30.89999293537511
 30
0.0
 40
2.621245231707499
 50
289.2767926682573
 51
46.24915972781794
  0
LINE
  5
5F3
  8
250
 10
-34.71747541042303
 20
29.58734437474096
 30
0.0
 11
-33.69589111576523
 21
34.84293996047573
 31
0.0
  0
LINE
  5
5F4
  8
250
 10
-36.1266524337255
 20
28.42570848037444
 30
0.0
 11
-34.42864286894754
 21
37.16121040600984
 31
0.0
  0
LINE
  5
5F5
  8
250
 10
-31.66755243479739
 20
28.42570848037444
 30
0.0
 11
-33.69589111576523
 21
34.84293996047573
 31
0.0
  0
LINE
  5
5F6
  8
250
 10
-32.61426004801204
 20
37.16121040600984
 30
0.0
 11
-30.27358936155746
 21
28.42570848037444
 31
0.0
  0
LINE
  5
5F7
  8
250
 10
-38.12262956323215
 20
28.42570848037465
 30
0.0
 11
-36.54280474689409
 21
28.42570848037465
 31
0.0
  0
ARC
  5
5F8
  8
250
 10
-47.20448077996465
 20
30.89999293537511
 30
0.0
 40
2.621245231707555
 50
180.0
 51
250.723207331739
  0
LINE
  5
5F9
  8
250
 10
-55.19127638760774
 20
32.21264149600906
 30
0.0
 11
-56.78417899566653
 21
32.21264149600906
 31
0.0
  0
LINE
  5
5FA
  8
250
 10
-52.10175041338573
 20
28.42570848037465
 30
0.0
 11
-50.8007182116954
 21
28.42570848037465
 31
0.0
  0
LINE
  5
5FB
  8
250
 10
-56.41245550946923
 20
28.42570848037465
 30
0.0
 11
-54.83263069313117
 21
28.42570848037465
 31
0.0
  0
LINE
  5
5FC
  8
250
 10
-58.17814206890611
 20
28.42570848037465
 30
0.0
 11
-54.83263069313117
 21
28.42570848037465
 31
0.0
  0
LINE
  5
5FD
  8
250
 10
-56.78417899566653
 20
29.58734437474096
 30
0.0
 11
-55.19127638760774
 21
29.58734437474096
 31
0.0
  0
LINE
  5
5FE
  8
250
 10
-56.78417899566653
 20
29.58734437474096
 30
0.0
 11
-56.78417899566653
 21
32.21264149600906
 31
0.0
  0
ARC
  5
5FF
  8
250
 10
-55.88749417499866
 20
30.89999293537511
 30
0.0
 40
1.485855124571082
 50
297.9411040697629
 51
62.0588959302371
  0
LINE
  5
600
  8
250
 10
-46.04922299319396
 20
32.21264149600906
 30
0.0
 11
-47.24049296581327
 21
32.21264149600906
 31
0.0
  0
LINE
  5
601
  8
250
 10
-38.12262956323215
 20
28.42570848037465
 30
0.0
 11
-39.27264128450095
 21
31.30705705925161
 31
0.0
  0
LINE
  5
602
  8
250
 10
-40.02934215486085
 20
29.68430680601004
 30
0.0
 11
-39.27264128450095
 21
31.30705705925161
 31
0.0
  0
LINE
  5
603
  8
250
 10
-40.02934215486085
 20
28.42570848037465
 30
0.0
 11
-40.02934215486085
 21
29.68430680601004
 31
0.0
  0
LINE
  5
604
  8
250
 10
-41.6091669711989
 20
28.42570848037465
 30
0.0
 11
-40.02934215486085
 21
28.42570848037465
 31
0.0
  0
ARC
  5
605
  8
250
 10
-47.34557178788256
 20
30.89999293537511
 30
0.0
 40
2.621245231707499
 50
289.2767926682573
 51
0.0
  0
LINE
  5
606
  8
250
 10
-48.06003945223528
 20
28.42570848037465
 30
0.0
 11
-46.48021463589687
 21
28.42570848037465
 31
0.0
  0
LINE
  5
607
  8
250
 10
-48.0698379319507
 20
28.42570848037465
 30
0.0
 11
-46.48021463589687
 21
28.42570848037465
 31
0.0
  0
ARC
  5
608
  8
250
 10
-46.94590781386182
 20
30.89999293537511
 30
0.0
 40
1.485855124571082
 50
180.0
 51
242.0588959302371
  0
ARC
  5
609
  8
250
 10
-47.5350781177651
 20
30.89999293537511
 30
0.0
 40
1.485855124571082
 50
297.9411040697627
 51
0.0
  0
LINE
  5
60A
  8
250
 10
-47.64212560125276
 20
29.58734437474096
 30
0.0
 11
-46.83886033037415
 21
29.58734437474096
 31
0.0
  0
LINE
  5
60B
  8
250
 10
-46.04922299319396
 20
30.89999293537511
 30
0.0
 11
-46.04922299319396
 21
32.21264149600906
 31
0.0
  0
LINE
  5
60C
  8
250
 10
-48.43176293843259
 20
30.89999293537511
 30
0.0
 11
-48.43176293843259
 21
32.21264149600906
 31
0.0
  0
LINE
  5
60D
  8
250
 10
-15.76155580806488
 20
28.42570848037465
 30
0.0
 11
-14.28115124850078
 21
28.42570848037465
 31
0.0
  0
LINE
  5
60E
  8
250
 10
-27.52896543231033
 20
28.42570848037465
 30
0.0
 11
-25.07559042340803
 21
28.42570848037465
 31
0.0
  0
LINE
  5
60F
  8
250
 10
-27.52896543231033
 20
29.58734437474096
 30
0.0
 11
-25.50655450349999
 21
29.58734437474096
 31
0.0
  0
LINE
  5
610
  8
250
 10
-27.52896543231033
 20
29.58734437474096
 30
0.0
 11
-27.52896543231033
 21
28.42570848037465
 31
0.0
  0
LINE
  5
611
  8
250
 10
-29.75930634949374
 20
28.42570848037465
 30
0.0
 11
-28.45827414780302
 21
28.42570848037465
 31
0.0
  0
LINE
  5
612
  8
250
 10
-32.78114105795092
 20
28.42570848037444
 30
0.0
 11
-33.09240045774543
 21
29.58734437474096
 31
0.0
  0
LINE
  5
613
  8
250
 10
-36.1266524337255
 20
28.42570848037444
 30
0.0
 11
-32.78114105795092
 21
28.42570848037444
 31
0.0
  0
LINE
  5
614
  8
250
 10
-34.71747541042303
 20
29.58734437474096
 30
0.0
 11
-33.09240045774543
 21
29.58734437474096
 31
0.0
  0
LINE
  5
615
  8
250
 10
-30.27358936155746
 20
28.42570848037444
 30
0.0
 11
-31.66755243479739
 21
28.42570848037444
 31
0.0
  0
LINE
  5
616
  8
250
 10
-16.65605346104077
 20
32.21264149600906
 30
0.0
 11
-17.30656956188613
 21
32.21264149600906
 31
0.0
  0
LINE
  5
617
  8
250
 10
-19.53691047906955
 20
32.21264149600906
 30
0.0
 11
-21.48845878160526
 21
32.21264149600906
 31
0.0
  0
LINE
  5
618
  8
250
 10
-15.81967561709694
 20
31.37626365206543
 30
0.0
 11
-15.81967561709694
 21
28.88686687842981
 31
0.0
  0
LINE
  5
619
  8
250
 10
-19.53691047906955
 20
28.42570848037465
 30
0.0
 11
-19.53691047906955
 21
29.58734437474096
 31
0.0
  0
LINE
  5
61A
  8
250
 10
-18.70053263512591
 20
28.42570848037465
 30
0.0
 11
-17.30656956188613
 21
28.42570848037465
 31
0.0
  0
ARC
  5
61B
  8
250
 10
-13.96105818611065
 20
28.88686687842981
 30
0.0
 40
1.858617430986207
 50
180.0
 51
194.3662353416886
  0
ARC
  5
61C
  8
250
 10
-25.07559042340803
 20
29.87543007654412
 30
0.0
 40
1.449721596169241
 50
270.0
 51
24.99999999999859
  0
ARC
  5
61D
  8
250
 10
-25.50655450349999
 20
30.05199873248766
 30
0.0
 40
0.4646543577465531
 50
270.0
 51
24.99999999999883
  0
LINE
  5
61E
  8
250
 10
-22.88242185484467
 20
28.42570848037465
 30
0.0
 11
-19.53691047906955
 21
28.42570848037465
 31
0.0
  0
LINE
  5
61F
  8
250
 10
-21.48845878160526
 20
29.58734437474096
 30
0.0
 11
-19.53691047906955
 21
29.58734437474096
 31
0.0
  0
LINE
  5
620
  8
250
 10
-21.48845878160526
 20
29.58734437474096
 30
0.0
 11
-21.48845878160526
 21
32.21264149600906
 31
0.0
  0
LINE
  5
621
  8
250
 10
-17.30656956188613
 20
28.42570848037465
 30
0.0
 11
-17.30656956188613
 21
32.21264149600906
 31
0.0
  0
ARC
  5
622
  8
250
 10
-16.65605346104077
 20
31.37626365206543
 30
0.0
 40
0.8363778439437937
 50
0.0
 51
90.0
  0
LINE
  5
623
  8
250
 10
-14.42571254385772
 20
28.97481958385512
 30
0.0
 11
-14.42571254385772
 21
31.63182354882591
 31
0.0
  0
ARC
  5
624
  8
250
 10
-13.31054208526601
 20
28.97481958385512
 30
0.0
 40
1.115170458591724
 50
180.0
 51
209.4985180895031
  0
LINE
  5
625
  8
250
 10
-38.12262956323215
 20
37.16121040600984
 30
0.0
 11
-36.54280474689409
 21
37.16121040600984
 31
0.0
  0
LINE
  5
626
  8
250
 10
-38.42140654925635
 20
33.13253583996134
 30
0.0
 11
-36.54280474689409
 21
37.16121040600984
 31
0.0
  0
ARC
  5
627
  8
250
 10
-47.20448077996465
 20
34.68692595100953
 30
0.0
 40
2.621245231707555
 50
109.2767926682609
 51
180.0
  0
LINE
  5
628
  8
250
 10
-52.10175041338573
 20
37.16121040600984
 30
0.0
 11
-50.8007182116954
 21
37.16121040600984
 31
0.0
  0
ARC
  5
629
  8
250
 10
-55.88749417499866
 20
34.68692595100953
 30
0.0
 40
1.485855124571082
 50
297.9411040697628
 51
62.05889593023716
  0
LINE
  5
62A
  8
250
 10
-56.78417899566653
 20
33.3742773903754
 30
0.0
 11
-56.78417899566653
 21
35.9995745116435
 31
0.0
  0
LINE
  5
62B
  8
250
 10
-55.19127638760774
 20
33.3742773903754
 30
0.0
 11
-56.78417899566653
 21
33.3742773903754
 31
0.0
  0
LINE
  5
62C
  8
250
 10
-56.78417899566653
 20
35.9995745116435
 30
0.0
 11
-55.19127638760774
 21
35.9995745116435
 31
0.0
  0
LINE
  5
62D
  8
250
 10
-56.41245550946923
 20
37.16121040600984
 30
0.0
 11
-54.83263069313117
 21
37.16121040600984
 31
0.0
  0
LINE
  5
62E
  8
250
 10
-58.17814206890611
 20
37.16121040600984
 30
0.0
 11
-54.83263069313117
 21
37.16121040600984
 31
0.0
  0
ARC
  5
62F
  8
250
 10
-55.6979878451165
 20
34.68692595100953
 30
0.0
 40
2.621245231707555
 50
313.750840272182
 51
70.72320733173922
  0
LINE
  5
630
  8
250
 10
-40.02934215486085
 20
33.07225205784012
 30
0.0
 11
-38.12262956323215
 21
37.16121040600984
 31
0.0
  0
LINE
  5
631
  8
250
 10
-40.02934215486085
 20
37.16121040600984
 30
0.0
 11
-40.02934215486085
 21
33.07225205784012
 31
0.0
  0
LINE
  5
632
  8
250
 10
-41.6091669711989
 20
37.16121040600984
 30
0.0
 11
-40.02934215486085
 21
37.16121040600984
 31
0.0
  0
ARC
  5
633
  8
250
 10
-47.5350781177651
 20
34.68692595100953
 30
0.0
 40
1.485855124571082
 50
0.0
 51
62.05889593023716
  0
ARC
  5
634
  8
250
 10
-46.94590781386182
 20
34.68692595100953
 30
0.0
 40
1.485855124571082
 50
117.9411040697626
 51
180.0
  0
ARC
  5
635
  8
250
 10
-47.34557178788291
 20
34.68692595100953
 30
0.0
 40
2.621245231707555
 50
0.0
 51
70.72320733173922
  0
LINE
  5
636
  8
250
 10
-44.72432655617541
 20
33.3742773903754
 30
0.0
 11
-47.24049296581327
 21
33.3742773903754
 31
0.0
  0
LINE
  5
637
  8
250
 10
-46.04922299319396
 20
34.68692595100953
 30
0.0
 11
-44.72432655617541
 21
34.68692595100953
 31
0.0
  0
LINE
  5
638
  8
250
 10
-47.64212560125276
 20
35.9995745116435
 30
0.0
 11
-46.83886033037415
 21
35.9995745116435
 31
0.0
  0
LINE
  5
639
  8
250
 10
-48.06003945223528
 20
37.16121040600984
 30
0.0
 11
-46.48021463589687
 21
37.16121040600984
 31
0.0
  0
LINE
  5
63A
  8
250
 10
-48.0698379319507
 20
37.16121040600984
 30
0.0
 11
-46.48021463589687
 21
37.16121040600984
 31
0.0
  0
ARC
  5
63B
  8
250
 10
-15.5873484382235
 20
33.95509533755875
 30
0.0
 40
1.161635894366379
 50
270.0
 51
0.0
  0
ARC
  5
63C
  8
250
 10
-15.87543414002631
 20
35.7114888098407
 30
0.0
 40
1.449721596169241
 50
0.0
 51
90.0
  0
ARC
  5
63D
  8
250
 10
-25.60237383158673
 20
35.53492015389698
 30
0.0
 40
0.4646543577465531
 50
90.0
 51
204.9999999999996
  0
LINE
  5
63E
  8
250
 10
-23.99759231343639
 20
37.16121040600984
 30
0.0
 11
-26.03333791167833
 21
37.16121040600984
 31
0.0
  0
ARC
  5
63F
  8
250
 10
-26.03333791167833
 20
35.7114888098407
 30
0.0
 40
1.449721596169241
 50
90.0
 51
204.9999999999987
  0
LINE
  5
640
  8
250
 10
-29.75930634949338
 20
37.16121040600984
 30
0.0
 11
-28.45827414780302
 21
37.16121040600984
 31
0.0
  0
LINE
  5
641
  8
250
 10
-34.42864286894754
 20
37.16121040600984
 30
0.0
 11
-32.61426004801204
 21
37.16121040600984
 31
0.0
  0
LINE
  5
642
  8
250
 10
-17.30656956188613
 20
33.3742773903754
 30
0.0
 11
-17.30656956188613
 21
35.9995745116435
 31
0.0
  0
LINE
  5
643
  8
250
 10
-15.81967561709694
 20
33.93186261967134
 30
0.0
 11
-15.81967561709694
 21
35.44198928234738
 31
0.0
  0
ARC
  5
644
  8
250
 10
-16.37726084639271
 20
33.93186261967134
 30
0.0
 40
0.5575852292958633
 50
270.0
 51
0.0
  0
LINE
  5
645
  8
250
 10
-16.37726084639271
 20
33.3742773903754
 30
0.0
 11
-17.30656956188613
 21
33.3742773903754
 31
0.0
  0
LINE
  5
646
  8
250
 10
-19.53691047906955
 20
35.9995745116435
 30
0.0
 11
-19.53691047906955
 21
37.16121040600984
 31
0.0
  0
ARC
  5
647
  8
250
 10
-16.37726084639271
 20
35.44198928234738
 30
0.0
 40
0.5575852292958633
 50
0.0
 51
90.0
  0
LINE
  5
648
  8
250
 10
-17.30656956188613
 20
35.9995745116435
 30
0.0
 11
-16.37726084639271
 21
35.9995745116435
 31
0.0
  0
LINE
  5
649
  8
250
 10
-18.70053263512591
 20
37.16121040600984
 30
0.0
 11
-15.87543414002631
 21
37.16121040600984
 31
0.0
  0
LINE
  5
64A
  8
250
 10
-23.99759231343639
 20
37.16121040600984
 30
0.0
 11
-23.99759231343639
 21
35.9995745116435
 31
0.0
  0
LINE
  5
64B
  8
250
 10
-23.99759231343639
 20
35.9995745116435
 30
0.0
 11
-25.60237383158673
 21
35.99957451164332
 31
0.0
  0
LINE
  5
64C
  8
250
 10
-21.48845878160526
 20
33.3742773903754
 30
0.0
 11
-21.48845878160526
 21
35.9995745116435
 31
0.0
  0
LINE
  5
64D
  8
250
 10
-22.88242185484467
 20
37.16121040600984
 30
0.0
 11
-19.53691047906955
 21
37.16121040600984
 31
0.0
  0
LINE
  5
64E
  8
250
 10
-19.53691047906955
 20
33.3742773903754
 30
0.0
 11
-21.48845878160526
 21
33.3742773903754
 31
0.0
  0
LINE
  5
64F
  8
250
 10
-21.48845878160526
 20
35.9995745116435
 30
0.0
 11
-19.53691047906955
 21
35.9995745116435
 31
0.0
  0
LINE
  5
650
  8
250
 10
-14.42571254385772
 20
35.7114888098407
 30
0.0
 11
-14.42571254385772
 21
33.95509533755875
 31
0.0
  0
ENDSEC
  0
EOF
