  0
SECTION
  2
HEADER
  9
$ACADVER
  1
AC1009
  9
$DWGCODEPAGE
  3
ansi_1252
  9
$INSBASE
 10
0.0
 20
0.0
 30
0.0
  9
$EXTMIN
 10
-2.846827171807717
 20
-1.249997499999998
 30
0.0
  9
$EXTMAX
 10
4.117751417884571
 20
2.848444295276465
 30
0.0
  9
$LIMMIN
 10
0.0
 20
0.0
  9
$LIMMAX
 10
12.0
 20
9.0
  9
$ORTHOMODE
 70
     1
  9
$REGENMODE
 70
     1
  9
$FILLMODE
 70
     1
  9
$QTEXTMODE
 70
     0
  9
$MIRRTEXT
 70
     1
  9
$DRAGMODE
 70
     2
  9
$LTSCALE
 40
10.0
  9
$OSMODE
 70
   511
  9
$ATTMODE
 70
     1
  9
$TEXTSIZE
 40
0.2
  9
$TRACEWID
 40
0.05
  9
$TEXTSTYLE
  7
STANDARD
  9
$CLAYER
  8
250
  9
$CELTYPE
  6
BYLAYER
  9
$CECOLOR
 62
   256
  9
$DIMSCALE
 40
1.0
  9
$DIMASZ
 40
0.18
  9
$DIMEXO
 40
0.0625
  9
$DIMDLI
 40
0.38
  9
$DIMRND
 40
0.0
  9
$DIMDLE
 40
0.0
  9
$DIMEXE
 40
0.18
  9
$DIMTP
 40
0.0
  9
$DIMTM
 40
0.0
  9
$DIMTXT
 40
0.18
  9
$DIMCEN
 40
0.09
  9
$DIMTSZ
 40
0.0
  9
$DIMTOL
 70
     0
  9
$DIMLIM
 70
     0
  9
$DIMTIH
 70
     0
  9
$DIMTOH
 70
     0
  9
$DIMSE1
 70
     0
  9
$DIMSE2
 70
     0
  9
$DIMTAD
 70
     1
  9
$DIMZIN
 70
     0
  9
$DIMBLK
  1

  9
$DIMASO
 70
     1
  9
$DIMSHO
 70
     0
  9
$DIMPOST
  1

  9
$DIMAPOST
  1

  9
$DIMALT
 70
     0
  9
$DIMALTD
 70
     2
  9
$DIMALTF
 40
25.4
  9
$DIMLFAC
 40
1.0
  9
$DIMTOFL
 70
     0
  9
$DIMTVP
 40
0.0
  9
$DIMTIX
 70
     0
  9
$DIMSOXD
 70
     0
  9
$DIMSAH
 70
     0
  9
$DIMBLK1
  1

  9
$DIMBLK2
  1

  9
$DIMSTYLE
  2
STANDARD
  9
$DIMCLRD
 70
     0
  9
$DIMCLRE
 70
     0
  9
$DIMCLRT
 70
     0
  9
$DIMTFAC
 40
1.0
  9
$DIMGAP
 40
0.09
  9
$LUNITS
 70
     2
  9
$LUPREC
 70
     4
  9
$SKETCHINC
 40
0.1
  9
$FILLETRAD
 40
0.0
  9
$AUNITS
 70
     0
  9
$AUPREC
 70
     0
  9
$MENU
  1
acad
  9
$ELEVATION
 40
0.0
  9
$PELEVATION
 40
0.0
  9
$THICKNESS
 40
0.0
  9
$LIMCHECK
 70
     0
  9
$CHAMFERA
 40
0.0
  9
$CHAMFERB
 40
0.0
  9
$SKPOLY
 70
     0
  9
$TDCREATE
 40
2449906.383713171
  9
$TDUPDATE
 40
2452852.58826787
  9
$TDINDWG
 40
0.0132539931
  9
$TDUSRTIMER
 40
2458339.608771169
  9
$USRTIMER
 70
     1
  9
$ANGBASE
 50
0.0
  9
$ANGDIR
 70
     0
  9
$PDMODE
 70
     0
  9
$PDSIZE
 40
0.0
  9
$PLINEWID
 40
0.0
  9
$COORDS
 70
     1
  9
$SPLFRAME
 70
     0
  9
$SPLINETYPE
 70
     6
  9
$SPLINESEGS
 70
     8
  9
$ATTDIA
 70
     0
  9
$ATTREQ
 70
     1
  9
$HANDLING
 70
     1
  9
$HANDSEED
  5
415
  9
$SURFTAB1
 70
     6
  9
$SURFTAB2
 70
     6
  9
$SURFTYPE
 70
     6
  9
$SURFU
 70
     6
  9
$SURFV
 70
     6
  9
$UCSNAME
  2

  9
$UCSORG
 10
0.0
 20
0.0
 30
0.0
  9
$UCSXDIR
 10
1.0
 20
0.0
 30
0.0
  9
$UCSYDIR
 10
0.0
 20
1.0
 30
0.0
  9
$PUCSNAME
  2

  9
$PUCSORG
 10
0.0
 20
0.0
 30
0.0
  9
$PUCSXDIR
 10
1.0
 20
0.0
 30
0.0
  9
$PUCSYDIR
 10
0.0
 20
1.0
 30
0.0
  9
$USERI1
 70
     0
  9
$USERI2
 70
     0
  9
$USERI3
 70
     0
  9
$USERI4
 70
     0
  9
$USERI5
 70
     0
  9
$USERR1
 40
0.0
  9
$USERR2
 40
0.0
  9
$USERR3
 40
0.0
  9
$USERR4
 40
0.0
  9
$USERR5
 40
0.0
  9
$WORLDVIEW
 70
     1
  9
$SHADEDGE
 70
     3
  9
$SHADEDIF
 70
    70
  9
$TILEMODE
 70
     1
  9
$MAXACTVP
 70
    16
  9
$PLIMCHECK
 70
     0
  9
$PEXTMIN
 10
1.000000000000000E+20
 20
1.000000000000000E+20
 30
1.000000000000000E+20
  9
$PEXTMAX
 10
-1.000000000000000E+20
 20
-1.000000000000000E+20
 30
-1.000000000000000E+20
  9
$PLIMMIN
 10
0.0
 20
0.0
  9
$PLIMMAX
 10
12.0
 20
9.0
  9
$UNITMODE
 70
     0
  9
$VISRETAIN
 70
     0
  9
$PLINEGEN
 70
     0
  9
$PSLTSCALE
 70
     1
  0
ENDSEC
  0
SECTION
  2
TABLES
  0
TABLE
  2
VPORT
 70
     1
  0
VPORT
  2
*ACTIVE
 70
     0
 10
0.0
 20
0.0
 11
1.0
 21
1.0
 12
14.10473792517605
 22
12.07013195250178
 13
0.0
 23
0.0
 14
1.0
 24
1.0
 15
0.0
 25
0.0
 16
0.0
 26
0.0
 36
1.0
 17
0.0
 27
0.0
 37
0.0
 40
132.6624369584436
 41
1.328822733423545
 42
50.0
 43
0.0
 44
0.0
 50
0.0
 51
0.0
 71
    16
 72
  1000
 73
     1
 74
     0
 75
     0
 76
     0
 77
     0
 78
     0
  0
ENDTAB
  0
TABLE
  2
LTYPE
 70
     3
  0
LTYPE
  2
CONTINUOUS
 70
     0
  3
Solid line
 72
    65
 73
     0
 40
0.0
  0
LTYPE
  2
HIDDEN
 70
     0
  3
_ _ _ _ _ _ _ _ _ _ _ _ _ _ _ _ _ _ _ _ _ _ _
 72
    65
 73
     2
 40
0.375
 49
0.25
 49
-0.125
  0
LTYPE
  2
CENTER
 70
     0
  3
____ _ ____ _ ____ _ ____ _ ____ _ ____ _ ____
 72
    65
 73
     4
 40
2.0
 49
1.25
 49
-0.25
 49
0.25
 49
-0.25
  0
ENDTAB
  0
TABLE
  2
LAYER
 70
     6
  0
LAYER
  2
0
 70
     0
 62
     7
  6
CONTINUOUS
  0
LAYER
  2
240
 70
     0
 62
     4
  6
CONTINUOUS
  0
LAYER
  2
245
 70
     0
 62
     2
  6
CENTER
  0
LAYER
  2
243
 70
     0
 62
     6
  6
HIDDEN
  0
LAYER
  2
250
 70
     0
 62
     3
  6
CONTINUOUS
  0
LAYER
  2
DEFPOINTS
 70
     0
 62
     7
  6
CONTINUOUS
  0
ENDTAB
  0
TABLE
  2
STYLE
 70
     2
  0
STYLE
  2
STANDARD
 70
     0
 40
0.0
 41
1.0
 50
0.0
 71
     0
 42
0.2
  3
txt
  4

  0
STYLE
  2
ROMANS
 70
     0
 40
0.0
 41
1.0
 50
0.0
 71
     0
 42
0.24
  3
romans
  4

  0
ENDTAB
  0
TABLE
  2
VIEW
 70
     0
  0
ENDTAB
  0
TABLE
  2
UCS
 70
     0
  0
ENDTAB
  0
TABLE
  2
APPID
 70
     1
  0
APPID
  2
ACAD
 70
     0
  0
ENDTAB
  0
TABLE
  2
DIMSTYLE
 70
     1
  0
DIMSTYLE
  2
STANDARD
 70
     0
  3

  4

  5

  6

  7

 40
1.0
 41
0.18
 42
0.0625
 43
0.38
 44
0.18
 45
0.0
 46
0.0
 47
0.0
 48
0.0
140
0.18
141
0.09
142
0.0
143
25.4
144
1.0
145
0.0
146
1.0
147
0.09
 71
     0
 72
     0
 73
     0
 74
     0
 75
     0
 76
     0
 77
     1
 78
     0
170
     0
171
     2
172
     0
173
     0
174
     0
175
     0
176
     0
177
     0
178
     0
  0
ENDTAB
  0
ENDSEC
  0
SECTION
  2
BLOCKS
  0
BLOCK
  8
0
  2
$MODEL_SPACE
 70
     0
 10
0.0
 20
0.0
 30
0.0
  3
$MODEL_SPACE
  1

  0
ENDBLK
  5
26
  8
0
  0
BLOCK
 67
     1
  8
0
  2
$PAPER_SPACE
 70
     0
 10
0.0
 20
0.0
 30
0.0
  3
$PAPER_SPACE
  1

  0
ENDBLK
  5
24
 67
     1
  8
0
  0
BLOCK
  8
0
  2
*D1
 70
     1
 10
0.0
 20
0.0
 30
0.0
  3
*D1
  1

  0
LINE
  5
164
  8
250
 62
     0
 10
0.0
 20
22.28745555000001
 30
0.0
 11
0.0
 21
52.07020040500352
 31
0.0
  0
LINE
  5
165
  8
250
 62
     0
 10
72.99985400000003
 20
18.80766250960004
 30
0.0
 11
72.99985400000003
 21
52.07020040500352
 31
0.0
  0
LINE
  5
166
  8
250
 62
     0
 10
3.0
 20
51.89020040500352
 30
0.0
 11
69.99985400000003
 21
51.89020040500352
 31
0.0
  0
SOLID
  5
167
  8
250
 62
     0
 10
3.0
 20
52.39020040500352
 30
0.0
 11
3.0
 21
51.39020040500352
 31
0.0
 12
0.0
 22
51.89020040500352
 32
0.0
 13
0.0
 23
51.89020040500352
 33
0.0
  0
SOLID
  5
168
  8
250
 62
     0
 10
69.99985400000003
 20
51.39020040500352
 30
0.0
 11
69.99985400000003
 21
52.39020040500352
 31
0.0
 12
72.99985400000003
 22
51.89020040500352
 32
0.0
 13
72.99985400000003
 23
51.89020040500352
 33
0.0
  0
TEXT
  5
169
  8
250
  6
CONTINUOUS
 62
     0
 10
31.49099842857144
 20
52.89020040500352
 30
0.0
 40
3.0
  1
73.0
  7
ROMANS
  0
POINT
  5
16A
  8
DEFPOINTS
 62
     0
 10
0.0
 20
22.22495555000001
 30
0.0
  0
POINT
  5
16B
  8
DEFPOINTS
 62
     0
 10
72.99985400000003
 20
18.74516250960004
 30
0.0
  0
POINT
  5
16C
  8
DEFPOINTS
 62
     0
 10
72.99985400000003
 20
51.89020040500352
 30
0.0
  0
ENDBLK
  5
16E
  8
0
  0
BLOCK
  8
0
  2
*D2
 70
     1
 10
0.0
 20
0.0
 30
0.0
  3
*D2
  1

  0
LINE
  5
171
  8
250
 62
     0
 10
36.92492614999997
 20
19.54426103640001
 30
0.0
 11
36.92492614999997
 21
35.69708015735215
 31
0.0
  0
LINE
  5
172
  8
250
 62
     0
 10
72.99985400000003
 20
18.80766250960004
 30
0.0
 11
72.99985400000003
 21
35.69708015735215
 31
0.0
  0
LINE
  5
173
  8
250
 62
     0
 10
39.92492614999997
 20
35.51708015735215
 30
0.0
 11
69.99985400000003
 21
35.51708015735215
 31
0.0
  0
SOLID
  5
174
  8
250
 62
     0
 10
39.92492614999997
 20
36.01708015735215
 30
0.0
 11
39.92492614999997
 21
35.01708015735215
 31
0.0
 12
36.92492614999997
 22
35.51708015735215
 32
0.0
 13
36.92492614999997
 23
35.51708015735215
 33
0.0
  0
SOLID
  5
175
  8
250
 62
     0
 10
69.99985400000003
 20
35.01708015735215
 30
0.0
 11
69.99985400000003
 21
36.01708015735215
 31
0.0
 12
72.99985400000003
 22
35.51708015735215
 32
0.0
 13
72.99985400000003
 23
35.51708015735215
 33
0.0
  0
TEXT
  5
176
  8
250
  6
CONTINUOUS
 62
     0
 10
50.39096150357143
 20
36.51708015735215
 30
0.0
 40
3.0
  1
36.1
  7
ROMANS
  0
POINT
  5
177
  8
DEFPOINTS
 62
     0
 10
36.92492614999997
 20
19.48176103640001
 30
0.0
  0
POINT
  5
178
  8
DEFPOINTS
 62
     0
 10
72.99985400000003
 20
18.74516250960004
 30
0.0
  0
POINT
  5
179
  8
DEFPOINTS
 62
     0
 10
72.99985400000003
 20
35.51708015735215
 30
0.0
  0
ENDBLK
  5
17B
  8
0
  0
BLOCK
  8
0
  2
*D3
 70
     1
 10
0.0
 20
0.0
 30
0.0
  3
*D3
  1

  0
LINE
  5
19E
  8
250
 62
     0
 10
72.32575547319995
 20
19.4945
 30
0.0
 11
100.1988860142681
 21
19.4945
 31
0.0
  0
LINE
  5
19F
  8
250
 62
     0
 10
72.32575547319995
 20
-19.4945
 30
0.0
 11
100.1988860142681
 21
-19.4945
 31
0.0
  0
LINE
  5
1A0
  8
250
 62
     0
 10
100.0188860142681
 20
16.4945
 30
0.0
 11
100.0188860142681
 21
-16.4945
 31
0.0
  0
SOLID
  5
1A1
  8
250
 62
     0
 10
100.5188860142681
 20
16.4945
 30
0.0
 11
99.51888601426809
 21
16.4945
 31
0.0
 12
100.0188860142681
 22
19.4945
 32
0.0
 13
100.0188860142681
 23
19.4945
 33
0.0
  0
SOLID
  5
1A2
  8
250
 62
     0
 10
99.51888601426809
 20
-16.4945
 30
0.0
 11
100.5188860142681
 21
-16.4945
 31
0.0
 12
100.0188860142681
 22
-19.4945
 32
0.0
 13
100.0188860142681
 23
-19.4945
 33
0.0
  0
INSERT
  5
1A3
  8
250
 62
     0
  2
*X4
 10
0.0
 20
0.0
 30
0.0
  0
POINT
  5
1A4
  8
DEFPOINTS
 62
     0
 10
72.26325547319995
 20
19.4945
 30
0.0
  0
POINT
  5
1A5
  8
DEFPOINTS
 62
     0
 10
72.26325547319995
 20
-19.4945
 30
0.0
  0
POINT
  5
1A6
  8
DEFPOINTS
 62
     0
 10
100.0188860142681
 20
-19.4945
 30
0.0
  0
ENDBLK
  5
188
  8
0
  0
BLOCK
  8
0
  2
*X4
 70
     1
 10
0.0
 20
0.0
 30
0.0
  3
*X4
  1

  0
TEXT
  5
40E
  8
250
  6
CONTINUOUS
 62
     0
 10
99.01888601426809
 20
-6.4375
 30
0.0
 40
3.0
  1
ø
 50
90.0
  7
ROMANS
  0
TEXT
  5
40F
  8
250
  6
CONTINUOUS
 62
     0
 10
99.01888601426809
 20
-3.580357142857139
 30
0.0
 40
3.0
  1
39.0
 50
90.0
  7
ROMANS
  0
ENDBLK
  5
411
  8
0
  0
ENDSEC
  0
SECTION
  2
ENTITIES
  0
LINE
  5
2A
  8
243
 10
72.99985400000003
 20
15.39236921520003
 30
0.0
 11
62.30647538680002
 21
15.39236921520003
 31
0.0
  0
LINE
  5
2B
  8
243
 10
72.99985400000003
 20
-15.39236921519993
 30
0.0
 11
62.30647538680002
 21
-15.39236921519993
 31
0.0
  0
POLYLINE
  5
2C
  8
240
 66
     1
 10
0.0
 20
0.0
 30
0.0
 70
     1
  0
VERTEX
  5
3F7
  8
240
 10
67.74281007269751
 20
0.0
 30
0.0
 42
0.1158521161125317
  0
VERTEX
  5
3F8
  8
240
 10
67.3922095645007
 20
1.49282922259886
 30
0.0
 42
0.1040689448192695
  0
VERTEX
  5
3F9
  8
240
 10
66.3365313299698
 20
2.828775020574851
 30
0.0
 42
0.0908328837172516
  0
VERTEX
  5
3FA
  8
240
 10
64.81642140913169
 20
3.686047088779457
 30
0.0
 42
0.0832728564105004
  0
VERTEX
  5
3FB
  8
240
 10
62.94147411679999
 20
4.000491998999128
 30
0.0
 42
0.0832728564105033
  0
VERTEX
  5
3FC
  8
240
 10
61.06652682446828
 20
3.686047088779457
 30
0.0
 42
0.0908328837172546
  0
VERTEX
  5
3FD
  8
240
 10
59.54641690363017
 20
2.828775020574851
 30
0.0
 42
0.1040689448192758
  0
VERTEX
  5
3FE
  8
240
 10
58.49073866909927
 20
1.49282922259886
 30
0.0
 42
0.1158521161125445
  0
VERTEX
  5
3FF
  8
240
 10
58.14013816090257
 20
0.0
 30
0.0
 42
0.1158521161125462
  0
VERTEX
  5
400
  8
240
 10
58.49073866909927
 20
-1.49282922259886
 30
0.0
 42
0.1040689448192798
  0
VERTEX
  5
401
  8
240
 10
59.54641690363017
 20
-2.828775020574851
 30
0.0
 42
0.0908328837172484
  0
VERTEX
  5
402
  8
240
 10
61.06652682446828
 20
-3.686047088779457
 30
0.0
 42
0.0832728564105013
  0
VERTEX
  5
403
  8
240
 10
62.94147411679999
 20
-4.000491998999128
 30
0.0
 42
0.0832728564105043
  0
VERTEX
  5
404
  8
240
 10
64.81642140913172
 20
-3.686047088779457
 30
0.0
 42
0.090832883717251
  0
VERTEX
  5
405
  8
240
 10
66.3365313299698
 20
-2.828775020574851
 30
0.0
 42
0.1040689448192674
  0
VERTEX
  5
406
  8
240
 10
67.3922095645007
 20
-1.49282922259886
 30
0.0
 42
0.1158521161125308
  0
SEQEND
  5
414
  8
240
  0
CIRCLE
  5
3E
  8
240
 10
62.94147411679997
 20
0.0
 30
0.0
 40
3.619492761
  0
CIRCLE
  5
3F
  8
243
 10
62.94147411679997
 20
0.0
 30
0.0
 40
4.000491998999999
  0
POLYLINE
  5
40
  8
240
 66
     1
 10
0.0
 20
0.0
 30
0.0
 70
     1
  0
VERTEX
  5
407
  8
240
 10
65.91995769314082
 20
1.719628294577195
 30
0.0
  0
VERTEX
  5
408
  8
240
 10
62.94147411679999
 20
3.439256589154393
 30
0.0
  0
VERTEX
  5
409
  8
240
 10
59.96299054045929
 20
1.719628294577195
 30
0.0
  0
VERTEX
  5
40A
  8
240
 10
59.96299054045929
 20
-1.719628294577195
 30
0.0
  0
VERTEX
  5
40B
  8
240
 10
62.94147411679999
 20
-3.439256589154393
 30
0.0
  0
VERTEX
  5
40C
  8
240
 10
65.91995769314082
 20
-1.719628294577195
 30
0.0
  0
SEQEND
  5
413
  8
240
  0
LINE
  5
48
  8
240
 10
36.92492614999997
 20
-19.4945
 30
0.0
 11
72.26325547319995
 21
-19.4945
 31
0.0
  0
LINE
  5
49
  8
240
 10
36.92492614999997
 20
19.4945
 30
0.0
 11
72.26325547319995
 21
19.4945
 31
0.0
  0
LINE
  5
4A
  8
243
 10
46.30450739079995
 20
-10.99817800359998
 30
0.0
 11
72.99985400000003
 21
-10.99817800359998
 31
0.0
  0
LINE
  5
4B
  8
243
 10
46.30450739079995
 20
10.99817800360007
 30
0.0
 11
72.99985400000003
 21
10.99817800360007
 31
0.0
  0
LINE
  5
4C
  8
245
 10
-72.30941016391601
 20
0.0000000000000914
 30
0.0
 11
78.51282892616099
 21
0.0
 31
0.0
  0
LINE
  5
4D
  8
243
 10
-63.49987299999992
 20
-6.75638648720001
 30
0.0
 11
43.8555079169602
 21
-6.756386487199919
 31
0.0
  0
LINE
  5
4E
  8
243
 10
-63.49987299999992
 20
-7.937484124999949
 30
0.0
 11
-39.68742062499997
 21
-7.937484124999949
 31
0.0
  0
LINE
  5
4F
  8
243
 10
-63.49987299999992
 20
6.75638648720001
 30
0.0
 11
43.8555079169602
 21
6.75638648720001
 31
0.0
  0
LINE
  5
50
  8
243
 10
-63.49987299999992
 20
7.93748412500004
 30
0.0
 11
-39.68742062499997
 21
7.93748412500004
 31
0.0
  0
LINE
  5
51
  8
240
 10
0.0
 20
22.22495555000001
 30
0.0
 11
-66.95828978817191
 21
12.46020495689039
 31
0.0
  0
LINE
  5
52
  8
240
 10
0.0
 20
-22.22495554999993
 30
0.0
 11
-66.95828978817191
 21
-12.4602049568903
 31
0.0
  0
LINE
  5
53
  8
243
 10
-66.52460037529912
 20
8.140683718600075
 30
0.0
 11
-66.52460037529922
 21
-8.140683718599984
 31
0.0
  0
LINE
  5
54
  8
240
 10
-68.26236347499974
 20
-10.95215970984314
 30
0.0
 11
-68.26236347499994
 21
10.95215970984323
 31
0.0
  0
LINE
  5
55
  8
243
 10
-63.49987299999992
 20
-8.140683718599984
 30
0.0
 11
-63.49987299999992
 21
8.140683718600075
 31
0.0
  0
ARC
  5
56
  8
240
 10
-66.73836652299997
 20
-10.95215970984314
 30
0.0
 40
1.523996952
 50
180.0
 51
261.7028550309997
  0
LINE
  5
57
  8
243
 10
-66.52460037529922
 20
-8.140683718599984
 30
0.0
 11
-63.49987299999992
 21
-8.140683718599984
 31
0.0
  0
LINE
  5
58
  8
243
 10
-68.26236347499994
 20
-9.143981712000004
 30
0.0
 11
-66.52460037529922
 21
-8.140683718599984
 31
0.0
  0
LINE
  5
59
  8
243
 10
-66.52460037529912
 20
8.140683718600075
 30
0.0
 11
-63.49987299999992
 21
8.140683718600075
 31
0.0
  0
LINE
  5
5A
  8
243
 10
-68.26236347499994
 20
9.143981712000004
 30
0.0
 11
-66.52460037529912
 21
8.140683718600075
 31
0.0
  0
ARC
  5
5B
  8
240
 10
-66.73836652299997
 20
10.95215970984323
 30
0.0
 40
1.523996952
 50
98.29714496900033
 51
179.9999999999999
  0
ARC
  5
5C
  8
240
 10
1.65099669800003
 20
23.74895250200001
 30
0.0
 40
1.523996952
 50
270.0
 51
0.0
  0
ARC
  5
5D
  8
240
 10
1.65099669800003
 20
-23.74895250199991
 30
0.0
 40
1.523996952
 50
0.0
 51
90.0
  0
LINE
  5
5E
  8
243
 10
-35.27950423203081
 20
6.75638648720001
 30
0.0
 11
-35.27950423203081
 21
-6.75638648720001
 31
0.0
  0
LINE
  5
5F
  8
243
 10
-39.68742062499997
 20
7.93748412500004
 30
0.0
 11
-39.68742062499997
 21
-7.93748412500004
 31
0.0
  0
LINE
  5
60
  8
240
 10
0.0
 20
22.22495555000001
 30
0.0
 11
0.0
 21
-22.22495554999993
 31
0.0
  0
LINE
  5
61
  8
243
 10
-35.27950423203081
 20
-6.75638648720001
 30
0.0
 11
-39.68742062499997
 21
-7.937484124999949
 31
0.0
  0
LINE
  5
62
  8
240
 10
1.65099669800003
 20
-22.22495554999993
 30
0.0
 11
0.0
 21
-22.22495554999993
 31
0.0
  0
LINE
  5
63
  8
243
 10
-39.68742062499997
 20
7.93748412500004
 30
0.0
 11
-35.27950423203081
 21
6.75638648720001
 31
0.0
  0
LINE
  5
64
  8
240
 10
0.0
 20
22.22495555000001
 30
0.0
 11
1.65099669800003
 21
22.22495555000001
 31
0.0
  0
LINE
  5
65
  8
243
 10
46.30450739079995
 20
10.99817800360007
 30
0.0
 11
46.30450739079995
 21
-10.99817800359998
 31
0.0
  0
LINE
  5
66
  8
243
 10
43.8555079169602
 20
6.75638648720001
 30
0.0
 11
43.8555079169602
 21
-6.756386487199919
 31
0.0
  0
LINE
  5
67
  8
240
 10
36.92492614999997
 20
19.4945
 30
0.0
 11
36.92492614999997
 21
-19.4945
 31
0.0
  0
LINE
  5
68
  8
240
 10
3.174993650000015
 20
30.98793802399997
 30
0.0
 11
3.174993650000015
 21
-30.98793802399997
 31
0.0
  0
LINE
  5
69
  8
240
 10
19.04996190000001
 20
30.98793802400008
 30
0.0
 11
19.04996190000001
 21
-30.98793802399997
 31
0.0
  0
LINE
  5
6A
  8
240
 10
13.03017393960005
 20
-28.18124363739992
 30
0.0
 11
13.03017393960005
 21
28.18124363740003
 31
0.0
  0
LINE
  5
6C
  8
240
 10
14.6430707138
 20
31.7499365
 30
0.0
 11
14.6430707138
 21
-31.74993649999995
 31
0.0
  0
LINE
  5
6D
  8
240
 10
9.194781610400062
 20
28.18124363740003
 30
0.0
 11
9.194781610400062
 21
-28.18124363739992
 31
0.0
  0
LINE
  5
6E
  8
240
 10
7.594584810800083
 20
31.7499365
 30
0.0
 11
7.594584810799992
 21
-31.74993649999995
 31
0.0
  0
LINE
  5
70
  8
240
 10
34.92493014999997
 20
21.72495655000004
 30
0.0
 11
34.92493014999997
 21
-21.72495654999996
 31
0.0
  0
LINE
  5
71
  8
240
 10
19.811960376
 20
-22.22495554999993
 30
0.0
 11
34.42493115
 21
-22.22495555000001
 31
0.0
  0
LINE
  5
72
  8
240
 10
14.6430707138
 20
-31.74993649999995
 30
0.0
 11
18.10714247660399
 21
-31.74993649999995
 31
0.0
  0
LINE
  5
73
  8
243
 10
3.174993650000015
 20
-22.60595478800033
 30
0.0
 11
19.04996190000001
 21
-22.60595478800042
 31
0.0
  0
LINE
  5
74
  8
240
 10
14.6430707138
 20
-31.74993649999995
 30
0.0
 11
13.03111549430067
 21
-28.95794816030126
 31
0.0
  0
LINE
  5
75
  8
240
 10
7.594584810799992
 20
-31.74993649999995
 30
0.0
 11
9.194781610400062
 21
-28.97831434098363
 31
0.0
  0
LINE
  5
76
  8
240
 10
3.93699212600001
 20
-31.74993649999995
 30
0.0
 11
7.594584810799992
 21
-31.74993649999995
 31
0.0
  0
LINE
  5
77
  8
240
 10
3.93699212600001
 20
-31.74993649999995
 30
0.0
 11
3.174993650000015
 21
-30.98793802399987
 31
0.0
  0
LINE
  5
78
  8
240
 10
9.194781610400062
 20
-28.18124363739992
 30
0.0
 11
13.03017393960005
 21
-28.18124363739992
 31
0.0
  0
LINE
  5
79
  8
240
 10
9.194781610400062
 20
-28.18124363739992
 30
0.0
 11
9.194781610400062
 21
-28.97831434098363
 31
0.0
  0
LINE
  5
7A
  8
240
 10
13.03017393960005
 20
-28.18124363739992
 30
0.0
 11
13.03017393960005
 21
-28.95849176716123
 31
0.0
  0
LINE
  5
7B
  8
240
 10
18.10714247660399
 20
-31.74993649999995
 30
0.0
 11
18.3318799221174
 21
-31.74993649999995
 31
0.0
  0
LINE
  5
7C
  8
240
 10
18.10714247660399
 20
-31.74993649999995
 30
0.0
 11
18.3318799221174
 21
-31.74993649999995
 31
0.0
  0
LINE
  5
7D
  8
240
 10
18.10714247660399
 20
-31.74993649999995
 30
0.0
 11
18.3318799221174
 21
-31.74993649999995
 31
0.0
  0
LINE
  5
7E
  8
240
 10
18.28796342400001
 20
-31.74993649999995
 30
0.0
 11
19.04996190000001
 21
-30.98793802399997
 31
0.0
  0
ARC
  5
7F
  8
240
 10
19.811960376
 20
-22.98695402599992
 30
0.0
 40
0.7619984759999999
 50
90.0
 51
179.9999999999997
  0
ARC
  5
80
  8
240
 10
36.92492614999997
 20
-21.4944959999999
 30
0.0
 40
1.999996
 50
90.0
 51
180.0
  0
LINE
  5
81
  8
240
 10
34.42493115
 20
-22.22495555000001
 30
0.0
 11
34.92493014999997
 21
-21.72495654999996
 31
0.0
  0
LINE
  5
86
  8
243
 10
46.30450739079995
 20
-10.99817800359998
 30
0.0
 11
43.8555079169602
 21
-6.756386487199919
 31
0.0
  0
LINE
  5
113
  8
243
 10
62.30647538680002
 20
-15.39236921519993
 30
0.0
 11
62.30647538680002
 21
-10.99817800359998
 31
0.0
  0
LINE
  5
114
  8
240
 10
34.42493115
 20
22.22495555000001
 30
0.0
 11
19.811960376
 21
22.22495555000001
 31
0.0
  0
LINE
  5
115
  8
243
 10
33.33743332499992
 20
22.22495555000001
 30
0.0
 11
33.33743332499992
 21
15.62496875000005
 31
0.0
  0
LINE
  5
116
  8
243
 10
20.63745872500001
 20
22.22495554999993
 30
0.0
 11
20.63745872500001
 21
15.62496875000005
 31
0.0
  0
LINE
  5
117
  8
243
 10
20.63745872500001
 20
15.62496875000005
 30
0.0
 11
33.33743332499992
 21
15.62496875000005
 31
0.0
  0
LINE
  5
118
  8
243
 10
20.63745872500001
 20
15.62496875000005
 30
0.0
 11
26.98744602500002
 21
11.95880187299429
 31
0.0
  0
LINE
  5
119
  8
243
 10
33.33743332499992
 20
15.62496875000005
 30
0.0
 11
26.98744602500002
 21
11.95880187299429
 31
0.0
  0
LINE
  5
11A
  8
240
 10
14.6430707138
 20
31.7499365
 30
0.0
 11
18.28796342400001
 21
31.7499365
 31
0.0
  0
LINE
  5
11B
  8
243
 10
3.174993650000015
 20
25.01894996199963
 30
0.0
 11
19.04996190000001
 21
25.01894996199963
 31
0.0
  0
LINE
  5
11C
  8
240
 10
14.6430707138
 20
31.7499365
 30
0.0
 11
13.03111549430067
 21
28.95794816030141
 31
0.0
  0
LINE
  5
11D
  8
240
 10
7.594584810799992
 20
31.7499365
 30
0.0
 11
9.194781610400062
 21
28.97831434098368
 31
0.0
  0
LINE
  5
11E
  8
240
 10
9.194781610400062
 20
28.18124363740003
 30
0.0
 11
13.03017393960005
 21
28.18124363740003
 31
0.0
  0
LINE
  5
11F
  8
243
 10
6.349987300000032
 20
24.63795072400004
 30
0.0
 11
15.87496825000008
 21
24.63795072400004
 31
0.0
  0
LINE
  5
120
  8
243
 10
11.11247777500006
 20
21.88832556624536
 30
0.0
 11
6.349987299999942
 21
24.63795072400004
 31
0.0
  0
LINE
  5
121
  8
240
 10
9.194781610400062
 20
28.18124363740003
 30
0.0
 11
9.194781610400062
 21
28.97831434098368
 31
0.0
  0
LINE
  5
122
  8
243
 10
6.349987299999942
 20
25.01894996199963
 30
0.0
 11
6.349987299999942
 21
24.63795072400004
 31
0.0
  0
LINE
  5
123
  8
243
 10
15.87496825000008
 20
24.63795072400004
 30
0.0
 11
11.11247777500006
 21
21.88832556624536
 31
0.0
  0
LINE
  5
124
  8
240
 10
13.03017393960005
 20
28.18124363740003
 30
0.0
 11
13.03017393960005
 21
28.95849176716134
 31
0.0
  0
LINE
  5
125
  8
243
 10
15.87496825000008
 20
25.01894996199963
 30
0.0
 11
15.87496825000008
 21
24.63795072400004
 31
0.0
  0
LINE
  5
126
  8
240
 10
3.93699212600001
 20
31.7499365
 30
0.0
 11
7.594584810799992
 21
31.7499365
 31
0.0
  0
LINE
  5
127
  8
240
 10
3.93699212600001
 20
31.7499365
 30
0.0
 11
3.174993650000015
 21
30.98793802399997
 31
0.0
  0
ARC
  5
128
  8
240
 10
19.811960376
 20
22.98695402600001
 30
0.0
 40
0.7619984759999999
 50
180.0
 51
269.9999999999998
  0
LINE
  5
129
  8
240
 10
18.28796342400001
 20
31.7499365
 30
0.0
 11
19.04996190000001
 21
30.98793802400008
 31
0.0
  0
ARC
  5
12A
  8
240
 10
36.92492614999997
 20
21.49449599999999
 30
0.0
 40
1.999996
 50
180.0
 51
270.0
  0
LINE
  5
12B
  8
243
 10
46.30450739079995
 20
10.99817800360007
 30
0.0
 11
43.8555079169602
 21
6.75638648720001
 31
0.0
  0
LINE
  5
12C
  8
243
 10
62.30647538680002
 20
15.39236921520003
 30
0.0
 11
62.30647538680002
 21
10.99817800360007
 31
0.0
  0
LINE
  5
12D
  8
240
 10
34.42493115
 20
22.22495555000001
 30
0.0
 11
34.92493014999997
 21
21.72495655000004
 31
0.0
  0
LINE
  5
12F
  8
240
 10
72.99985400000003
 20
18.75790147320004
 30
0.0
 11
72.99985400000003
 21
-18.75790147319994
 31
0.0
  0
LINE
  5
130
  8
240
 10
72.99985400000003
 20
-18.75790147319994
 30
0.0
 11
72.26325547319995
 21
-19.4945
 31
0.0
  0
LINE
  5
131
  8
240
 10
72.99985400000003
 20
18.75790147320004
 30
0.0
 11
72.26325547319995
 21
19.4945
 31
0.0
  0
LINE
  5
14D
  8
243
 10
3.174993650000015
 20
29.44149029442445
 30
0.0
 11
35.57267943502568
 21
6.75638648720001
 31
0.0
  0
LINE
  5
14E
  8
243
 10
3.174993650000015
 20
24.55840170557543
 30
0.0
 11
28.59890620011549
 21
6.75638648720001
 31
0.0
  0
LINE
  5
14F
  8
243
 10
3.174993650000015
 20
-24.55840170557579
 30
0.0
 11
28.59890620011618
 21
-6.756386487199919
 31
0.0
  0
LINE
  5
150
  8
243
 10
3.174993650000015
 20
-29.44149029442494
 30
0.0
 11
35.57267943502629
 21
-6.756386487199919
 31
0.0
  0
DIMENSION
  5
162
  8
250
  2
*D1
 10
72.99985400000003
 20
51.89020040500352
 30
0.0
 11
36.49992700000001
 21
54.39020040500352
 31
0.0
 70
    32
  3
STANDARD
 13
0.0
 23
22.22495555000001
 33
0.0
 14
72.99985400000003
 24
18.74516250960004
 34
0.0
1001
ACAD
1000
DSTYLE
1002
{
1070
   271
1070
     1
1070
   340
1005
1AC
1070
   147
1040
1.0
1070
   140
1040
3.0
1070
    41
1040
3.0
1002
}
  0
DIMENSION
  5
16F
  8
250
  2
*D2
 10
72.99985400000003
 20
35.51708015735215
 30
0.0
 11
54.962390075
 21
38.01708015735215
 31
0.0
 70
    32
  3
STANDARD
 13
36.92492614999997
 23
19.48176103640001
 33
0.0
 14
72.99985400000003
 24
18.74516250960004
 34
0.0
1001
ACAD
1000
DSTYLE
1002
{
1070
   271
1070
     1
1070
   340
1005
1AC
1070
   147
1040
1.0
1070
   140
1040
3.0
1070
    41
1040
3.0
1002
}
  0
DIMENSION
  5
17C
  8
250
  2
*D3
 10
100.0188860142681
 20
-19.4945
 30
0.0
 11
97.51888601426809
 21
0.0
 31
0.0
 70
    32
  1
%%c<>
  3
STANDARD
 13
72.26325547319995
 23
19.4945
 33
0.0
 14
72.26325547319995
 24
-19.4945
 34
0.0
 50
90.0
1001
ACAD
1000
DSTYLE
1002
{
1070
   271
1070
     1
1070
   340
1005
1AC
1070
   147
1040
1.0
1070
   140
1040
3.0
1070
    41
1040
3.0
1002
}
  0
LINE
  5
34F
  8
250
 10
-19.59378668401579
 20
34.24906214571636
 30
0.0
 11
-19.59378668401579
 21
35.41069804008267
 31
0.0
  0
LINE
  5
350
  8
250
 10
-23.81857265671088
 20
32.52452954723219
 30
0.0
 11
-26.08036989923924
 21
37.37496938662293
 31
0.0
  0
LINE
  5
351
  8
250
 10
-25.14231084574066
 20
32.28479079917595
 30
0.0
 11
-27.40410808826811
 21
37.13523063856686
 31
0.0
  0
LINE
  5
352
  8
250
 10
-18.75740884007215
 20
30.46212913008192
 30
0.0
 11
-18.75740884007215
 21
39.19763105571711
 31
0.0
  0
LINE
  5
353
  8
250
 10
-22.9392980597909
 20
30.46212913008192
 30
0.0
 11
-22.9392980597909
 21
39.19763105571711
 31
0.0
  0
LINE
  5
354
  8
250
 10
-29.8161825544396
 20
30.46212913008192
 30
0.0
 11
-29.8161825544396
 21
39.19763105571711
 31
0.0
  0
LINE
  5
355
  8
250
 10
-28.51515035274927
 20
39.19763105571711
 30
0.0
 11
-28.51515035274927
 21
30.46212913008192
 31
0.0
  0
ARC
  5
356
  8
250
 10
-15.64422464316973
 20
33.66824419853319
 30
0.0
 40
1.161635894366379
 50
0.0
 51
90.0
  0
LINE
  5
357
  8
250
 10
-47.29736917075952
 20
34.24906214571636
 30
0.0
 11
-47.29736917075952
 21
35.41069804008267
 31
0.0
  0
LINE
  5
358
  8
250
 10
-48.48863914337881
 20
34.24906214571636
 30
0.0
 11
-48.48863914337881
 21
36.72334660071682
 31
0.0
  0
LINE
  5
359
  8
250
 10
-36.59968095184033
 20
30.46212913008173
 30
0.0
 11
-38.4782827542026
 21
35.16895648966864
 31
0.0
  0
LINE
  5
35A
  8
250
 10
-44.78120276112163
 20
32.93641358508241
 30
0.0
 11
-44.78120276112163
 21
35.41069804008267
 31
0.0
  0
LINE
  5
35B
  8
250
 10
-49.88260221661841
 20
32.93641358508241
 30
0.0
 11
-49.88260221661841
 21
36.72334660071682
 31
0.0
  0
LINE
  5
35C
  8
250
 10
-41.66604317614515
 20
39.19763105571711
 30
0.0
 11
-41.66604317614515
 21
30.46212913008192
 31
0.0
  0
LINE
  5
35D
  8
250
 10
-52.15862661833198
 20
30.46212913008192
 30
0.0
 11
-52.15862661833198
 21
39.19763105571711
 31
0.0
  0
LINE
  5
35E
  8
250
 10
-50.85759441664162
 20
39.19763105571711
 30
0.0
 11
-50.85759441664162
 21
30.46212913008192
 31
0.0
  0
LINE
  5
35F
  8
250
 10
-58.23501827385235
 20
30.46212913008192
 30
0.0
 11
-58.23501827385235
 21
39.19763105571711
 31
0.0
  0
ARC
  5
360
  8
250
 10
-55.75486405006275
 20
32.93641358508241
 30
0.0
 40
2.621245231707499
 50
289.2767926682573
 51
46.24915972781778
  0
LINE
  5
361
  8
250
 10
-34.77435161536928
 20
31.62376502444825
 30
0.0
 11
-33.75276732071145
 21
36.87936061018303
 31
0.0
  0
LINE
  5
362
  8
250
 10
-36.18352863867175
 20
30.46212913008173
 30
0.0
 11
-34.48551907389378
 21
39.19763105571711
 31
0.0
  0
LINE
  5
363
  8
250
 10
-31.72442863974364
 20
30.46212913008173
 30
0.0
 11
-33.75276732071145
 21
36.87936061018303
 31
0.0
  0
LINE
  5
364
  8
250
 10
-32.67113625295828
 20
39.19763105571711
 30
0.0
 11
-30.33046556650368
 21
30.46212913008173
 31
0.0
  0
LINE
  5
365
  8
250
 10
-38.17950576817839
 20
30.46212913008192
 30
0.0
 11
-36.59968095184033
 21
30.46212913008192
 31
0.0
  0
ARC
  5
366
  8
250
 10
-47.2613569849109
 20
32.93641358508241
 30
0.0
 40
2.621245231707555
 50
180.0
 51
250.723207331739
  0
LINE
  5
367
  8
250
 10
-55.24815259255395
 20
34.24906214571636
 30
0.0
 11
-56.84105520061278
 21
34.24906214571636
 31
0.0
  0
LINE
  5
368
  8
250
 10
-52.15862661833198
 20
30.46212913008192
 30
0.0
 11
-50.85759441664162
 21
30.46212913008192
 31
0.0
  0
LINE
  5
369
  8
250
 10
-56.46933171441546
 20
30.46212913008192
 30
0.0
 11
-54.88950689807739
 21
30.46212913008192
 31
0.0
  0
LINE
  5
36A
  8
250
 10
-58.23501827385235
 20
30.46212913008192
 30
0.0
 11
-54.88950689807739
 21
30.46212913008192
 31
0.0
  0
LINE
  5
36B
  8
250
 10
-56.84105520061278
 20
31.62376502444825
 30
0.0
 11
-55.24815259255395
 21
31.62376502444825
 31
0.0
  0
LINE
  5
36C
  8
250
 10
-56.84105520061278
 20
31.62376502444825
 30
0.0
 11
-56.84105520061278
 21
34.24906214571636
 31
0.0
  0
ARC
  5
36D
  8
250
 10
-55.94437037994489
 20
32.93641358508241
 30
0.0
 40
1.485855124571082
 50
297.9411040697629
 51
62.05889593023716
  0
LINE
  5
36E
  8
250
 10
-46.10609919814019
 20
34.24906214571636
 30
0.0
 11
-47.29736917075952
 21
34.24906214571636
 31
0.0
  0
LINE
  5
36F
  8
250
 10
-38.17950576817839
 20
30.46212913008192
 30
0.0
 11
-39.3295174894472
 21
33.34347770895891
 31
0.0
  0
LINE
  5
370
  8
250
 10
-40.0862183598071
 20
31.72072745571734
 30
0.0
 11
-39.3295174894472
 21
33.34347770895891
 31
0.0
  0
LINE
  5
371
  8
250
 10
-40.0862183598071
 20
30.46212913008192
 30
0.0
 11
-40.0862183598071
 21
31.72072745571734
 31
0.0
  0
LINE
  5
372
  8
250
 10
-41.66604317614515
 20
30.46212913008192
 30
0.0
 11
-40.0862183598071
 21
30.46212913008192
 31
0.0
  0
ARC
  5
373
  8
250
 10
-47.4024479928288
 20
32.93641358508241
 30
0.0
 40
2.621245231707499
 50
289.2767926682573
 51
0.0
  0
LINE
  5
374
  8
250
 10
-48.11691565718152
 20
30.46212913008192
 30
0.0
 11
-46.53709084084309
 21
30.46212913008192
 31
0.0
  0
LINE
  5
375
  8
250
 10
-48.12671413689695
 20
30.46212913008192
 30
0.0
 11
-46.53709084084309
 21
30.46212913008192
 31
0.0
  0
ARC
  5
376
  8
250
 10
-47.00278401880804
 20
32.93641358508241
 30
0.0
 40
1.485855124571082
 50
180.0
 51
242.0588959302371
  0
ARC
  5
377
  8
250
 10
-47.59195432271132
 20
32.93641358508241
 30
0.0
 40
1.485855124571082
 50
297.9411040697627
 51
0.0
  0
LINE
  5
378
  8
250
 10
-47.69900180619899
 20
31.62376502444825
 30
0.0
 11
-46.8957365353204
 21
31.62376502444825
 31
0.0
  0
LINE
  5
379
  8
250
 10
-46.10609919814019
 20
32.93641358508241
 30
0.0
 11
-46.10609919814019
 21
34.24906214571636
 31
0.0
  0
LINE
  5
37A
  8
250
 10
-48.48863914337881
 20
32.93641358508241
 30
0.0
 11
-48.48863914337881
 21
34.24906214571636
 31
0.0
  0
LINE
  5
37B
  8
250
 10
-15.81843201301112
 20
30.46212913008192
 30
0.0
 11
-14.33802745344702
 21
30.46212913008192
 31
0.0
  0
LINE
  5
37C
  8
250
 10
-27.58584163725657
 20
30.46212913008192
 30
0.0
 11
-25.13246662835426
 21
30.46212913008192
 31
0.0
  0
LINE
  5
37D
  8
250
 10
-27.58584163725657
 20
31.62376502444825
 30
0.0
 11
-25.56343070844621
 21
31.62376502444825
 31
0.0
  0
LINE
  5
37E
  8
250
 10
-27.58584163725657
 20
31.62376502444825
 30
0.0
 11
-27.58584163725657
 21
30.46212913008192
 31
0.0
  0
LINE
  5
37F
  8
250
 10
-29.81618255443998
 20
30.46212913008192
 30
0.0
 11
-28.51515035274927
 21
30.46212913008192
 31
0.0
  0
LINE
  5
380
  8
250
 10
-32.83801726289716
 20
30.46212913008173
 30
0.0
 11
-33.14927666269165
 21
31.62376502444825
 31
0.0
  0
LINE
  5
381
  8
250
 10
-36.18352863867175
 20
30.46212913008173
 30
0.0
 11
-32.83801726289716
 21
30.46212913008173
 31
0.0
  0
LINE
  5
382
  8
250
 10
-34.77435161536928
 20
31.62376502444825
 30
0.0
 11
-33.14927666269165
 21
31.62376502444825
 31
0.0
  0
LINE
  5
383
  8
250
 10
-30.33046556650368
 20
30.46212913008173
 30
0.0
 11
-31.72442863974364
 21
30.46212913008173
 31
0.0
  0
LINE
  5
384
  8
250
 10
-16.71292966598701
 20
34.24906214571636
 30
0.0
 11
-17.36344576683237
 21
34.24906214571636
 31
0.0
  0
LINE
  5
385
  8
250
 10
-19.59378668401579
 20
34.24906214571636
 30
0.0
 11
-21.5453349865515
 21
34.24906214571636
 31
0.0
  0
LINE
  5
386
  8
250
 10
-15.87655182204318
 20
33.41268430177272
 30
0.0
 11
-15.87655182204318
 21
30.92328752813712
 31
0.0
  0
LINE
  5
387
  8
250
 10
-19.59378668401579
 20
30.46212913008192
 30
0.0
 11
-19.59378668401579
 21
31.62376502444825
 31
0.0
  0
LINE
  5
388
  8
250
 10
-18.75740884007215
 20
30.46212913008192
 30
0.0
 11
-17.36344576683237
 21
30.46212913008192
 31
0.0
  0
ARC
  5
389
  8
250
 10
-14.01793439105688
 20
30.92328752813712
 30
0.0
 40
1.858617430986207
 50
180.0
 51
194.3662353416887
  0
ARC
  5
38A
  8
250
 10
-25.13246662835426
 20
31.91185072625142
 30
0.0
 40
1.449721596169241
 50
270.0
 51
24.99999999999859
  0
ARC
  5
38B
  8
250
 10
-25.56343070844621
 20
32.08841938219496
 30
0.0
 40
0.4646543577465531
 50
270.0
 51
24.99999999999883
  0
LINE
  5
38C
  8
250
 10
-22.9392980597909
 20
30.46212913008192
 30
0.0
 11
-19.59378668401579
 21
30.46212913008192
 31
0.0
  0
LINE
  5
38D
  8
250
 10
-21.5453349865515
 20
31.62376502444825
 30
0.0
 11
-19.59378668401579
 21
31.62376502444825
 31
0.0
  0
LINE
  5
38E
  8
250
 10
-21.5453349865515
 20
31.62376502444825
 30
0.0
 11
-21.5453349865515
 21
34.24906214571636
 31
0.0
  0
LINE
  5
38F
  8
250
 10
-17.36344576683237
 20
30.46212913008192
 30
0.0
 11
-17.36344576683237
 21
34.24906214571636
 31
0.0
  0
ARC
  5
390
  8
250
 10
-16.71292966598701
 20
33.41268430177272
 30
0.0
 40
0.8363778439437937
 50
0.0
 51
90.0
  0
LINE
  5
391
  8
250
 10
-14.48258874880395
 20
31.01124023356241
 30
0.0
 11
-14.48258874880395
 21
33.66824419853319
 31
0.0
  0
ARC
  5
392
  8
250
 10
-13.36741829021224
 20
31.01124023356241
 30
0.0
 40
1.115170458591724
 50
180.0
 51
209.4985180895029
  0
LINE
  5
393
  8
250
 10
-38.17950576817839
 20
39.19763105571711
 30
0.0
 11
-36.59968095184033
 21
39.19763105571711
 31
0.0
  0
LINE
  5
394
  8
250
 10
-38.4782827542026
 20
35.16895648966864
 30
0.0
 11
-36.59968095184033
 21
39.19763105571711
 31
0.0
  0
ARC
  5
395
  8
250
 10
-47.2613569849109
 20
36.72334660071682
 30
0.0
 40
2.621245231707555
 50
109.2767926682609
 51
180.0
  0
LINE
  5
396
  8
250
 10
-52.15862661833198
 20
39.19763105571711
 30
0.0
 11
-50.85759441664162
 21
39.19763105571711
 31
0.0
  0
ARC
  5
397
  8
250
 10
-55.94437037994489
 20
36.72334660071682
 30
0.0
 40
1.485855124571082
 50
297.9411040697628
 51
62.05889593023716
  0
LINE
  5
398
  8
250
 10
-56.84105520061278
 20
35.41069804008267
 30
0.0
 11
-56.84105520061278
 21
38.0359951613508
 31
0.0
  0
LINE
  5
399
  8
250
 10
-55.24815259255395
 20
35.41069804008267
 30
0.0
 11
-56.84105520061278
 21
35.41069804008267
 31
0.0
  0
LINE
  5
39A
  8
250
 10
-56.84105520061278
 20
38.0359951613508
 30
0.0
 11
-55.24815259255395
 21
38.0359951613508
 31
0.0
  0
LINE
  5
39B
  8
250
 10
-56.46933171441546
 20
39.19763105571711
 30
0.0
 11
-54.88950689807739
 21
39.19763105571711
 31
0.0
  0
LINE
  5
39C
  8
250
 10
-58.23501827385235
 20
39.19763105571711
 30
0.0
 11
-54.88950689807739
 21
39.19763105571711
 31
0.0
  0
ARC
  5
39D
  8
250
 10
-55.75486405006275
 20
36.72334660071682
 30
0.0
 40
2.621245231707555
 50
313.7508402721822
 51
70.72320733173922
  0
LINE
  5
39E
  8
250
 10
-40.0862183598071
 20
35.1086727075474
 30
0.0
 11
-38.17950576817839
 21
39.19763105571711
 31
0.0
  0
LINE
  5
39F
  8
250
 10
-40.0862183598071
 20
39.19763105571711
 30
0.0
 11
-40.0862183598071
 21
35.1086727075474
 31
0.0
  0
LINE
  5
3A0
  8
250
 10
-41.66604317614515
 20
39.19763105571711
 30
0.0
 11
-40.0862183598071
 21
39.19763105571711
 31
0.0
  0
ARC
  5
3A1
  8
250
 10
-47.59195432271132
 20
36.72334660071682
 30
0.0
 40
1.485855124571082
 50
0.0
 51
62.05889593023716
  0
ARC
  5
3A2
  8
250
 10
-47.00278401880804
 20
36.72334660071682
 30
0.0
 40
1.485855124571082
 50
117.9411040697626
 51
180.0
  0
ARC
  5
3A3
  8
250
 10
-47.40244799282916
 20
36.72334660071682
 30
0.0
 40
2.621245231707555
 50
0.0
 51
70.72320733173922
  0
LINE
  5
3A4
  8
250
 10
-44.78120276112163
 20
35.41069804008267
 30
0.0
 11
-47.29736917075952
 21
35.41069804008267
 31
0.0
  0
LINE
  5
3A5
  8
250
 10
-46.10609919814019
 20
36.72334660071682
 30
0.0
 11
-44.78120276112163
 21
36.72334660071682
 31
0.0
  0
LINE
  5
3A6
  8
250
 10
-47.69900180619899
 20
38.0359951613508
 30
0.0
 11
-46.8957365353204
 21
38.0359951613508
 31
0.0
  0
LINE
  5
3A7
  8
250
 10
-48.11691565718152
 20
39.19763105571711
 30
0.0
 11
-46.53709084084309
 21
39.19763105571711
 31
0.0
  0
LINE
  5
3A8
  8
250
 10
-48.12671413689695
 20
39.19763105571711
 30
0.0
 11
-46.53709084084309
 21
39.19763105571711
 31
0.0
  0
ARC
  5
3A9
  8
250
 10
-15.64422464316973
 20
35.99151598726602
 30
0.0
 40
1.161635894366379
 50
270.0
 51
0.0
  0
ARC
  5
3AA
  8
250
 10
-15.93231034497254
 20
37.74790945954799
 30
0.0
 40
1.449721596169241
 50
0.0
 51
90.0
  0
ARC
  5
3AB
  8
250
 10
-25.65925003653295
 20
37.57134080360425
 30
0.0
 40
0.4646543577465531
 50
90.0
 51
204.9999999999988
  0
LINE
  5
3AC
  8
250
 10
-24.05446851838262
 20
39.19763105571711
 30
0.0
 11
-26.09021411662455
 21
39.19763105571711
 31
0.0
  0
ARC
  5
3AD
  8
250
 10
-26.09021411662455
 20
37.74790945954799
 30
0.0
 40
1.449721596169241
 50
90.0
 51
204.9999999999986
  0
LINE
  5
3AE
  8
250
 10
-29.8161825544396
 20
39.19763105571711
 30
0.0
 11
-28.51515035274927
 21
39.19763105571711
 31
0.0
  0
LINE
  5
3AF
  8
250
 10
-34.48551907389378
 20
39.19763105571711
 30
0.0
 11
-32.67113625295828
 21
39.19763105571711
 31
0.0
  0
LINE
  5
3B0
  8
250
 10
-17.36344576683237
 20
35.41069804008267
 30
0.0
 11
-17.36344576683237
 21
38.0359951613508
 31
0.0
  0
LINE
  5
3B1
  8
250
 10
-15.87655182204318
 20
35.96828326937862
 30
0.0
 11
-15.87655182204318
 21
37.47840993205468
 31
0.0
  0
ARC
  5
3B2
  8
250
 10
-16.43413705133894
 20
35.96828326937862
 30
0.0
 40
0.5575852292958633
 50
270.0
 51
0.0
  0
LINE
  5
3B3
  8
250
 10
-16.43413705133894
 20
35.41069804008267
 30
0.0
 11
-17.36344576683237
 21
35.41069804008267
 31
0.0
  0
LINE
  5
3B4
  8
250
 10
-19.59378668401579
 20
38.0359951613508
 30
0.0
 11
-19.59378668401579
 21
39.19763105571711
 31
0.0
  0
ARC
  5
3B5
  8
250
 10
-16.43413705133894
 20
37.47840993205468
 30
0.0
 40
0.5575852292958633
 50
0.0
 51
90.0
  0
LINE
  5
3B6
  8
250
 10
-17.36344576683237
 20
38.0359951613508
 30
0.0
 11
-16.43413705133894
 21
38.0359951613508
 31
0.0
  0
LINE
  5
3B7
  8
250
 10
-18.75740884007215
 20
39.19763105571711
 30
0.0
 11
-15.93231034497254
 21
39.19763105571711
 31
0.0
  0
LINE
  5
3B8
  8
250
 10
-24.05446851838262
 20
39.19763105571711
 30
0.0
 11
-24.05446851838262
 21
38.0359951613508
 31
0.0
  0
LINE
  5
3B9
  8
250
 10
-24.05446851838262
 20
38.0359951613508
 30
0.0
 11
-25.65925003653295
 21
38.03599516135059
 31
0.0
  0
LINE
  5
3BA
  8
250
 10
-21.5453349865515
 20
35.41069804008267
 30
0.0
 11
-21.5453349865515
 21
38.0359951613508
 31
0.0
  0
LINE
  5
3BB
  8
250
 10
-22.9392980597909
 20
39.19763105571711
 30
0.0
 11
-19.59378668401579
 21
39.19763105571711
 31
0.0
  0
LINE
  5
3BC
  8
250
 10
-19.59378668401579
 20
35.41069804008267
 30
0.0
 11
-21.5453349865515
 21
35.41069804008267
 31
0.0
  0
LINE
  5
3BD
  8
250
 10
-21.5453349865515
 20
38.0359951613508
 30
0.0
 11
-19.59378668401579
 21
38.0359951613508
 31
0.0
  0
LINE
  5
3BE
  8
250
 10
-14.48258874880395
 20
37.74790945954799
 30
0.0
 11
-14.48258874880395
 21
35.99151598726602
 31
0.0
  0
ENDSEC
  0
EOF
