  0
SECTION
  2
HEADER
  9
$ACADVER
  1
AC1009
  9
$DWGCODEPAGE
  3
ansi_1251
  9
$INSBASE
 10
0.0
 20
0.0
 30
0.0
  9
$EXTMIN
 10
1.000000000000000E+20
 20
1.000000000000000E+20
 30
1.000000000000000E+20
  9
$EXTMAX
 10
-1.000000000000000E+20
 20
-1.000000000000000E+20
 30
-1.000000000000000E+20
  9
$LIMMIN
 10
0.0
 20
0.0
  9
$LIMMAX
 10
420.0
 20
297.0
  9
$ORTHOMODE
 70
     1
  9
$REGENMODE
 70
     1
  9
$FILLMODE
 70
     1
  9
$QTEXTMODE
 70
     0
  9
$MIRRTEXT
 70
     0
  9
$DRAGMODE
 70
     2
  9
$LTSCALE
 40
1.0
  9
$OSMODE
 70
   279
  9
$ATTMODE
 70
     1
  9
$TEXTSIZE
 40
2.5
  9
$TRACEWID
 40
1.0
  9
$TEXTSTYLE
  7
STANDARD
  9
$CLAYER
  8
0
  9
$CELTYPE
  6
BYLAYER
  9
$CECOLOR
 62
   256
  9
$DIMSCALE
 40
1.0
  9
$DIMASZ
 40
2.5
  9
$DIMEXO
 40
0.625
  9
$DIMDLI
 40
3.75
  9
$DIMRND
 40
0.0
  9
$DIMDLE
 40
0.0
  9
$DIMEXE
 40
1.25
  9
$DIMTP
 40
0.0
  9
$DIMTM
 40
0.0
  9
$DIMTXT
 40
2.5
  9
$DIMCEN
 40
2.5
  9
$DIMTSZ
 40
0.0
  9
$DIMTOL
 70
     0
  9
$DIMLIM
 70
     0
  9
$DIMTIH
 70
     0
  9
$DIMTOH
 70
     0
  9
$DIMSE1
 70
     0
  9
$DIMSE2
 70
     0
  9
$DIMTAD
 70
     1
  9
$DIMZIN
 70
     8
  9
$DIMBLK
  1

  9
$DIMASO
 70
     1
  9
$DIMSHO
 70
     1
  9
$DIMPOST
  1

  9
$DIMAPOST
  1

  9
$DIMALT
 70
     0
  9
$DIMALTD
 70
     3
  9
$DIMALTF
 40
0.03937007874016
  9
$DIMLFAC
 40
1.0
  9
$DIMTOFL
 70
     1
  9
$DIMTVP
 40
0.0
  9
$DIMTIX
 70
     0
  9
$DIMSOXD
 70
     0
  9
$DIMSAH
 70
     0
  9
$DIMBLK1
  1

  9
$DIMBLK2
  1

  9
$DIMSTYLE
  2
ISO-25
  9
$DIMCLRD
 70
     0
  9
$DIMCLRE
 70
     0
  9
$DIMCLRT
 70
     0
  9
$DIMTFAC
 40
1.0
  9
$DIMGAP
 40
0.625
  9
$LUNITS
 70
     2
  9
$LUPREC
 70
     3
  9
$SKETCHINC
 40
1.0
  9
$FILLETRAD
 40
10.0
  9
$AUNITS
 70
     0
  9
$AUPREC
 70
     0
  9
$MENU
  1
.
  9
$ELEVATION
 40
0.0
  9
$PELEVATION
 40
0.0
  9
$THICKNESS
 40
0.0
  9
$LIMCHECK
 70
     0
  9
$CHAMFERA
 40
10.0
  9
$CHAMFERB
 40
10.0
  9
$SKPOLY
 70
     0
  9
$TDCREATE
 40
2455022.429026158
  9
$TDUPDATE
 40
2455022.429026158
  9
$TDINDWG
 40
0.0000000116
  9
$TDUSRTIMER
 40
2458688.829430718
  9
$USRTIMER
 70
     1
  9
$ANGBASE
 50
0.0
  9
$ANGDIR
 70
     0
  9
$PDMODE
 70
     0
  9
$PDSIZE
 40
0.0
  9
$PLINEWID
 40
0.0
  9
$COORDS
 70
     1
  9
$SPLFRAME
 70
     0
  9
$SPLINETYPE
 70
     6
  9
$SPLINESEGS
 70
     8
  9
$ATTDIA
 70
     0
  9
$ATTREQ
 70
     1
  9
$HANDLING
 70
     1
  9
$HANDSEED
  5
1771
  9
$SURFTAB1
 70
     6
  9
$SURFTAB2
 70
     6
  9
$SURFTYPE
 70
     6
  9
$SURFU
 70
     6
  9
$SURFV
 70
     6
  9
$UCSNAME
  2

  9
$UCSORG
 10
0.0
 20
0.0
 30
0.0
  9
$UCSXDIR
 10
1.0
 20
0.0
 30
0.0
  9
$UCSYDIR
 10
0.0
 20
1.0
 30
0.0
  9
$PUCSNAME
  2

  9
$PUCSORG
 10
0.0
 20
0.0
 30
0.0
  9
$PUCSXDIR
 10
1.0
 20
0.0
 30
0.0
  9
$PUCSYDIR
 10
0.0
 20
1.0
 30
0.0
  9
$USERI1
 70
     0
  9
$USERI2
 70
     0
  9
$USERI3
 70
     0
  9
$USERI4
 70
     0
  9
$USERI5
 70
     0
  9
$USERR1
 40
0.0
  9
$USERR2
 40
0.0
  9
$USERR3
 40
0.0
  9
$USERR4
 40
0.0
  9
$USERR5
 40
0.0
  9
$WORLDVIEW
 70
     1
  9
$SHADEDGE
 70
     3
  9
$SHADEDIF
 70
    70
  9
$TILEMODE
 70
     1
  9
$MAXACTVP
 70
    64
  9
$PLIMCHECK
 70
     0
  9
$PEXTMIN
 10
1.000000000000000E+20
 20
1.000000000000000E+20
 30
1.000000000000000E+20
  9
$PEXTMAX
 10
-1.000000000000000E+20
 20
-1.000000000000000E+20
 30
-1.000000000000000E+20
  9
$PLIMMIN
 10
0.0
 20
0.0
  9
$PLIMMAX
 10
420.0
 20
297.0
  9
$UNITMODE
 70
     0
  9
$VISRETAIN
 70
     1
  9
$PLINEGEN
 70
     0
  9
$PSLTSCALE
 70
     1
  0
ENDSEC
  0
SECTION
  2
TABLES
  0
TABLE
  2
VPORT
 70
     1
  0
VPORT
  2
*ACTIVE
 70
     0
 10
0.0
 20
0.0
 11
1.0
 21
1.0
 12
142.8542340018057
 22
-0.3884063382065719
 13
0.0
 23
0.0
 14
10.0
 24
10.0
 15
10.0
 25
10.0
 16
0.0
 26
0.0
 36
1.0
 17
-134.1869158878501
 27
0.0
 37
0.0
 40
168.7663222314144
 41
1.332880434782609
 42
50.0
 43
0.0
 44
0.0
 50
0.0
 51
0.0
 71
    16
 72
  1000
 73
     1
 74
     3
 75
     0
 76
     0
 77
     0
 78
     0
  0
ENDTAB
  0
TABLE
  2
LTYPE
 70
     6
  0
LTYPE
  2
CONTINUOUS
 70
     0
  3
Solid line
 72
    65
 73
     0
 40
0.0
  0
LTYPE
  2
CENTER
 70
     0
  3
 Center _____  _  _____  _  _____  _  _____  _ 
 72
    65
 73
     4
 40
50.8
 49
31.75
 49
-6.35
 49
6.35
 49
-6.35
  0
LTYPE
  2
DASHED
 70
     0
  3
Dashed __  __  __  __  __  __  __  __  __  __  
 72
    65
 73
     2
 40
19.05
 49
12.7
 49
-6.35
  0
LTYPE
  2
HIDDEN
 70
     0
  3
Hidden __ __ __ __ __ __ __ __ __ __ __ __ __ __
 72
    65
 73
     2
 40
1.905
 49
1.27
 49
-0.635
  0
LTYPE
  2
CENTERX2
 70
     0
  3
Center (2x) ________  __  ________  __  _____
 72
    65
 73
     4
 40
20.32
 49
12.7
 49
-2.54
 49
2.54
 49
-2.54
  0
LTYPE
  2
PHANTOM
 70
     0
  3
Phantom ______  __  __  ______  __  __  ______
 72
    65
 73
     6
 40
12.7
 49
6.35
 49
-1.27
 49
1.27
 49
-1.27
 49
1.27
 49
-1.27
  0
ENDTAB
  0
TABLE
  2
LAYER
 70
    26
  0
LAYER
  2
0
 70
     0
 62
     7
  6
CONTINUOUS
  0
LAYER
  2
1
 70
     0
 62
     4
  6
CONTINUOUS
  0
LAYER
  2
2
 70
     0
 62
     7
  6
CONTINUOUS
  0
LAYER
  2
3
 70
     0
 62
     1
  6
DASHED
  0
LAYER
  2
4
 70
     0
 62
     2
  6
CENTER
  0
LAYER
  2
6
 70
     0
 62
     5
  6
CONTINUOUS
  0
LAYER
  2
7
 70
     0
 62
     5
  6
CONTINUOUS
  0
LAYER
  2
11
 70
     0
 62
     4
  6
CONTINUOUS
  0
LAYER
  2
SK1
 70
     0
 62
     4
  6
CONTINUOUS
  0
LAYER
  2
SK2
 70
     0
 62
     7
  6
CONTINUOUS
  0
LAYER
  2
SK3
 70
     0
 62
     1
  6
DASHED
  0
LAYER
  2
SK4
 70
     0
 62
     2
  6
CENTER
  0
LAYER
  2
SK6
 70
     0
 62
     5
  6
CONTINUOUS
  0
LAYER
  2
SK7
 70
     0
 62
     5
  6
CONTINUOUS
  0
LAYER
  2
SK11
 70
     0
 62
     4
  6
CONTINUOUS
  0
LAYER
  2
CUT
 70
     0
 62
     1
  6
CONTINUOUS
  0
LAYER
  2
NOCUT
 70
     0
 62
    -7
  6
CONTINUOUS
  0
LAYER
  2
SKVIEW1
 70
     0
 62
     4
  6
CONTINUOUS
  0
LAYER
  2
SKVIEW2
 70
     0
 62
     7
  6
CONTINUOUS
  0
LAYER
  2
SKVIEW3
 70
     0
 62
     1
  6
DASHED
  0
LAYER
  2
SKVIEW4
 70
     0
 62
     2
  6
CENTER
  0
LAYER
  2
SKVIEW6
 70
     0
 62
     5
  6
CONTINUOUS
  0
LAYER
  2
SKVIEW7
 70
     0
 62
     5
  6
CONTINUOUS
  0
LAYER
  2
SKVIEW11
 70
     0
 62
     4
  6
CONTINUOUS
  0
LAYER
  2
INFTOTAL
 70
     0
 62
     9
  6
CONTINUOUS
  0
LAYER
  2
DEFPOINTS
 70
     0
 62
     7
  6
CONTINUOUS
  0
ENDTAB
  0
TABLE
  2
STYLE
 70
     1
  0
STYLE
  2
STANDARD
 70
     0
 40
0.0
 41
1.0
 50
0.0
 71
     0
 42
2.5
  3
txt
  4

  0
ENDTAB
  0
TABLE
  2
VIEW
 70
     0
  0
ENDTAB
  0
TABLE
  2
UCS
 70
     0
  0
ENDTAB
  0
TABLE
  2
APPID
 70
     2
  0
APPID
  2
ACAD
 70
     0
  0
APPID
  2
ACAECLAYERSTANDARD
 70
     0
  0
ENDTAB
  0
TABLE
  2
DIMSTYLE
 70
     1
  0
DIMSTYLE
  2
ISO-25
 70
     0
  3

  4

  5

  6

  7

 40
1.0
 41
2.5
 42
0.625
 43
3.75
 44
1.25
 45
0.0
 46
0.0
 47
0.0
 48
0.0
140
2.5
141
2.5
142
0.0
143
0.03937007874016
144
1.0
145
0.0
146
1.0
147
0.625
 71
     0
 72
     0
 73
     0
 74
     0
 75
     0
 76
     0
 77
     1
 78
     8
170
     0
171
     3
172
     1
173
     0
174
     0
175
     0
176
     0
177
     0
178
     0
  0
ENDTAB
  0
ENDSEC
  0
SECTION
  2
BLOCKS
  0
BLOCK
  8
0
  2
$MODEL_SPACE
 70
     0
 10
0.0
 20
0.0
 30
0.0
  3
$MODEL_SPACE
  1

  0
ENDBLK
  5
21
  8
0
  0
BLOCK
 67
     1
  8
0
  2
$PAPER_SPACE
 70
     0
 10
0.0
 20
0.0
 30
0.0
  3
$PAPER_SPACE
  1

  0
ENDBLK
  5
1D
 67
     1
  8
0
  0
BLOCK
  8
0
  2
_FILLED
 70
     0
 10
0.0
 20
0.0
 30
0.0
  3
_FILLED
  1

  0
SOLID
  5
1C4
  8
0
  6
BYBLOCK
 62
     0
 10
0.0
 20
0.0
 30
0.0
 11
-1.0
 21
0.2142857143
 31
0.0
 12
-1.0
 22
-0.2142857143
 32
0.0
 13
-1.0
 23
-0.2142857143
 33
0.0
  0
ENDBLK
  5
1C5
  8
0
  6
BYBLOCK
 62
     0
  0
BLOCK
  8
0
  2
*D5
 70
     1
 10
0.0
 20
0.0
 30
0.0
  3
*D5
  1

  0
LINE
  5
1D3
  8
2
 62
     0
 10
0.0
 20
35.55000000000001
 30
0.0
 11
0.0
 21
59.29711651283497
 31
0.0
  0
LINE
  5
1D4
  8
2
 62
     0
 10
83.0
 20
24.625
 30
0.0
 11
83.0
 21
59.29711651283497
 31
0.0
  0
LINE
  5
1D5
  8
2
 62
     0
 10
2.5
 20
58.04711651283497
 30
0.0
 11
80.5
 21
58.04711651283497
 31
0.0
  0
SOLID
  5
1D6
  8
2
 62
     0
 10
2.5
 20
58.46378317950163
 30
0.0
 11
2.5
 21
57.6304498461683
 31
0.0
 12
0.0
 22
58.04711651283497
 32
0.0
 13
0.0
 23
58.04711651283497
 33
0.0
  0
SOLID
  5
1D7
  8
2
 62
     0
 10
80.5
 20
57.6304498461683
 30
0.0
 11
80.5
 21
58.46378317950163
 31
0.0
 12
83.0
 22
58.04711651283497
 32
0.0
 13
83.0
 23
58.04711651283497
 33
0.0
  0
TEXT
  5
1D8
  8
2
  6
CONTINUOUS
 62
     0
 10
39.41666666666666
 20
58.67211651283497
 30
0.0
 40
2.5
  1
83
  0
POINT
  5
1D9
  8
DEFPOINTS
 62
     0
 10
0.0
 20
34.92500000000001
 30
0.0
  0
POINT
  5
1DA
  8
DEFPOINTS
 62
     0
 10
83.0
 20
24.0
 30
0.0
  0
POINT
  5
1DB
  8
DEFPOINTS
 62
     0
 10
83.0
 20
58.04711651283497
 30
0.0
  0
ENDBLK
  5
1DD
  8
0
  0
BLOCK
  8
0
  2
*D9
 70
     1
 10
0.0
 20
0.0
 30
0.0
  3
*D9
  1

  0
LINE
  5
211
  8
SK2
 62
     0
 10
0.0
 20
-35.54999999999998
 30
0.0
 11
0.0
 21
-61.94892918924811
 31
0.0
  0
LINE
  5
212
  8
SK2
 62
     0
 10
35.05
 20
-35.04999999999998
 30
0.0
 11
35.05
 21
-61.94892918924811
 31
0.0
  0
LINE
  5
213
  8
SK2
 62
     0
 10
2.5
 20
-60.69892918924811
 30
0.0
 11
32.55
 21
-60.69892918924811
 31
0.0
  0
SOLID
  5
214
  8
SK2
 62
     0
 10
2.5
 20
-60.28226252258145
 30
0.0
 11
2.5
 21
-61.11559585591478
 31
0.0
 12
0.0
 22
-60.69892918924811
 32
0.0
 13
0.0
 23
-60.69892918924811
 33
0.0
  0
SOLID
  5
215
  8
SK2
 62
     0
 10
32.55
 20
-61.11559585591478
 30
0.0
 11
32.55
 21
-60.28226252258145
 31
0.0
 12
35.05
 22
-60.69892918924811
 32
0.0
 13
35.05
 23
-60.69892918924811
 33
0.0
  0
TEXT
  5
216
  8
SK2
  6
CONTINUOUS
 62
     0
 10
12.73333333333333
 20
-60.07392918924811
 30
0.0
 40
2.5
  1
35.05
  0
POINT
  5
217
  8
DEFPOINTS
 62
     0
 10
0.0
 20
-34.92499999999998
 30
0.0
  0
POINT
  5
218
  8
DEFPOINTS
 62
     0
 10
35.05
 20
-34.42499999999998
 30
0.0
  0
POINT
  5
219
  8
DEFPOINTS
 62
     0
 10
35.05
 20
-60.69892918924811
 30
0.0
  0
ENDBLK
  5
21B
  8
0
  0
BLOCK
  8
0
  2
*D12
 70
     1
 10
0.0
 20
0.0
 30
0.0
  3
*D12
  1

  0
LINE
  5
55C
  8
SK2
 62
     0
 10
35.175
 20
34.92500000000001
 30
0.0
 11
118.9346362279112
 21
34.925
 31
0.0
  0
LINE
  5
55D
  8
SK2
 62
     0
 10
35.175
 20
-34.92499999999998
 30
0.0
 11
118.9346362279112
 21
-34.92499999999999
 31
0.0
  0
LINE
  5
55E
  8
SK2
 62
     0
 10
117.6846362279112
 20
32.425
 30
0.0
 11
117.6846362279112
 21
-32.42499999999999
 31
0.0
  0
SOLID
  5
55F
  8
SK2
 62
     0
 10
118.1013028945779
 20
32.425
 30
0.0
 11
117.2679695612446
 21
32.425
 31
0.0
 12
117.6846362279112
 22
34.925
 32
0.0
 13
117.6846362279112
 23
34.925
 33
0.0
  0
SOLID
  5
560
  8
SK2
 62
     0
 10
117.2679695612446
 20
-32.42499999999999
 30
0.0
 11
118.1013028945779
 21
-32.42499999999999
 31
0.0
 12
117.6846362279112
 22
-34.92499999999999
 32
0.0
 13
117.6846362279112
 23
-34.92499999999999
 33
0.0
  0
TEXT
  5
561
  8
SK2
  6
CONTINUOUS
 62
     0
 10
117.0596362279112
 20
-5.0
 30
0.0
 40
2.5
  1
69.85
 50
90.0
  0
POINT
  5
562
  8
DEFPOINTS
 62
     0
 10
34.55
 20
34.92500000000001
 30
0.0
  0
POINT
  5
563
  8
DEFPOINTS
 62
     0
 10
34.55
 20
-34.92499999999998
 30
0.0
  0
POINT
  5
564
  8
DEFPOINTS
 62
     0
 10
117.6846362279112
 20
-34.92499999999999
 30
0.0
  0
ENDBLK
  5
566
  8
0
  0
BLOCK
  8
0
  2
*D21
 70
     1
 10
0.0
 20
0.0
 30
0.0
  3
*D21
  1

  0
LINE
  5
15DD
  8
SK2
 62
     0
 10
82.625
 20
25.0
 30
0.0
 11
101.962260750896
 21
25.0
 31
0.0
  0
LINE
  5
15DE
  8
SK2
 62
     0
 10
82.58116354545338
 20
-25.0
 30
0.0
 11
101.962260750896
 21
-25.0
 31
0.0
  0
LINE
  5
15DF
  8
SK2
 62
     0
 10
100.712260750896
 20
22.5
 30
0.0
 11
100.712260750896
 21
-22.5
 31
0.0
  0
SOLID
  5
15E0
  8
SK2
 62
     0
 10
101.1289274175627
 20
22.5
 30
0.0
 11
100.2955940842293
 21
22.5
 31
0.0
 12
100.712260750896
 22
25.0
 32
0.0
 13
100.712260750896
 23
25.0
 33
0.0
  0
SOLID
  5
15E1
  8
SK2
 62
     0
 10
100.2955940842293
 20
-22.5
 30
0.0
 11
101.1289274175627
 21
-22.5
 31
0.0
 12
100.712260750896
 22
-25.0
 32
0.0
 13
100.712260750896
 23
-25.0
 33
0.0
  0
TEXT
  5
15E2
  8
SK2
  6
CONTINUOUS
 62
     0
 10
100.087260750896
 20
-1.875
 30
0.0
 40
2.5
  1
50
 50
90.0
  0
POINT
  5
15E3
  8
DEFPOINTS
 62
     0
 10
82.0
 20
25.0
 30
0.0
  0
POINT
  5
15E4
  8
DEFPOINTS
 62
     0
 10
81.95616354545338
 20
-25.0
 30
0.0
  0
POINT
  5
15E5
  8
DEFPOINTS
 62
     0
 10
100.712260750896
 20
-25.0
 30
0.0
  0
ENDBLK
  5
15E7
  8
0
  0
ENDSEC
  0
SECTION
  2
ENTITIES
  0
LINE
  5
1B2
  8
4
 10
83.0
 20
-0.0000000056951718
 30
0.0
 11
0.0
 21
0.0
 31
0.0
  0
DIMENSION
  5
1CF
  8
2
  2
*D5
 10
83.0
 20
58.04711651283497
 30
0.0
 11
41.5
 21
59.92211651283497
 31
0.0
 70
    32
  3
ISO-25
 13
0.0
 23
34.92500000000001
 33
0.0
 14
83.0
 24
24.0
 34
0.0
  0
DIMENSION
  5
20D
  8
SK2
  2
*D9
 10
35.05
 20
-60.69892918924811
 30
0.0
 11
17.525
 21
-58.82392918924811
 31
0.0
 70
    32
  3
ISO-25
 13
0.0
 23
-34.92499999999998
 33
0.0
 14
35.05
 24
-34.42499999999998
 34
0.0
  0
LINE
  5
364
  8
NOCUT
 10
83.0
 20
-0.0000000056951718
 30
0.0
 11
0.0
 21
0.0
 31
0.0
  0
DIMENSION
  5
558
  8
SK2
  2
*D12
 10
117.6846362279112
 20
-34.92499999999999
 30
0.0
 11
115.8096362279112
 21
0.0000000000000071
 31
0.0
 70
    32
  3
ISO-25
 13
34.55
 23
34.92500000000001
 33
0.0
 14
34.55
 24
-34.92499999999998
 34
0.0
 50
90.0
1001
ACAD
1000
DSTYLE
1002
{
1070
   287
1070
     5
1070
   271
1070
     3
1070
   272
1070
     3
1070
   279
1070
     2
1002
}
  0
LINE
  5
9E1
  8
0
 10
84.99999999999989
 20
1.999999994304829
 30
0.0
 11
81.0
 21
-2.000000005695171
 31
0.0
  0
LINE
  5
9E2
  8
0
 10
81.0
 20
1.999999994304829
 30
0.0
 11
84.99999999999989
 21
-2.000000005695171
 31
0.0
  0
CIRCLE
  5
9E3
  8
0
 10
83.0
 20
-0.0000000056951718
 30
0.0
 40
1.5
  0
LINE
  5
9E4
  8
0
 10
3.000000000000028
 20
2.999999999799996
 30
0.0
 11
-2.999999999999972
 21
-3.000000000200004
 31
0.0
  0
LINE
  5
9E5
  8
0
 10
-2.999999999999972
 20
2.999999999799996
 30
0.0
 11
3.000000000000028
 21
-3.000000000200004
 31
0.0
  0
CIRCLE
  5
9E6
  8
0
 10
0.0000000000000284
 20
-0.0000000002000036
 30
0.0
 40
2.5
  0
ARC
  5
B91
  8
1
 10
20.05000000000018
 20
35.92500000000001
 30
0.0
 40
1.0
 50
180.0
 51
270.0
  0
ARC
  5
B93
  8
1
 10
20.05000000000018
 20
-35.92499999999998
 30
0.0
 40
1.0
 50
90.0
 51
180.0
  0
ARC
  5
B94
  8
1
 10
2.675000000000182
 20
35.42500000000001
 30
0.0
 40
0.5000000000002274
 50
270.0
 51
0.0
  0
ARC
  5
B95
  8
1
 10
2.675000000000182
 20
-35.42499999999998
 30
0.0
 40
0.5000000000002274
 50
0.0
 51
90.0
  0
LINE
  5
B96
  8
1
 10
34.55
 20
34.92500000000001
 30
0.0
 11
20.05000000000018
 21
34.92500000000001
 31
0.0
  0
LINE
  5
B98
  8
1
 10
20.05000000000018
 20
-34.92499999999998
 30
0.0
 11
34.55
 21
-34.92499999999998
 31
0.0
  0
LINE
  5
B99
  8
1
 10
2.675000000000182
 20
34.92500000000001
 30
0.0
 11
0.0
 21
34.92500000000001
 31
0.0
  0
LINE
  5
B9A
  8
1
 10
0.0
 20
-34.92499999999998
 30
0.0
 11
2.675000000000182
 21
-34.92499999999998
 31
0.0
  0
LINE
  5
B9B
  8
1
 10
34.55
 20
-34.92499999999998
 30
0.0
 11
35.05
 21
-34.42499999999998
 31
0.0
  0
LINE
  5
B9C
  8
1
 10
35.05
 20
34.42500000000001
 30
0.0
 11
34.55
 21
34.92500000000001
 31
0.0
  0
LINE
  5
B9D
  8
SK1
 10
0.0
 20
34.92500000000001
 30
0.0
 11
-99.63190883449988
 21
20.39521338320003
 31
0.0
  0
LINE
  5
B9E
  8
SK1
 10
-99.63190883449988
 20
-20.39521338319997
 30
0.0
 11
0.0
 21
-34.92499999999998
 31
0.0
  0
ARC
  5
BA1
  8
SK1
 10
-99.29999999999995
 20
18.1192879614
 30
0.0
 40
2.300000000000068
 50
98.29722000000068
 51
180.0
  0
ARC
  5
BA2
  8
SK1
 10
-99.29999999999995
 20
-18.1192879614
 30
0.0
 40
2.300000000000068
 50
180.0
 51
261.7027799999993
  0
LINE
  5
BA7
  8
1
 10
7.585705549800196
 20
47.33141474630001
 30
0.0
 11
3.675000000000182
 21
47.33141474630001
 31
0.0
  0
LINE
  5
BA8
  8
1
 10
7.585705549800196
 20
47.33141474630001
 30
0.0
 11
7.585705549800196
 21
-47.29184187659999
 31
0.0
  0
LINE
  5
BA9
  8
1
 10
3.675000000000182
 20
-47.29184187659999
 30
0.0
 11
7.585705549800196
 21
-47.29184187659999
 31
0.0
  0
LINE
  5
BAA
  8
1
 10
3.675000000000182
 20
47.33141474630001
 30
0.0
 11
3.675000000000182
 21
-47.29184187659999
 31
0.0
  0
LINE
  5
BAB
  8
1
 10
8.047188646900167
 20
46.70523819800002
 30
0.0
 11
7.585705549800196
 21
47.33141474630001
 31
0.0
  0
POLYLINE
  5
BAC
  8
1
 66
     1
 10
0.0
 20
0.0
 30
0.0
  0
VERTEX
  5
175A
  8
1
 10
9.244089001400198
 20
44.62573293010001
 30
0.0
  0
VERTEX
  5
175B
  8
1
 10
8.918412259200068
 20
45.19226218190002
 30
0.0
  0
VERTEX
  5
175C
  8
1
 10
8.047188646900167
 20
46.70523819800002
 30
0.0
  0
SEQEND
  5
1770
  8
1
  0
LINE
  5
BAD
  8
1
 10
9.244089001400198
 20
44.62573293010001
 30
0.0
 11
9.244089001400198
 21
-44.62573293009999
 31
0.0
  0
LINE
  5
BAE
  8
1
 10
9.244089001400198
 20
-44.62573293009999
 30
0.0
 11
7.962031053800047
 21
-46.85293358989998
 31
0.0
  0
LINE
  5
BAF
  8
1
 10
7.585705549800196
 20
-47.29184187659999
 30
0.0
 11
7.962031053800047
 21
-46.85293358989998
 31
0.0
  0
LINE
  5
BB0
  8
1
 10
18.55000000000018
 20
47.33141474630001
 30
0.0
 11
14.63929445020017
 21
47.33141474630001
 31
0.0
  0
LINE
  5
BB1
  8
1
 10
18.55000000000018
 20
47.33141474630001
 30
0.0
 11
18.55000000000018
 21
-47.29184187659999
 31
0.0
  0
LINE
  5
BB2
  8
1
 10
14.63929445020017
 20
-47.29184187659999
 30
0.0
 11
18.55000000000018
 21
-47.29184187659999
 31
0.0
  0
LINE
  5
BB3
  8
1
 10
14.63929445020017
 20
47.33141474630001
 30
0.0
 11
14.63929445020017
 21
-47.29184187659999
 31
0.0
  0
LINE
  5
BB4
  8
1
 10
13.09408900140011
 20
44.62573293010001
 30
0.0
 11
13.09408900140011
 21
-44.62573293009999
 31
0.0
  0
POLYLINE
  5
BB5
  8
1
 66
     1
 10
0.0
 20
0.0
 30
0.0
  0
VERTEX
  5
175D
  8
1
 10
14.20930571899999
 20
46.70523819800002
 30
0.0
  0
VERTEX
  5
175E
  8
1
 10
13.38165138250019
 20
45.16261287690001
 30
0.0
  0
VERTEX
  5
175F
  8
1
 10
13.09408900140011
 20
44.62573293010001
 30
0.0
  0
SEQEND
  5
176F
  8
1
  0
LINE
  5
BB6
  8
1
 10
14.63929445020017
 20
47.33141474630001
 30
0.0
 11
14.20930571899999
 21
46.70523819800002
 31
0.0
  0
LINE
  5
BB7
  8
1
 10
14.28865164870012
 20
-46.85293358989998
 30
0.0
 11
14.63929445020017
 21
-47.29184187659999
 31
0.0
  0
LINE
  5
BB8
  8
1
 10
14.28865164870012
 20
-46.85293358989998
 30
0.0
 11
13.09408900140011
 21
-44.62573293009999
 31
0.0
  0
LINE
  5
BB9
  8
1
 10
19.05000000000018
 20
46.92611139050001
 30
0.0
 11
18.55000000000018
 21
47.33141474630001
 31
0.0
  0
LINE
  5
BBA
  8
1
 10
19.05000000000018
 20
46.92611139050001
 30
0.0
 11
19.05000000000018
 21
-46.94360369829997
 31
0.0
  0
LINE
  5
BBB
  8
1
 10
18.55000000000018
 20
-47.29184187659999
 30
0.0
 11
19.05000000000018
 21
-46.94360369829997
 31
0.0
  0
LINE
  5
BBC
  8
1
 10
3.675000000000182
 20
47.33141474630001
 30
0.0
 11
3.175000000000182
 21
46.92611139050001
 31
0.0
  0
LINE
  5
BBD
  8
1
 10
3.175000000000182
 20
-46.94360369829997
 30
0.0
 11
3.675000000000182
 21
-47.29184187659999
 31
0.0
  0
LINE
  5
BBE
  8
1
 10
3.175000000000182
 20
46.92611139050001
 30
0.0
 11
3.175000000000182
 21
-46.94360369829997
 31
0.0
  0
ARC
  5
BBF
  8
1
 10
12.58546191350001
 20
44.30759731290001
 30
0.0
 40
0.508771788208606
 50
270.9715936099958
 51
1.366536060099606
  0
ARC
  5
BC0
  8
1
 10
12.58424745090019
 20
-44.30876319999999
 30
0.0
 40
0.5099594999685655
 50
358.7676724876005
 51
88.89419784220237
  0
ARC
  5
BC1
  8
1
 10
9.754132966899988
 20
44.30895751890002
 30
0.0
 40
0.5101577277244376
 50
178.7899802985996
 51
268.8718900328896
  0
ARC
  5
BC2
  8
1
 10
9.755291154000133
 20
-44.31006938129997
 30
0.0
 40
0.5112934391561212
 50
91.25541885500107
 51
181.0827108151017
  0
LINE
  5
BC3
  8
1
 10
12.59408900140011
 20
43.79889867340002
 30
0.0
 11
9.744089001400198
 21
43.79889867340002
 31
0.0
  0
LINE
  5
BC4
  8
1
 10
12.59408900140011
 20
-43.7988986734
 30
0.0
 11
9.744089001400198
 21
-43.7988986734
 31
0.0
  0
LINE
  5
BC6
  8
1
 10
34.55
 20
-34.92499999999998
 30
0.0
 11
34.55
 21
34.92500000000001
 31
0.0
  0
LINE
  5
BC7
  8
1
 10
0.0
 20
34.92500000000001
 30
0.0
 11
0.0
 21
-34.92499999999998
 31
0.0
  0
LINE
  5
BC8
  8
1
 10
35.05
 20
34.42500000000001
 30
0.0
 11
35.05
 21
-34.42499999999998
 31
0.0
  0
LINE
  5
BC9
  8
SK1
 10
-101.5999999999999
 20
18.1192879614
 30
0.0
 11
-101.5999999999999
 21
-18.11928794289997
 31
0.0
  0
LINE
  5
BE8
  8
3
 10
3.175000000000182
 20
37.72000000000003
 30
0.0
 11
19.05000000000018
 21
37.72000000000003
 31
0.0
  0
LINE
  5
BED
  8
3
 10
3.175000000000182
 20
-35.29999999999998
 30
0.0
 11
19.05000000000018
 21
-35.29999999999998
 31
0.0
  0
LINE
  5
BF9
  8
3
 10
26.97500000000014
 20
28.32500000000002
 30
0.0
 11
33.32500000000005
 21
28.32500000000002
 31
0.0
  0
LINE
  5
BFA
  8
3
 10
20.625
 20
28.32500000000002
 30
0.0
 11
26.97500000000014
 21
28.32500000000002
 31
0.0
  0
LINE
  5
C01
  8
3
 10
11.11250000000018
 20
37.32000000000002
 30
0.0
 11
15.86250000000018
 21
37.32000000000002
 31
0.0
  0
LINE
  5
C02
  8
3
 10
6.362500000000182
 20
37.32000000000002
 30
0.0
 11
11.11250000000018
 21
37.32000000000002
 31
0.0
  0
LINE
  5
C19
  8
3
 10
20.625
 20
34.92500000000001
 30
0.0
 11
20.625
 21
28.32500000000002
 31
0.0
  0
LINE
  5
C1A
  8
3
 10
33.32500000000005
 20
28.32500000000002
 30
0.0
 11
33.32500000000005
 21
34.92500000000001
 31
0.0
  0
LINE
  5
C1B
  8
3
 10
20.625
 20
28.32500000000002
 30
0.0
 11
26.97500000000014
 21
24.50953506920001
 31
0.0
  0
LINE
  5
C1C
  8
3
 10
26.97500000000014
 20
24.50953506920001
 30
0.0
 11
33.32500000000005
 21
28.32500000000002
 31
0.0
  0
LINE
  5
C1D
  8
3
 10
6.362500000000182
 20
37.72000000000003
 30
0.0
 11
6.362500000000182
 21
37.32000000000002
 31
0.0
  0
LINE
  5
C1E
  8
3
 10
15.86250000000018
 20
37.32000000000002
 30
0.0
 11
15.86250000000018
 21
37.72000000000003
 31
0.0
  0
LINE
  5
C27
  8
1
 10
20.05000000000018
 20
-34.92499999999998
 30
0.0
 11
20.05000000000018
 21
34.92500000000001
 31
0.0
  0
LINE
  5
C28
  8
1
 10
2.675000000000182
 20
-34.92499999999998
 30
0.0
 11
2.675000000000182
 21
34.92500000000001
 31
0.0
  0
LINE
  5
C2F
  8
1
 10
9.744089001400198
 20
-43.7988986734
 30
0.0
 11
9.744089001400198
 21
43.79889867340002
 31
0.0
  0
LINE
  5
C30
  8
1
 10
12.59408900140011
 20
-43.7988986734
 30
0.0
 11
12.59408900140011
 21
43.79889867340002
 31
0.0
  0
LINE
  5
C36
  8
SK4
 10
0.0000000000000284
 20
-0.0000000002000036
 30
0.0
 11
-101.5999999999999
 21
0.0000000092500159
 31
0.0
  0
LINE
  5
C3C
  8
SK3
 10
-99.52153903089993
 20
-13.09999999075
 30
0.0
 11
-99.52153903089993
 21
13.10000000925001
 31
0.0
  0
LINE
  5
C3F
  8
SK3
 10
-95.24999999999991
 20
-13.09999999075
 30
0.0
 11
-95.24999999999991
 21
13.10000000925001
 31
0.0
  0
LINE
  5
C40
  8
SK3
 10
-99.52153903089993
 20
13.10000000925001
 30
0.0
 11
-101.5999999999999
 21
14.30000000925002
 31
0.0
  0
LINE
  5
C41
  8
SK3
 10
-95.24999999999991
 20
13.10000000925001
 30
0.0
 11
-99.52153903089993
 21
13.10000000925001
 31
0.0
  0
LINE
  5
C42
  8
SK3
 10
0.0
 20
11.09980000925001
 30
0.0
 11
-95.24999999999991
 21
11.09980000925001
 31
0.0
  0
LINE
  5
C43
  8
SK3
 10
-57.09999999999991
 20
12.70000000925001
 30
0.0
 11
-95.24999999999991
 21
12.70000000925001
 31
0.0
  0
LINE
  5
C44
  8
SK3
 10
-57.09999999999991
 20
12.70000000925001
 30
0.0
 11
-57.09999999999991
 21
-12.69999999074997
 31
0.0
  0
LINE
  5
C45
  8
SK3
 10
-101.5999999999999
 20
-14.29999999074999
 30
0.0
 11
-99.52153903089993
 21
-13.09999999075
 31
0.0
  0
LINE
  5
C46
  8
SK3
 10
-99.52153903089993
 20
-13.09999999075
 30
0.0
 11
-95.24999999999991
 21
-13.09999999075
 31
0.0
  0
LINE
  5
C47
  8
SK3
 10
-95.24999999999991
 20
-11.09979999075
 30
0.0
 11
0.0000000000000142
 21
-11.09979999075
 31
0.0
  0
LINE
  5
C48
  8
SK3
 10
-95.24999999999991
 20
-12.69999999074997
 30
0.0
 11
-57.09999999999991
 21
-12.69999999074997
 31
0.0
  0
ARC
  5
DEE
  8
NOCUT
 10
20.05000000000013
 20
35.92499999674071
 30
0.0
 40
1.0
 50
180.0
 51
270.0
  0
ARC
  5
DF0
  8
NOCUT
 10
2.675000000000125
 20
35.42499999674071
 30
0.0
 40
0.5000000000002274
 50
270.0
 51
0.0
  0
LINE
  5
DF1
  8
NOCUT
 10
34.55
 20
34.92499999674071
 30
0.0
 11
20.05000000000013
 21
34.92499999674071
 31
0.0
  0
LINE
  5
DF3
  8
NOCUT
 10
2.675000000000125
 20
34.92499999674071
 30
0.0
 11
-0.0000000000000568
 21
34.92499999674071
 31
0.0
  0
LINE
  5
DF4
  8
NOCUT
 10
35.04999999999994
 20
34.42499999674071
 30
0.0
 11
34.54999999999994
 21
34.92499999674071
 31
0.0
  0
LINE
  5
DF5
  8
NOCUT
 10
7.585705549800139
 20
47.33141474304072
 30
0.0
 11
3.675000000000125
 21
47.33141474304072
 31
0.0
  0
LINE
  5
DF6
  8
NOCUT
 10
8.04718864690011
 20
46.70523819474072
 30
0.0
 11
7.585705549800139
 21
47.33141474304072
 31
0.0
  0
LINE
  5
DF7
  8
NOCUT
 10
18.55000000000013
 20
47.33141474304072
 30
0.0
 11
14.63929445020011
 21
47.33141474304072
 31
0.0
  0
LINE
  5
DF8
  8
NOCUT
 10
14.63929445020011
 20
47.33141474304072
 30
0.0
 11
14.20930571899993
 21
46.70523819474072
 31
0.0
  0
LINE
  5
DF9
  8
NOCUT
 10
19.05000000000013
 20
46.92611138724071
 30
0.0
 11
18.55000000000013
 21
47.33141474304072
 31
0.0
  0
LINE
  5
DFA
  8
NOCUT
 10
3.675000000000125
 20
47.33141474304072
 30
0.0
 11
3.175000000000125
 21
46.92611138724071
 31
0.0
  0
ARC
  5
DFB
  8
NOCUT
 10
12.58546191349996
 20
44.30759730964071
 30
0.0
 40
0.508771788208606
 50
270.9715936099958
 51
1.366536060099577
  0
ARC
  5
DFC
  8
NOCUT
 10
9.754132966899931
 20
44.30895751564073
 30
0.0
 40
0.5101577277244376
 50
178.7899802985996
 51
268.8718900328896
  0
LINE
  5
DFD
  8
NOCUT
 10
12.59408900140005
 20
43.79889867014073
 30
0.0
 11
9.744089001400141
 21
43.79889867014073
 31
0.0
  0
POLYLINE
  5
DFF
  8
NOCUT
 66
     1
 10
0.0
 20
0.0
 30
0.0
  0
VERTEX
  5
1760
  8
NOCUT
 10
14.20930571899993
 20
46.70523819474072
 30
0.0
  0
VERTEX
  5
1761
  8
NOCUT
 10
13.38165138250014
 20
45.16261287364073
 30
0.0
  0
VERTEX
  5
1762
  8
NOCUT
 10
13.09408900140005
 20
44.62573292684071
 30
0.0
  0
SEQEND
  5
176E
  8
NOCUT
  0
POLYLINE
  5
E00
  8
NOCUT
 66
     1
 10
0.0
 20
0.0
 30
0.0
  0
VERTEX
  5
1763
  8
NOCUT
 10
9.244089001400141
 20
44.62573292684071
 30
0.0
  0
VERTEX
  5
1764
  8
NOCUT
 10
8.91841225920001
 20
45.19226217864075
 30
0.0
  0
VERTEX
  5
1765
  8
NOCUT
 10
8.04718864690011
 20
46.70523819474072
 30
0.0
  0
SEQEND
  5
176D
  8
NOCUT
  0
LINE
  5
E01
  8
NOCUT
 10
35.04999999999994
 20
34.42499999674071
 30
0.0
 11
35.04999999999994
 21
29.99999999430483
 31
0.0
  0
LINE
  5
E06
  8
NOCUT
 10
-0.0000000000000568
 20
34.92499999674071
 30
0.0
 11
-0.0000000000000568
 21
0.0
 31
0.0
  0
LINE
  5
E08
  8
NOCUT
 10
3.175000000000125
 20
46.92611138724071
 30
0.0
 11
3.175000000000352
 21
35.42499999674071
 31
0.0
  0
LINE
  5
E09
  8
NOCUT
 10
19.05000000000013
 20
46.92611138724071
 30
0.0
 11
19.05000000000013
 21
35.92499999674071
 31
0.0
  0
ARC
  5
154D
  8
1
 10
40.05
 20
30.0
 30
0.0
 40
5.0
 50
180.0
 51
270.0
  0
ARC
  5
154E
  8
1
 10
40.05
 20
-30.0
 30
0.0
 40
5.0
 50
90.0
 51
180.0
  0
LINE
  5
154F
  8
1
 10
40.05
 20
-25.0
 30
0.0
 11
82.0
 21
-25.0
 31
0.0
  0
LINE
  5
1550
  8
1
 10
82.0
 20
25.0
 30
0.0
 11
40.05
 21
25.0
 31
0.0
  0
LINE
  5
1551
  8
1
 10
82.0
 20
-25.0
 30
0.0
 11
83.0
 21
-24.0
 31
0.0
  0
LINE
  5
1552
  8
1
 10
83.0
 20
24.0
 30
0.0
 11
82.0
 21
25.0
 31
0.0
  0
CIRCLE
  5
1555
  8
1
 10
69.94999999999982
 20
0.0
 30
0.0
 40
4.50000000000001
  0
LINE
  5
1556
  8
1
 10
67.44999999999982
 20
-1.443375672999991
 30
0.0
 11
69.94999999999982
 21
-2.886751345899995
 31
0.0
  0
LINE
  5
1557
  8
1
 10
69.94999999999982
 20
-2.886751345899995
 30
0.0
 11
72.44999999999982
 21
-1.443375672999991
 31
0.0
  0
LINE
  5
1558
  8
1
 10
72.44999999999982
 20
-1.443375672999991
 30
0.0
 11
72.44999999999982
 21
1.443375672999991
 31
0.0
  0
LINE
  5
1559
  8
1
 10
72.44999999999982
 20
1.443375672999991
 30
0.0
 11
69.94999999999982
 21
2.886751345999983
 31
0.0
  0
LINE
  5
155A
  8
1
 10
69.94999999999982
 20
2.886751345999983
 30
0.0
 11
67.44999999999982
 21
1.443375672999991
 31
0.0
  0
LINE
  5
155B
  8
1
 10
67.44999999999982
 20
1.443375672999991
 30
0.0
 11
67.44999999999982
 21
-1.443375672999991
 31
0.0
  0
LINE
  5
157E
  8
1
 10
82.0
 20
0.0
 30
0.0
 11
82.0
 21
25.0
 31
0.0
  0
LINE
  5
157F
  8
1
 10
82.0
 20
-25.0
 30
0.0
 11
82.0
 21
0.0
 31
0.0
  0
ARC
  5
1580
  8
1
 10
69.94999999999982
 20
0.0
 30
0.0
 40
5.150000000000091
 50
0.0
 51
180.0
  0
ARC
  5
1581
  8
1
 10
69.94999999999982
 20
0.0
 30
0.0
 40
5.150000000000091
 50
180.0
 51
0.0
  0
LINE
  5
1582
  8
1
 10
83.0
 20
0.0
 30
0.0
 11
83.0
 21
24.0
 31
0.0
  0
LINE
  5
1583
  8
1
 10
83.0
 20
-24.0
 30
0.0
 11
83.0
 21
0.0
 31
0.0
  0
LINE
  5
1596
  8
3
 10
56.0
 20
0.0
 30
0.0
 11
56.0
 21
14.25
 31
0.0
  0
LINE
  5
1597
  8
3
 10
56.0
 20
-14.25
 30
0.0
 11
56.0
 21
0.0
 31
0.0
  0
LINE
  5
1598
  8
3
 10
51.0
 20
0.0
 30
0.0
 11
51.0
 21
14.25
 31
0.0
  0
LINE
  5
1599
  8
3
 10
51.0
 20
-14.25
 30
0.0
 11
51.0
 21
0.0
 31
0.0
  0
LINE
  5
159A
  8
3
 10
82.99999999979991
 20
-12.1973678601
 30
0.0
 11
69.3999999998
 21
-12.1973678601
 31
0.0
  0
LINE
  5
159B
  8
3
 10
69.3999999998
 20
12.1973678601
 30
0.0
 11
82.99999999979991
 21
12.1973678601
 31
0.0
  0
LINE
  5
159C
  8
3
 10
49.25750420479994
 20
-11.10000000000002
 30
0.0
 11
49.25750420479994
 21
11.09999999999999
 31
0.0
  0
LINE
  5
15A7
  8
3
 10
69.3999999998
 20
17.34999999999999
 30
0.0
 11
69.3999999998
 21
12.1973678601
 31
0.0
  0
LINE
  5
15A8
  8
3
 10
69.3999999998
 20
-12.1973678601
 30
0.0
 11
69.3999999998
 21
-17.35000000000002
 31
0.0
  0
LINE
  5
15AD
  8
3
 10
69.3999999998
 20
19.59999999999999
 30
0.0
 11
69.3999999998
 21
17.34999999999999
 31
0.0
  0
LINE
  5
15AE
  8
3
 10
69.3999999998
 20
-17.35000000000002
 30
0.0
 11
69.3999999998
 21
-19.60000000000002
 31
0.0
  0
LINE
  5
15AF
  8
3
 10
64.69999999999982
 20
2.25
 30
0.0
 11
64.69999999999982
 21
-2.25
 31
0.0
  0
LINE
  5
15B2
  8
3
 10
51.0
 20
-14.25
 30
0.0
 11
56.0
 21
-14.25
 31
0.0
  0
LINE
  5
15B3
  8
3
 10
56.0
 20
14.25
 30
0.0
 11
51.0
 21
14.25
 31
0.0
  0
LINE
  5
15B4
  8
3
 10
69.3999999998
 20
14.0
 30
0.0
 11
56.0
 21
14.0
 31
0.0
  0
LINE
  5
15B5
  8
3
 10
56.0
 20
-14.0
 30
0.0
 11
69.3999999998
 21
-14.0
 31
0.0
  0
LINE
  5
15B6
  8
3
 10
51.0
 20
14.0
 30
0.0
 11
49.25750420479994
 21
11.09999999999999
 31
0.0
  0
LINE
  5
15B7
  8
3
 10
49.25750420479994
 20
-11.10000000000002
 30
0.0
 11
51.0
 21
-14.0
 31
0.0
  0
LINE
  5
15BC
  8
3
 10
0.0000000000000142
 20
-11.10000002499999
 30
0.0
 11
49.25750420479994
 21
-11.10000002499999
 31
0.0
  0
LINE
  5
15BD
  8
3
 10
49.25750420479994
 20
11.10000002499999
 30
0.0
 11
-0.0000000000000071
 21
11.10000002499999
 31
0.0
  0
LINE
  5
15C4
  8
3
 10
82.99999999979991
 20
19.59999999999999
 30
0.0
 11
69.3999999998
 21
19.59999999999999
 31
0.0
  0
LINE
  5
15C5
  8
3
 10
69.3999999998
 20
-19.60000000000002
 30
0.0
 11
82.99999999979991
 21
-19.60000000000002
 31
0.0
  0
LINE
  5
15C6
  8
3
 10
83.0
 20
2.25
 30
0.0
 11
64.69999999999982
 21
2.25
 31
0.0
  0
LINE
  5
15C7
  8
3
 10
64.69999999999982
 20
-2.25
 30
0.0
 11
83.0
 21
-2.25
 31
0.0
  0
LINE
  5
15C8
  8
3
 10
64.69999999999982
 20
2.25
 30
0.0
 11
63.3480636070999
 21
0.0
 31
0.0
  0
LINE
  5
15C9
  8
3
 10
63.3480636070999
 20
0.0
 30
0.0
 11
64.69999999999982
 21
-2.25
 31
0.0
  0
LINE
  5
15CD
  8
1
 10
40.05
 20
-25.0
 30
0.0
 11
40.05
 21
25.0
 31
0.0
  0
DIMENSION
  5
15D9
  8
SK2
  2
*D21
 10
100.712260750896
 20
-25.0
 30
0.0
 11
98.83726075089601
 21
0.0
 31
0.0
 70
    32
  3
ISO-25
 13
82.0
 23
25.0
 33
0.0
 14
81.95616354545338
 24
-25.0
 34
0.0
 50
90.0
1001
ACAD
1000
DSTYLE
1002
{
1070
   287
1070
     5
1070
   271
1070
     3
1070
   272
1070
     3
1070
   279
1070
     2
1002
}
  0
LINE
  5
15E8
  8
NOCUT
 10
81.99999999999994
 20
24.99999999430483
 30
0.0
 11
40.04999999999994
 21
24.99999999430483
 31
0.0
  0
ARC
  5
15EA
  8
NOCUT
 10
40.04999999999994
 20
29.99999999430483
 30
0.0
 40
5.0
 50
180.0
 51
270.0
  0
LINE
  5
15EB
  8
NOCUT
 10
82.99999999999994
 20
23.99999999430483
 30
0.0
 11
81.99999999999994
 21
24.99999999430483
 31
0.0
  0
LINE
  5
15EC
  8
NOCUT
 10
82.99999999999994
 20
-0.0000000056951706
 30
0.0
 11
82.99999999999994
 21
23.99999999430483
 31
0.0
  0
TEXT
  5
174E
  8
SK6
 10
-94.2595579589377
 20
47.33203563734095
 30
0.0
 40
3.5
  1
BIG KAISER
 41
0.85
  0
TEXT
  5
1751
  8
SK6
 10
-94.2595579589377
 20
42.08203563734095
 30
0.0
 40
3.5
  1
11.326.652
 41
0.85
  0
INSERT
  5
1752
  8
SK6
  2
_FILLED
 10
-20.29352190436791
 20
-31.96550091538897
 30
0.0
 41
3.5
 42
3.5
 43
3.5
 50
55.49325986033524
  0
TEXT
  5
1756
  8
SK6
 10
-56.17129147223457
 20
-56.26042597418896
 30
0.0
 40
3.5
  1
CV50
 41
0.85
  0
POLYLINE
  5
1757
  8
SK6
 66
     1
 10
0.0
 20
0.0
 30
0.0
  0
VERTEX
  5
1766
  8
SK6
 10
-22.27628303876551
 20
-34.84970934820417
 30
0.0
  0
VERTEX
  5
1767
  8
SK6
 10
-35.79212480556791
 20
-54.51042597418896
 30
0.0
  0
VERTEX
  5
1768
  8
SK6
 10
-37.66712480556791
 20
-52.76042597418896
 30
0.0
  0
VERTEX
  5
1769
  8
SK6
 10
-41.16712480556791
 20
-52.76042597418896
 30
0.0
  0
SEQEND
  5
176C
  8
SK6
  0
ENDSEC
  0
EOF
