  0
SECTION
  2
HEADER
  9
$ACADVER
  1
AC1009
  9
$DWGCODEPAGE
  3
ansi_1251
  9
$INSBASE
 10
0.0
 20
0.0
 30
0.0
  9
$EXTMIN
 10
1.000000000000000E+20
 20
1.000000000000000E+20
 30
1.000000000000000E+20
  9
$EXTMAX
 10
-1.000000000000000E+20
 20
-1.000000000000000E+20
 30
-1.000000000000000E+20
  9
$LIMMIN
 10
0.0
 20
0.0
  9
$LIMMAX
 10
420.0
 20
297.0
  9
$ORTHOMODE
 70
     1
  9
$REGENMODE
 70
     1
  9
$FILLMODE
 70
     1
  9
$QTEXTMODE
 70
     0
  9
$MIRRTEXT
 70
     0
  9
$DRAGMODE
 70
     2
  9
$LTSCALE
 40
1.0
  9
$OSMODE
 70
   279
  9
$ATTMODE
 70
     1
  9
$TEXTSIZE
 40
2.5
  9
$TRACEWID
 40
1.0
  9
$TEXTSTYLE
  7
STANDARD
  9
$CLAYER
  8
0
  9
$CELTYPE
  6
BYLAYER
  9
$CECOLOR
 62
   256
  9
$DIMSCALE
 40
1.0
  9
$DIMASZ
 40
2.5
  9
$DIMEXO
 40
0.625
  9
$DIMDLI
 40
3.75
  9
$DIMRND
 40
0.0
  9
$DIMDLE
 40
0.0
  9
$DIMEXE
 40
1.25
  9
$DIMTP
 40
0.0
  9
$DIMTM
 40
0.0
  9
$DIMTXT
 40
2.5
  9
$DIMCEN
 40
2.5
  9
$DIMTSZ
 40
0.0
  9
$DIMTOL
 70
     0
  9
$DIMLIM
 70
     0
  9
$DIMTIH
 70
     0
  9
$DIMTOH
 70
     0
  9
$DIMSE1
 70
     0
  9
$DIMSE2
 70
     0
  9
$DIMTAD
 70
     1
  9
$DIMZIN
 70
     8
  9
$DIMBLK
  1

  9
$DIMASO
 70
     1
  9
$DIMSHO
 70
     1
  9
$DIMPOST
  1

  9
$DIMAPOST
  1

  9
$DIMALT
 70
     0
  9
$DIMALTD
 70
     3
  9
$DIMALTF
 40
0.03937007874016
  9
$DIMLFAC
 40
1.0
  9
$DIMTOFL
 70
     1
  9
$DIMTVP
 40
0.0
  9
$DIMTIX
 70
     0
  9
$DIMSOXD
 70
     0
  9
$DIMSAH
 70
     0
  9
$DIMBLK1
  1

  9
$DIMBLK2
  1

  9
$DIMSTYLE
  2
ISO-25
  9
$DIMCLRD
 70
     0
  9
$DIMCLRE
 70
     0
  9
$DIMCLRT
 70
     0
  9
$DIMTFAC
 40
1.0
  9
$DIMGAP
 40
0.625
  9
$LUNITS
 70
     2
  9
$LUPREC
 70
     3
  9
$SKETCHINC
 40
1.0
  9
$FILLETRAD
 40
10.0
  9
$AUNITS
 70
     0
  9
$AUPREC
 70
     0
  9
$MENU
  1
.
  9
$ELEVATION
 40
0.0
  9
$PELEVATION
 40
0.0
  9
$THICKNESS
 40
0.0
  9
$LIMCHECK
 70
     0
  9
$CHAMFERA
 40
10.0
  9
$CHAMFERB
 40
10.0
  9
$SKPOLY
 70
     0
  9
$TDCREATE
 40
2455022.429026158
  9
$TDUPDATE
 40
2455022.429026158
  9
$TDINDWG
 40
0.0000000116
  9
$TDUSRTIMER
 40
2458688.833242095
  9
$USRTIMER
 70
     1
  9
$ANGBASE
 50
0.0
  9
$ANGDIR
 70
     0
  9
$PDMODE
 70
     0
  9
$PDSIZE
 40
0.0
  9
$PLINEWID
 40
0.0
  9
$COORDS
 70
     1
  9
$SPLFRAME
 70
     0
  9
$SPLINETYPE
 70
     6
  9
$SPLINESEGS
 70
     8
  9
$ATTDIA
 70
     0
  9
$ATTREQ
 70
     1
  9
$HANDLING
 70
     1
  9
$HANDSEED
  5
FBA
  9
$SURFTAB1
 70
     6
  9
$SURFTAB2
 70
     6
  9
$SURFTYPE
 70
     6
  9
$SURFU
 70
     6
  9
$SURFV
 70
     6
  9
$UCSNAME
  2

  9
$UCSORG
 10
0.0
 20
0.0
 30
0.0
  9
$UCSXDIR
 10
1.0
 20
0.0
 30
0.0
  9
$UCSYDIR
 10
0.0
 20
1.0
 30
0.0
  9
$PUCSNAME
  2

  9
$PUCSORG
 10
0.0
 20
0.0
 30
0.0
  9
$PUCSXDIR
 10
1.0
 20
0.0
 30
0.0
  9
$PUCSYDIR
 10
0.0
 20
1.0
 30
0.0
  9
$USERI1
 70
     0
  9
$USERI2
 70
     0
  9
$USERI3
 70
     0
  9
$USERI4
 70
     0
  9
$USERI5
 70
     0
  9
$USERR1
 40
0.0
  9
$USERR2
 40
0.0
  9
$USERR3
 40
0.0
  9
$USERR4
 40
0.0
  9
$USERR5
 40
0.0
  9
$WORLDVIEW
 70
     1
  9
$SHADEDGE
 70
     3
  9
$SHADEDIF
 70
    70
  9
$TILEMODE
 70
     1
  9
$MAXACTVP
 70
    64
  9
$PLIMCHECK
 70
     0
  9
$PEXTMIN
 10
1.000000000000000E+20
 20
1.000000000000000E+20
 30
1.000000000000000E+20
  9
$PEXTMAX
 10
-1.000000000000000E+20
 20
-1.000000000000000E+20
 30
-1.000000000000000E+20
  9
$PLIMMIN
 10
0.0
 20
0.0
  9
$PLIMMAX
 10
420.0
 20
297.0
  9
$UNITMODE
 70
     0
  9
$VISRETAIN
 70
     1
  9
$PLINEGEN
 70
     0
  9
$PSLTSCALE
 70
     1
  0
ENDSEC
  0
SECTION
  2
TABLES
  0
TABLE
  2
VPORT
 70
     1
  0
VPORT
  2
*ACTIVE
 70
     0
 10
0.0
 20
0.0
 11
1.0
 21
1.0
 12
122.6864583009493
 22
-0.3884063382065719
 13
0.0
 23
0.0
 14
10.0
 24
10.0
 15
10.0
 25
10.0
 16
0.0
 26
0.0
 36
1.0
 17
-134.1869158878502
 27
0.0
 37
0.0
 40
137.8991406327458
 41
1.332880434782609
 42
50.0
 43
0.0
 44
0.0
 50
0.0
 51
0.0
 71
    16
 72
  1000
 73
     1
 74
     3
 75
     0
 76
     0
 77
     0
 78
     0
  0
ENDTAB
  0
TABLE
  2
LTYPE
 70
     6
  0
LTYPE
  2
CONTINUOUS
 70
     0
  3
Solid line
 72
    65
 73
     0
 40
0.0
  0
LTYPE
  2
CENTER
 70
     0
  3
 Center _____  _  _____  _  _____  _  _____  _ 
 72
    65
 73
     4
 40
50.8
 49
31.75
 49
-6.35
 49
6.35
 49
-6.35
  0
LTYPE
  2
DASHED
 70
     0
  3
Dashed __  __  __  __  __  __  __  __  __  __  
 72
    65
 73
     2
 40
19.05
 49
12.7
 49
-6.35
  0
LTYPE
  2
HIDDEN
 70
     0
  3
Hidden __ __ __ __ __ __ __ __ __ __ __ __ __ __
 72
    65
 73
     2
 40
1.905
 49
1.27
 49
-0.635
  0
LTYPE
  2
CENTERX2
 70
     0
  3
Center (2x) ________  __  ________  __  _____
 72
    65
 73
     4
 40
20.32
 49
12.7
 49
-2.54
 49
2.54
 49
-2.54
  0
LTYPE
  2
PHANTOM
 70
     0
  3
Phantom ______  __  __  ______  __  __  ______
 72
    65
 73
     6
 40
12.7
 49
6.35
 49
-1.27
 49
1.27
 49
-1.27
 49
1.27
 49
-1.27
  0
ENDTAB
  0
TABLE
  2
LAYER
 70
    26
  0
LAYER
  2
0
 70
     0
 62
     7
  6
CONTINUOUS
  0
LAYER
  2
1
 70
     0
 62
     4
  6
CONTINUOUS
  0
LAYER
  2
2
 70
     0
 62
     7
  6
CONTINUOUS
  0
LAYER
  2
3
 70
     0
 62
     1
  6
DASHED
  0
LAYER
  2
4
 70
     0
 62
     2
  6
CENTER
  0
LAYER
  2
6
 70
     0
 62
     5
  6
CONTINUOUS
  0
LAYER
  2
7
 70
     0
 62
     5
  6
CONTINUOUS
  0
LAYER
  2
11
 70
     0
 62
     4
  6
CONTINUOUS
  0
LAYER
  2
SK1
 70
     0
 62
     4
  6
CONTINUOUS
  0
LAYER
  2
SK2
 70
     0
 62
     7
  6
CONTINUOUS
  0
LAYER
  2
SK3
 70
     0
 62
     1
  6
DASHED
  0
LAYER
  2
SK4
 70
     0
 62
     2
  6
CENTER
  0
LAYER
  2
SK6
 70
     0
 62
     5
  6
CONTINUOUS
  0
LAYER
  2
SK7
 70
     0
 62
     5
  6
CONTINUOUS
  0
LAYER
  2
SK11
 70
     0
 62
     4
  6
CONTINUOUS
  0
LAYER
  2
CUT
 70
     0
 62
     1
  6
CONTINUOUS
  0
LAYER
  2
NOCUT
 70
     0
 62
    -7
  6
CONTINUOUS
  0
LAYER
  2
SKVIEW1
 70
     0
 62
     4
  6
CONTINUOUS
  0
LAYER
  2
SKVIEW2
 70
     0
 62
     7
  6
CONTINUOUS
  0
LAYER
  2
SKVIEW3
 70
     0
 62
     1
  6
DASHED
  0
LAYER
  2
SKVIEW4
 70
     0
 62
     2
  6
CENTER
  0
LAYER
  2
SKVIEW6
 70
     0
 62
     5
  6
CONTINUOUS
  0
LAYER
  2
SKVIEW7
 70
     0
 62
     5
  6
CONTINUOUS
  0
LAYER
  2
SKVIEW11
 70
     0
 62
     4
  6
CONTINUOUS
  0
LAYER
  2
INFTOTAL
 70
     0
 62
     9
  6
CONTINUOUS
  0
LAYER
  2
DEFPOINTS
 70
     0
 62
     7
  6
CONTINUOUS
  0
ENDTAB
  0
TABLE
  2
STYLE
 70
     1
  0
STYLE
  2
STANDARD
 70
     0
 40
0.0
 41
1.0
 50
0.0
 71
     0
 42
2.5
  3
txt
  4

  0
ENDTAB
  0
TABLE
  2
VIEW
 70
     0
  0
ENDTAB
  0
TABLE
  2
UCS
 70
     0
  0
ENDTAB
  0
TABLE
  2
APPID
 70
     2
  0
APPID
  2
ACAD
 70
     0
  0
APPID
  2
ACAECLAYERSTANDARD
 70
     0
  0
ENDTAB
  0
TABLE
  2
DIMSTYLE
 70
     1
  0
DIMSTYLE
  2
ISO-25
 70
     0
  3

  4

  5

  6

  7

 40
1.0
 41
2.5
 42
0.625
 43
3.75
 44
1.25
 45
0.0
 46
0.0
 47
0.0
 48
0.0
140
2.5
141
2.5
142
0.0
143
0.03937007874016
144
1.0
145
0.0
146
1.0
147
0.625
 71
     0
 72
     0
 73
     0
 74
     0
 75
     0
 76
     0
 77
     1
 78
     8
170
     0
171
     3
172
     1
173
     0
174
     0
175
     0
176
     0
177
     0
178
     0
  0
ENDTAB
  0
ENDSEC
  0
SECTION
  2
BLOCKS
  0
BLOCK
  8
0
  2
$MODEL_SPACE
 70
     0
 10
0.0
 20
0.0
 30
0.0
  3
$MODEL_SPACE
  1

  0
ENDBLK
  5
21
  8
0
  0
BLOCK
 67
     1
  8
0
  2
$PAPER_SPACE
 70
     0
 10
0.0
 20
0.0
 30
0.0
  3
$PAPER_SPACE
  1

  0
ENDBLK
  5
1D
 67
     1
  8
0
  0
BLOCK
  8
0
  2
_FILLED
 70
     0
 10
0.0
 20
0.0
 30
0.0
  3
_FILLED
  1

  0
SOLID
  5
1C4
  8
0
  6
BYBLOCK
 62
     0
 10
0.0
 20
0.0
 30
0.0
 11
-1.0
 21
0.2142857143
 31
0.0
 12
-1.0
 22
-0.2142857143
 32
0.0
 13
-1.0
 23
-0.2142857143
 33
0.0
  0
ENDBLK
  5
1C5
  8
0
  6
BYBLOCK
 62
     0
  0
BLOCK
  8
0
  2
*D5
 70
     1
 10
0.0
 20
0.0
 30
0.0
  3
*D5
  1

  0
LINE
  5
1D3
  8
2
 62
     0
 10
0.0
 20
35.55000000000001
 30
0.0
 11
0.0
 21
59.29711651283497
 31
0.0
  0
LINE
  5
1D4
  8
2
 62
     0
 10
47.5
 20
9.625
 30
0.0
 11
47.5
 21
59.29711651283497
 31
0.0
  0
LINE
  5
1D5
  8
2
 62
     0
 10
2.5
 20
58.04711651283497
 30
0.0
 11
45.0
 21
58.04711651283497
 31
0.0
  0
SOLID
  5
1D6
  8
2
 62
     0
 10
2.5
 20
58.46378317950163
 30
0.0
 11
2.5
 21
57.6304498461683
 31
0.0
 12
0.0
 22
58.04711651283497
 32
0.0
 13
0.0
 23
58.04711651283497
 33
0.0
  0
SOLID
  5
1D7
  8
2
 62
     0
 10
45.0
 20
57.6304498461683
 30
0.0
 11
45.0
 21
58.46378317950163
 31
0.0
 12
47.5
 22
58.04711651283497
 32
0.0
 13
47.5
 23
58.04711651283497
 33
0.0
  0
TEXT
  5
1D8
  8
2
  6
CONTINUOUS
 62
     0
 10
20.0
 20
58.67211651283497
 30
0.0
 40
2.5
  1
47.5
  0
POINT
  5
1D9
  8
DEFPOINTS
 62
     0
 10
0.0
 20
34.92500000000001
 30
0.0
  0
POINT
  5
1DA
  8
DEFPOINTS
 62
     0
 10
47.5
 20
9.0
 30
0.0
  0
POINT
  5
1DB
  8
DEFPOINTS
 62
     0
 10
47.5
 20
58.04711651283497
 30
0.0
  0
ENDBLK
  5
1DD
  8
0
  0
BLOCK
  8
0
  2
*D9
 70
     1
 10
0.0
 20
0.0
 30
0.0
  3
*D9
  1

  0
LINE
  5
211
  8
SK2
 62
     0
 10
0.0
 20
-35.54999999999998
 30
0.0
 11
0.0
 21
-61.94892918924811
 31
0.0
  0
LINE
  5
212
  8
SK2
 62
     0
 10
35.05
 20
-35.04999999999998
 30
0.0
 11
35.05
 21
-61.94892918924811
 31
0.0
  0
LINE
  5
213
  8
SK2
 62
     0
 10
2.5
 20
-60.69892918924811
 30
0.0
 11
32.55
 21
-60.69892918924811
 31
0.0
  0
SOLID
  5
214
  8
SK2
 62
     0
 10
2.5
 20
-60.28226252258145
 30
0.0
 11
2.5
 21
-61.11559585591478
 31
0.0
 12
0.0
 22
-60.69892918924811
 32
0.0
 13
0.0
 23
-60.69892918924811
 33
0.0
  0
SOLID
  5
215
  8
SK2
 62
     0
 10
32.55
 20
-61.11559585591478
 30
0.0
 11
32.55
 21
-60.28226252258145
 31
0.0
 12
35.05
 22
-60.69892918924811
 32
0.0
 13
35.05
 23
-60.69892918924811
 33
0.0
  0
TEXT
  5
216
  8
SK2
  6
CONTINUOUS
 62
     0
 10
12.73333333333333
 20
-60.07392918924811
 30
0.0
 40
2.5
  1
35.05
  0
POINT
  5
217
  8
DEFPOINTS
 62
     0
 10
0.0
 20
-34.92499999999998
 30
0.0
  0
POINT
  5
218
  8
DEFPOINTS
 62
     0
 10
35.05
 20
-34.42499999999998
 30
0.0
  0
POINT
  5
219
  8
DEFPOINTS
 62
     0
 10
35.05
 20
-60.69892918924811
 30
0.0
  0
ENDBLK
  5
21B
  8
0
  0
BLOCK
  8
0
  2
*D12
 70
     1
 10
0.0
 20
0.0
 30
0.0
  3
*D12
  1

  0
LINE
  5
55C
  8
SK2
 62
     0
 10
35.175
 20
34.92500000000001
 30
0.0
 11
78.59908482619828
 21
34.92500000000001
 31
0.0
  0
LINE
  5
55D
  8
SK2
 62
     0
 10
35.175
 20
-34.92499999999998
 30
0.0
 11
78.59908482619828
 21
-34.92499999999998
 31
0.0
  0
LINE
  5
55E
  8
SK2
 62
     0
 10
77.34908482619828
 20
32.42500000000001
 30
0.0
 11
77.34908482619828
 21
-32.42499999999998
 31
0.0
  0
SOLID
  5
55F
  8
SK2
 62
     0
 10
77.76575149286495
 20
32.42500000000001
 30
0.0
 11
76.93241815953161
 21
32.42500000000001
 31
0.0
 12
77.34908482619828
 22
34.92500000000001
 32
0.0
 13
77.34908482619828
 23
34.92500000000001
 33
0.0
  0
SOLID
  5
560
  8
SK2
 62
     0
 10
76.93241815953161
 20
-32.42499999999998
 30
0.0
 11
77.76575149286495
 21
-32.42499999999998
 31
0.0
 12
77.34908482619828
 22
-34.92499999999998
 32
0.0
 13
77.34908482619828
 23
-34.92499999999998
 33
0.0
  0
TEXT
  5
561
  8
SK2
  6
CONTINUOUS
 62
     0
 10
76.72408482619828
 20
-4.999999999999986
 30
0.0
 40
2.5
  1
69.85
 50
90.0
  0
POINT
  5
562
  8
DEFPOINTS
 62
     0
 10
34.55
 20
34.92500000000001
 30
0.0
  0
POINT
  5
563
  8
DEFPOINTS
 62
     0
 10
34.55
 20
-34.92499999999998
 30
0.0
  0
POINT
  5
564
  8
DEFPOINTS
 62
     0
 10
77.34908482619828
 20
-34.92499999999998
 30
0.0
  0
ENDBLK
  5
566
  8
0
  0
BLOCK
  8
0
  2
*D17
 70
     1
 10
0.0
 20
0.0
 30
0.0
  3
*D17
  1

  0
LINE
  5
DC9
  8
SK2
 62
     0
 10
47.625
 20
9.5
 30
0.0
 11
60.81925595309501
 21
9.5
 31
0.0
  0
LINE
  5
DCA
  8
SK2
 62
     0
 10
47.625
 20
-9.5
 30
0.0
 11
60.81925595309501
 21
-9.5
 31
0.0
  0
LINE
  5
DCB
  8
SK2
 62
     0
 10
59.56925595309501
 20
7.0
 30
0.0
 11
59.56925595309501
 21
-7.0
 31
0.0
  0
SOLID
  5
DCC
  8
SK2
 62
     0
 10
59.98592261976167
 20
7.0
 30
0.0
 11
59.15258928642834
 21
7.0
 31
0.0
 12
59.56925595309501
 22
9.5
 32
0.0
 13
59.56925595309501
 23
9.5
 33
0.0
  0
SOLID
  5
DCD
  8
SK2
 62
     0
 10
59.15258928642834
 20
-7.0
 30
0.0
 11
59.98592261976167
 21
-7.0
 31
0.0
 12
59.56925595309501
 22
-9.5
 32
0.0
 13
59.56925595309501
 23
-9.5
 33
0.0
  0
TEXT
  5
DCE
  8
SK2
  6
CONTINUOUS
 62
     0
 10
58.94425595309501
 20
-1.666666666666664
 30
0.0
 40
2.5
  1
19
 50
90.0
  0
POINT
  5
DCF
  8
DEFPOINTS
 62
     0
 10
47.0
 20
9.5
 30
0.0
  0
POINT
  5
DD0
  8
DEFPOINTS
 62
     0
 10
47.0
 20
-9.5
 30
0.0
  0
POINT
  5
DD1
  8
DEFPOINTS
 62
     0
 10
59.56925595309501
 20
-9.5
 30
0.0
  0
ENDBLK
  5
DD3
  8
0
  0
ENDSEC
  0
SECTION
  2
ENTITIES
  0
LINE
  5
1B2
  8
4
 10
47.50000000000001
 20
-0.0000000032592851
 30
0.0
 11
0.0
 21
0.0
 31
0.0
  0
DIMENSION
  5
1CF
  8
2
  2
*D5
 10
47.5
 20
58.04711651283497
 30
0.0
 11
23.75
 21
59.92211651283497
 31
0.0
 70
    32
  3
ISO-25
 13
0.0
 23
34.92500000000001
 33
0.0
 14
47.5
 24
9.0
 34
0.0
  0
DIMENSION
  5
20D
  8
SK2
  2
*D9
 10
35.05
 20
-60.69892918924811
 30
0.0
 11
17.525
 21
-58.82392918924811
 31
0.0
 70
    32
  3
ISO-25
 13
0.0
 23
-34.92499999999998
 33
0.0
 14
35.05
 24
-34.42499999999998
 34
0.0
  0
LINE
  5
364
  8
NOCUT
 10
47.5
 20
-0.0000000032592851
 30
0.0
 11
0.0
 21
0.0
 31
0.0
  0
DIMENSION
  5
558
  8
SK2
  2
*D12
 10
77.34908482619828
 20
-34.92499999999998
 30
0.0
 11
75.47408482619828
 21
0.0000000000000142
 31
0.0
 70
    32
  3
ISO-25
 13
34.55
 23
34.92500000000001
 33
0.0
 14
34.55
 24
-34.92499999999998
 34
0.0
 50
90.0
1001
ACAD
1000
DSTYLE
1002
{
1070
   287
1070
     5
1070
   271
1070
     3
1070
   272
1070
     3
1070
   279
1070
     2
1002
}
  0
LINE
  5
9E1
  8
0
 10
49.49999999999991
 20
1.999999996740715
 30
0.0
 11
45.50000000000001
 21
-2.000000003259285
 31
0.0
  0
LINE
  5
9E2
  8
0
 10
45.50000000000001
 20
1.999999996740715
 30
0.0
 11
49.49999999999991
 21
-2.000000003259285
 31
0.0
  0
CIRCLE
  5
9E3
  8
0
 10
47.50000000000001
 20
-0.0000000032592851
 30
0.0
 40
1.5
  0
LINE
  5
9E4
  8
0
 10
3.000000000000028
 20
2.999999999799996
 30
0.0
 11
-2.999999999999972
 21
-3.000000000200004
 31
0.0
  0
LINE
  5
9E5
  8
0
 10
-2.999999999999972
 20
2.999999999799996
 30
0.0
 11
3.000000000000028
 21
-3.000000000200004
 31
0.0
  0
CIRCLE
  5
9E6
  8
0
 10
0.0000000000000284
 20
-0.0000000002000036
 30
0.0
 40
2.5
  0
ARC
  5
B91
  8
1
 10
20.05000000000018
 20
35.92500000000001
 30
0.0
 40
1.0
 50
180.0
 51
270.0
  0
ARC
  5
B93
  8
1
 10
20.05000000000018
 20
-35.92499999999998
 30
0.0
 40
1.0
 50
90.0
 51
180.0
  0
ARC
  5
B94
  8
1
 10
2.675000000000182
 20
35.42500000000001
 30
0.0
 40
0.5000000000002274
 50
270.0
 51
0.0
  0
ARC
  5
B95
  8
1
 10
2.675000000000182
 20
-35.42499999999998
 30
0.0
 40
0.5000000000002274
 50
0.0
 51
90.0
  0
LINE
  5
B96
  8
1
 10
34.55
 20
34.92500000000001
 30
0.0
 11
20.05000000000018
 21
34.92500000000001
 31
0.0
  0
LINE
  5
B98
  8
1
 10
20.05000000000018
 20
-34.92499999999998
 30
0.0
 11
34.55
 21
-34.92499999999998
 31
0.0
  0
LINE
  5
B99
  8
1
 10
2.675000000000182
 20
34.92500000000001
 30
0.0
 11
0.0
 21
34.92500000000001
 31
0.0
  0
LINE
  5
B9A
  8
1
 10
0.0
 20
-34.92499999999998
 30
0.0
 11
2.675000000000182
 21
-34.92499999999998
 31
0.0
  0
LINE
  5
B9B
  8
1
 10
34.55
 20
-34.92499999999998
 30
0.0
 11
35.05
 21
-34.42499999999998
 31
0.0
  0
LINE
  5
B9C
  8
1
 10
35.05
 20
34.42500000000001
 30
0.0
 11
34.55
 21
34.92500000000001
 31
0.0
  0
LINE
  5
B9D
  8
SK1
 10
0.0
 20
34.92500000000001
 30
0.0
 11
-99.63190883449988
 21
20.39521338320003
 31
0.0
  0
LINE
  5
B9E
  8
SK1
 10
-99.63190883449988
 20
-20.39521338319997
 30
0.0
 11
0.0
 21
-34.92499999999998
 31
0.0
  0
ARC
  5
BA1
  8
SK1
 10
-99.29999999999995
 20
18.1192879614
 30
0.0
 40
2.300000000000068
 50
98.29722000000068
 51
180.0
  0
ARC
  5
BA2
  8
SK1
 10
-99.29999999999995
 20
-18.1192879614
 30
0.0
 40
2.300000000000068
 50
180.0
 51
261.7027799999993
  0
LINE
  5
BA7
  8
1
 10
7.585705549800196
 20
47.33141474630001
 30
0.0
 11
3.675000000000182
 21
47.33141474630001
 31
0.0
  0
LINE
  5
BA8
  8
1
 10
7.585705549800196
 20
47.33141474630001
 30
0.0
 11
7.585705549800196
 21
-47.29184187659999
 31
0.0
  0
LINE
  5
BA9
  8
1
 10
3.675000000000182
 20
-47.29184187659999
 30
0.0
 11
7.585705549800196
 21
-47.29184187659999
 31
0.0
  0
LINE
  5
BAA
  8
1
 10
3.675000000000182
 20
47.33141474630001
 30
0.0
 11
3.675000000000182
 21
-47.29184187659999
 31
0.0
  0
LINE
  5
BAB
  8
1
 10
8.047188646900167
 20
46.70523819800002
 30
0.0
 11
7.585705549800196
 21
47.33141474630001
 31
0.0
  0
POLYLINE
  5
BAC
  8
1
 66
     1
 10
0.0
 20
0.0
 30
0.0
  0
VERTEX
  5
F9F
  8
1
 10
9.244089001400198
 20
44.62573293010001
 30
0.0
  0
VERTEX
  5
FA0
  8
1
 10
8.918412259200068
 20
45.19226218190002
 30
0.0
  0
VERTEX
  5
FA1
  8
1
 10
8.047188646900167
 20
46.70523819800002
 30
0.0
  0
SEQEND
  5
FB9
  8
1
  0
LINE
  5
BAD
  8
1
 10
9.244089001400198
 20
44.62573293010001
 30
0.0
 11
9.244089001400198
 21
-44.62573293009999
 31
0.0
  0
LINE
  5
BAE
  8
1
 10
9.244089001400198
 20
-44.62573293009999
 30
0.0
 11
7.962031053800047
 21
-46.85293358989998
 31
0.0
  0
LINE
  5
BAF
  8
1
 10
7.585705549800196
 20
-47.29184187659999
 30
0.0
 11
7.962031053800047
 21
-46.85293358989998
 31
0.0
  0
LINE
  5
BB0
  8
1
 10
18.55000000000018
 20
47.33141474630001
 30
0.0
 11
14.63929445020017
 21
47.33141474630001
 31
0.0
  0
LINE
  5
BB1
  8
1
 10
18.55000000000018
 20
47.33141474630001
 30
0.0
 11
18.55000000000018
 21
-47.29184187659999
 31
0.0
  0
LINE
  5
BB2
  8
1
 10
14.63929445020017
 20
-47.29184187659999
 30
0.0
 11
18.55000000000018
 21
-47.29184187659999
 31
0.0
  0
LINE
  5
BB3
  8
1
 10
14.63929445020017
 20
47.33141474630001
 30
0.0
 11
14.63929445020017
 21
-47.29184187659999
 31
0.0
  0
LINE
  5
BB4
  8
1
 10
13.09408900140011
 20
44.62573293010001
 30
0.0
 11
13.09408900140011
 21
-44.62573293009999
 31
0.0
  0
POLYLINE
  5
BB5
  8
1
 66
     1
 10
0.0
 20
0.0
 30
0.0
  0
VERTEX
  5
FA2
  8
1
 10
14.20930571899999
 20
46.70523819800002
 30
0.0
  0
VERTEX
  5
FA3
  8
1
 10
13.38165138250019
 20
45.16261287690001
 30
0.0
  0
VERTEX
  5
FA4
  8
1
 10
13.09408900140011
 20
44.62573293010001
 30
0.0
  0
SEQEND
  5
FB8
  8
1
  0
LINE
  5
BB6
  8
1
 10
14.63929445020017
 20
47.33141474630001
 30
0.0
 11
14.20930571899999
 21
46.70523819800002
 31
0.0
  0
LINE
  5
BB7
  8
1
 10
14.28865164870012
 20
-46.85293358989998
 30
0.0
 11
14.63929445020017
 21
-47.29184187659999
 31
0.0
  0
LINE
  5
BB8
  8
1
 10
14.28865164870012
 20
-46.85293358989998
 30
0.0
 11
13.09408900140011
 21
-44.62573293009999
 31
0.0
  0
LINE
  5
BB9
  8
1
 10
19.05000000000018
 20
46.92611139050001
 30
0.0
 11
18.55000000000018
 21
47.33141474630001
 31
0.0
  0
LINE
  5
BBA
  8
1
 10
19.05000000000018
 20
46.92611139050001
 30
0.0
 11
19.05000000000018
 21
-46.94360369829997
 31
0.0
  0
LINE
  5
BBB
  8
1
 10
18.55000000000018
 20
-47.29184187659999
 30
0.0
 11
19.05000000000018
 21
-46.94360369829997
 31
0.0
  0
LINE
  5
BBC
  8
1
 10
3.675000000000182
 20
47.33141474630001
 30
0.0
 11
3.175000000000182
 21
46.92611139050001
 31
0.0
  0
LINE
  5
BBD
  8
1
 10
3.175000000000182
 20
-46.94360369829997
 30
0.0
 11
3.675000000000182
 21
-47.29184187659999
 31
0.0
  0
LINE
  5
BBE
  8
1
 10
3.175000000000182
 20
46.92611139050001
 30
0.0
 11
3.175000000000182
 21
-46.94360369829997
 31
0.0
  0
ARC
  5
BBF
  8
1
 10
12.58546191350001
 20
44.30759731290001
 30
0.0
 40
0.508771788208606
 50
270.9715936099958
 51
1.366536060099606
  0
ARC
  5
BC0
  8
1
 10
12.58424745090019
 20
-44.30876319999999
 30
0.0
 40
0.5099594999685655
 50
358.7676724876005
 51
88.89419784220237
  0
ARC
  5
BC1
  8
1
 10
9.754132966899988
 20
44.30895751890002
 30
0.0
 40
0.5101577277244376
 50
178.7899802985996
 51
268.8718900328896
  0
ARC
  5
BC2
  8
1
 10
9.755291154000133
 20
-44.31006938129997
 30
0.0
 40
0.5112934391561212
 50
91.25541885500107
 51
181.0827108151017
  0
LINE
  5
BC3
  8
1
 10
12.59408900140011
 20
43.79889867340002
 30
0.0
 11
9.744089001400198
 21
43.79889867340002
 31
0.0
  0
LINE
  5
BC4
  8
1
 10
12.59408900140011
 20
-43.7988986734
 30
0.0
 11
9.744089001400198
 21
-43.7988986734
 31
0.0
  0
LINE
  5
BC6
  8
1
 10
34.55
 20
-34.92499999999998
 30
0.0
 11
34.55
 21
34.92500000000001
 31
0.0
  0
LINE
  5
BC7
  8
1
 10
0.0
 20
34.92500000000001
 30
0.0
 11
0.0
 21
-34.92499999999998
 31
0.0
  0
LINE
  5
BC8
  8
1
 10
35.05
 20
34.42500000000001
 30
0.0
 11
35.05
 21
-34.42499999999998
 31
0.0
  0
LINE
  5
BC9
  8
SK1
 10
-101.5999999999999
 20
18.1192879614
 30
0.0
 11
-101.5999999999999
 21
-18.11928794289997
 31
0.0
  0
LINE
  5
BE8
  8
3
 10
3.175000000000182
 20
37.72000000000003
 30
0.0
 11
19.05000000000018
 21
37.72000000000003
 31
0.0
  0
LINE
  5
BED
  8
3
 10
3.175000000000182
 20
-35.29999999999998
 30
0.0
 11
19.05000000000018
 21
-35.29999999999998
 31
0.0
  0
LINE
  5
BF9
  8
3
 10
26.97500000000014
 20
28.32500000000002
 30
0.0
 11
33.32500000000005
 21
28.32500000000002
 31
0.0
  0
LINE
  5
BFA
  8
3
 10
20.625
 20
28.32500000000002
 30
0.0
 11
26.97500000000014
 21
28.32500000000002
 31
0.0
  0
LINE
  5
C01
  8
3
 10
11.11250000000018
 20
37.32000000000002
 30
0.0
 11
15.86250000000018
 21
37.32000000000002
 31
0.0
  0
LINE
  5
C02
  8
3
 10
6.362500000000182
 20
37.32000000000002
 30
0.0
 11
11.11250000000018
 21
37.32000000000002
 31
0.0
  0
LINE
  5
C19
  8
3
 10
20.625
 20
34.92500000000001
 30
0.0
 11
20.625
 21
28.32500000000002
 31
0.0
  0
LINE
  5
C1A
  8
3
 10
33.32500000000005
 20
28.32500000000002
 30
0.0
 11
33.32500000000005
 21
34.92500000000001
 31
0.0
  0
LINE
  5
C1B
  8
3
 10
20.625
 20
28.32500000000002
 30
0.0
 11
26.97500000000014
 21
24.50953506920001
 31
0.0
  0
LINE
  5
C1C
  8
3
 10
26.97500000000014
 20
24.50953506920001
 30
0.0
 11
33.32500000000005
 21
28.32500000000002
 31
0.0
  0
LINE
  5
C1D
  8
3
 10
6.362500000000182
 20
37.72000000000003
 30
0.0
 11
6.362500000000182
 21
37.32000000000002
 31
0.0
  0
LINE
  5
C1E
  8
3
 10
15.86250000000018
 20
37.32000000000002
 30
0.0
 11
15.86250000000018
 21
37.72000000000003
 31
0.0
  0
LINE
  5
C27
  8
1
 10
20.05000000000018
 20
-34.92499999999998
 30
0.0
 11
20.05000000000018
 21
34.92500000000001
 31
0.0
  0
LINE
  5
C28
  8
1
 10
2.675000000000182
 20
-34.92499999999998
 30
0.0
 11
2.675000000000182
 21
34.92500000000001
 31
0.0
  0
LINE
  5
C2F
  8
1
 10
9.744089001400198
 20
-43.7988986734
 30
0.0
 11
9.744089001400198
 21
43.79889867340002
 31
0.0
  0
LINE
  5
C30
  8
1
 10
12.59408900140011
 20
-43.7988986734
 30
0.0
 11
12.59408900140011
 21
43.79889867340002
 31
0.0
  0
LINE
  5
C36
  8
SK4
 10
0.0000000000000284
 20
-0.0000000002000036
 30
0.0
 11
-101.5999999999999
 21
0.0000000092500159
 31
0.0
  0
LINE
  5
C3C
  8
SK3
 10
-99.52153903089993
 20
-13.09999999075
 30
0.0
 11
-99.52153903089993
 21
13.10000000925001
 31
0.0
  0
LINE
  5
C3F
  8
SK3
 10
-95.24999999999991
 20
-13.09999999075
 30
0.0
 11
-95.24999999999991
 21
13.10000000925001
 31
0.0
  0
LINE
  5
C40
  8
SK3
 10
-99.52153903089993
 20
13.10000000925001
 30
0.0
 11
-101.5999999999999
 21
14.30000000925002
 31
0.0
  0
LINE
  5
C41
  8
SK3
 10
-95.24999999999991
 20
13.10000000925001
 30
0.0
 11
-99.52153903089993
 21
13.10000000925001
 31
0.0
  0
LINE
  5
C42
  8
SK3
 10
0.0
 20
11.09980000925001
 30
0.0
 11
-95.24999999999991
 21
11.09980000925001
 31
0.0
  0
LINE
  5
C43
  8
SK3
 10
-57.09999999999991
 20
12.70000000925001
 30
0.0
 11
-95.24999999999991
 21
12.70000000925001
 31
0.0
  0
LINE
  5
C44
  8
SK3
 10
-57.09999999999991
 20
12.70000000925001
 30
0.0
 11
-57.09999999999991
 21
-12.69999999074997
 31
0.0
  0
LINE
  5
C45
  8
SK3
 10
-101.5999999999999
 20
-14.29999999074999
 30
0.0
 11
-99.52153903089993
 21
-13.09999999075
 31
0.0
  0
LINE
  5
C46
  8
SK3
 10
-99.52153903089993
 20
-13.09999999075
 30
0.0
 11
-95.24999999999991
 21
-13.09999999075
 31
0.0
  0
LINE
  5
C47
  8
SK3
 10
-95.24999999999991
 20
-11.09979999075
 30
0.0
 11
0.0000000000000142
 21
-11.09979999075
 31
0.0
  0
LINE
  5
C48
  8
SK3
 10
-95.24999999999991
 20
-12.69999999074997
 30
0.0
 11
-57.09999999999991
 21
-12.69999999074997
 31
0.0
  0
ARC
  5
D06
  8
1
 10
40.05
 20
14.5
 30
0.0
 40
5.0
 50
180.0
 51
270.0
  0
ARC
  5
D07
  8
1
 10
40.05
 20
-14.5
 30
0.0
 40
5.0
 50
90.0
 51
180.0
  0
LINE
  5
D08
  8
1
 10
40.05
 20
-9.5
 30
0.0
 11
47.0
 21
-9.5
 31
0.0
  0
LINE
  5
D09
  8
1
 10
47.0
 20
9.5
 30
0.0
 11
40.05
 21
9.5
 31
0.0
  0
LINE
  5
D0A
  8
1
 10
47.0
 20
-9.5
 30
0.0
 11
47.5
 21
-9.0
 31
0.0
  0
LINE
  5
D0B
  8
1
 10
47.5
 20
9.0
 30
0.0
 11
47.0
 21
9.5
 31
0.0
  0
CIRCLE
  5
D0C
  8
1
 10
42.44999999999999
 20
0.0
 30
0.0
 40
1.799999999999984
  0
LINE
  5
D0D
  8
1
 10
42.44999999999999
 20
-1.154700538399993
 30
0.0
 11
43.44999999999999
 21
-0.5773502691999965
 31
0.0
  0
LINE
  5
D0E
  8
1
 10
43.44999999999999
 20
-0.5773502691999965
 30
0.0
 11
43.44999999999999
 21
0.5773502691999965
 31
0.0
  0
LINE
  5
D0F
  8
1
 10
42.44999999999999
 20
1.154700538399993
 30
0.0
 11
41.44999999999999
 21
0.5773502691999965
 31
0.0
  0
LINE
  5
D10
  8
1
 10
41.44999999999999
 20
0.5773502691999965
 30
0.0
 11
41.44999999999999
 21
-0.5773502691999965
 31
0.0
  0
LINE
  5
D11
  8
1
 10
43.44999999999999
 20
0.5773502691999965
 30
0.0
 11
42.44999999999999
 21
1.154700538399993
 31
0.0
  0
LINE
  5
D12
  8
1
 10
41.44999999999999
 20
-0.5773502691999965
 30
0.0
 11
42.44999999999999
 21
-1.154700538399993
 31
0.0
  0
LINE
  5
D36
  8
1
 10
47.0
 20
-9.5
 30
0.0
 11
47.0
 21
9.5
 31
0.0
  0
ARC
  5
D37
  8
1
 10
42.44999999999999
 20
0.0
 30
0.0
 40
2.099999999999966
 50
0.0
 51
180.0
  0
ARC
  5
D38
  8
1
 10
42.44999999999999
 20
0.0
 30
0.0
 40
2.099999999999994
 50
180.0
 51
0.0
  0
LINE
  5
D39
  8
1
 10
47.5
 20
9.0
 30
0.0
 11
47.5
 21
-9.0
 31
0.0
  0
ARC
  5
D3A
  8
1
 10
42.44999999999999
 20
0.0
 30
0.0
 40
2.095000000000014
 50
340.0781919534006
 51
23.48558467500061
  0
POLYLINE
  5
D3B
  8
1
 66
     1
 10
0.0
 20
0.0
 30
0.0
  0
VERTEX
  5
FA5
  8
1
 10
40.41516449349999
 20
0.4984671119000268
 30
0.0
  0
VERTEX
  5
FA6
  8
1
 10
40.35499999999999
 20
0.0
 30
0.0
  0
VERTEX
  5
FA7
  8
1
 10
40.36116096909998
 20
-0.1605506244999901
 30
0.0
  0
SEQEND
  5
FB7
  8
1
  0
LINE
  5
D52
  8
3
 10
22.75
 20
0.0
 30
0.0
 11
22.75
 21
11.10000002500001
 31
0.0
  0
LINE
  5
D53
  8
3
 10
22.75
 20
-11.10000002499999
 30
0.0
 11
22.75
 21
0.0
 31
0.0
  0
LINE
  5
D54
  8
3
 10
24.38916416269998
 20
0.0
 30
0.0
 11
24.38916416269998
 21
-4.0
 31
0.0
  0
LINE
  5
D55
  8
3
 10
24.38916416269998
 20
4.0
 30
0.0
 11
24.38916416269998
 21
0.0
 31
0.0
  0
LINE
  5
D5A
  8
3
 10
35.75
 20
0.0
 30
0.0
 11
35.75
 21
5.75
 31
0.0
  0
LINE
  5
D5B
  8
3
 10
35.75
 20
-5.75
 30
0.0
 11
35.75
 21
0.0
 31
0.0
  0
LINE
  5
D5C
  8
3
 10
33.5
 20
0.0
 30
0.0
 11
33.5
 21
5.75
 31
0.0
  0
LINE
  5
D5D
  8
3
 10
33.5
 20
-5.75
 30
0.0
 11
33.5
 21
0.0
 31
0.0
  0
LINE
  5
D5E
  8
3
 10
33.09598066549998
 20
-4.0
 30
0.0
 11
33.09598066549998
 21
4.0
 31
0.0
  0
LINE
  5
D5F
  8
3
 10
36.0
 20
0.0
 30
0.0
 11
36.0
 21
5.5
 31
0.0
  0
LINE
  5
D60
  8
3
 10
36.0
 20
-5.5
 30
0.0
 11
36.0
 21
0.0
 31
0.0
  0
LINE
  5
D61
  8
3
 10
47.09999999999999
 20
-4.846639543700007
 30
0.0
 11
41.59999999999999
 21
-4.846639543700007
 31
0.0
  0
LINE
  5
D62
  8
3
 10
41.59999999999999
 20
4.846639543799995
 30
0.0
 11
47.09999999999999
 21
4.846639543799995
 31
0.0
  0
LINE
  5
D63
  8
3
 10
47.09999999999999
 20
4.846639543799995
 30
0.0
 11
47.09999999999999
 21
-4.846639543700007
 31
0.0
  0
LINE
  5
D66
  8
3
 10
47.5
 20
5.143412748000003
 30
0.0
 11
47.09999999999999
 21
4.846639543799995
 31
0.0
  0
LINE
  5
D67
  8
3
 10
47.5
 20
-5.143412747899987
 30
0.0
 11
47.09999999999999
 21
-4.846639543700007
 31
0.0
  0
LINE
  5
D68
  8
3
 10
47.09999999999999
 20
-4.846639543700007
 30
0.0
 11
47.09999999999999
 21
-7.099999999999994
 31
0.0
  0
LINE
  5
D69
  8
3
 10
41.59999999999999
 20
-4.846639543700007
 30
0.0
 11
41.59999999999999
 21
-7.099999999999994
 31
0.0
  0
LINE
  5
D6A
  8
3
 10
47.09999999999999
 20
7.100000000000023
 30
0.0
 11
47.09999999999999
 21
4.846639543799995
 31
0.0
  0
LINE
  5
D6B
  8
3
 10
41.59999999999999
 20
7.100000000000023
 30
0.0
 11
41.59999999999999
 21
4.846639543799995
 31
0.0
  0
LINE
  5
D6C
  8
3
 10
47.09999999999999
 20
7.850000000000023
 30
0.0
 11
47.09999999999999
 21
7.100000000000023
 31
0.0
  0
LINE
  5
D6D
  8
3
 10
47.09999999999999
 20
-7.099999999999994
 30
0.0
 11
47.09999999999999
 21
-7.849999999999994
 31
0.0
  0
LINE
  5
D6E
  8
3
 10
41.59999999999999
 20
7.850000000000023
 30
0.0
 11
41.59999999999999
 21
7.100000000000023
 31
0.0
  0
LINE
  5
D6F
  8
3
 10
41.59999999999999
 20
-7.099999999999994
 30
0.0
 11
41.59999999999999
 21
-7.849999999999994
 31
0.0
  0
LINE
  5
D78
  8
3
 10
22.75
 20
-11.10000002499999
 30
0.0
 11
24.38916416269998
 21
-4.0
 31
0.0
  0
LINE
  5
D79
  8
3
 10
24.38916416269998
 20
4.0
 30
0.0
 11
22.75
 21
11.10000002500001
 31
0.0
  0
LINE
  5
D7E
  8
3
 10
33.5
 20
-5.75
 30
0.0
 11
35.75
 21
-5.75
 31
0.0
  0
LINE
  5
D7F
  8
3
 10
35.75
 20
5.75
 30
0.0
 11
33.5
 21
5.75
 31
0.0
  0
LINE
  5
D80
  8
3
 10
33.5
 20
5.75
 30
0.0
 11
33.09598066549998
 21
4.0
 31
0.0
  0
LINE
  5
D81
  8
3
 10
33.09598066549998
 20
-4.0
 30
0.0
 11
33.5
 21
-5.75
 31
0.0
  0
LINE
  5
D82
  8
3
 10
35.75
 20
-5.75
 30
0.0
 11
36.0
 21
-5.5
 31
0.0
  0
LINE
  5
D83
  8
3
 10
36.0
 20
5.5
 30
0.0
 11
35.75
 21
5.75
 31
0.0
  0
LINE
  5
D84
  8
3
 10
41.59999999999999
 20
5.5
 30
0.0
 11
36.0
 21
5.5
 31
0.0
  0
LINE
  5
D85
  8
3
 10
36.0
 20
-5.5
 30
0.0
 11
41.59999999999999
 21
-5.5
 31
0.0
  0
LINE
  5
D88
  8
3
 10
33.09598066549998
 20
4.0
 30
0.0
 11
24.38916416269998
 21
4.0
 31
0.0
  0
LINE
  5
D89
  8
3
 10
24.38916416269998
 20
-4.0
 30
0.0
 11
33.09598066549998
 21
-4.0
 31
0.0
  0
LINE
  5
D8A
  8
3
 10
47.5
 20
8.25
 30
0.0
 11
47.09999999999999
 21
7.850000000000023
 31
0.0
  0
LINE
  5
D8B
  8
3
 10
47.09999999999999
 20
-7.849999999999994
 30
0.0
 11
47.5
 21
-8.25
 31
0.0
  0
LINE
  5
D8C
  8
3
 10
47.09999999999999
 20
7.850000000000023
 30
0.0
 11
41.59999999999999
 21
7.850000000000023
 31
0.0
  0
LINE
  5
D8D
  8
3
 10
41.59999999999999
 20
-7.849999999999994
 30
0.0
 11
47.09999999999999
 21
-7.849999999999994
 31
0.0
  0
LINE
  5
D91
  8
1
 10
40.05
 20
-9.5
 30
0.0
 11
40.05
 21
9.5
 31
0.0
  0
LINE
  5
DAC
  8
3
 10
0.0
 20
11.09980000925001
 30
0.0
 11
22.75
 21
11.10000002500001
 31
0.0
  0
LINE
  5
DAD
  8
3
 10
0.0000000000000142
 20
-11.09979999075
 30
0.0
 11
22.75
 21
-11.10000002499999
 31
0.0
  0
DIMENSION
  5
DC5
  8
SK2
  2
*D17
 10
59.56925595309501
 20
-9.5
 30
0.0
 11
57.69425595309501
 21
0.0
 31
0.0
 70
    32
  3
ISO-25
 13
47.0
 23
9.5
 33
0.0
 14
47.0
 24
-9.5
 34
0.0
 50
90.0
1001
ACAD
1000
DSTYLE
1002
{
1070
   287
1070
     5
1070
   271
1070
     3
1070
   272
1070
     3
1070
   279
1070
     2
1002
}
  0
ARC
  5
DEE
  8
NOCUT
 10
20.05000000000013
 20
35.92499999674071
 30
0.0
 40
1.0
 50
180.0
 51
270.0
  0
ARC
  5
DF0
  8
NOCUT
 10
2.675000000000125
 20
35.42499999674071
 30
0.0
 40
0.5000000000002274
 50
270.0
 51
0.0
  0
LINE
  5
DF1
  8
NOCUT
 10
34.55
 20
34.92499999674071
 30
0.0
 11
20.05000000000013
 21
34.92499999674071
 31
0.0
  0
LINE
  5
DF3
  8
NOCUT
 10
2.675000000000125
 20
34.92499999674071
 30
0.0
 11
-0.0000000000000568
 21
34.92499999674071
 31
0.0
  0
LINE
  5
DF4
  8
NOCUT
 10
35.04999999999994
 20
34.42499999674071
 30
0.0
 11
34.54999999999994
 21
34.92499999674071
 31
0.0
  0
LINE
  5
DF5
  8
NOCUT
 10
7.585705549800139
 20
47.33141474304072
 30
0.0
 11
3.675000000000125
 21
47.33141474304072
 31
0.0
  0
LINE
  5
DF6
  8
NOCUT
 10
8.04718864690011
 20
46.70523819474072
 30
0.0
 11
7.585705549800139
 21
47.33141474304072
 31
0.0
  0
LINE
  5
DF7
  8
NOCUT
 10
18.55000000000013
 20
47.33141474304072
 30
0.0
 11
14.63929445020011
 21
47.33141474304072
 31
0.0
  0
LINE
  5
DF8
  8
NOCUT
 10
14.63929445020011
 20
47.33141474304072
 30
0.0
 11
14.20930571899993
 21
46.70523819474072
 31
0.0
  0
LINE
  5
DF9
  8
NOCUT
 10
19.05000000000013
 20
46.92611138724071
 30
0.0
 11
18.55000000000013
 21
47.33141474304072
 31
0.0
  0
LINE
  5
DFA
  8
NOCUT
 10
3.675000000000125
 20
47.33141474304072
 30
0.0
 11
3.175000000000125
 21
46.92611138724071
 31
0.0
  0
ARC
  5
DFB
  8
NOCUT
 10
12.58546191349996
 20
44.30759730964071
 30
0.0
 40
0.508771788208606
 50
270.9715936099958
 51
1.366536060099577
  0
ARC
  5
DFC
  8
NOCUT
 10
9.754132966899931
 20
44.30895751564073
 30
0.0
 40
0.5101577277244376
 50
178.7899802985996
 51
268.8718900328896
  0
LINE
  5
DFD
  8
NOCUT
 10
12.59408900140005
 20
43.79889867014073
 30
0.0
 11
9.744089001400141
 21
43.79889867014073
 31
0.0
  0
POLYLINE
  5
DFF
  8
NOCUT
 66
     1
 10
0.0
 20
0.0
 30
0.0
  0
VERTEX
  5
FA8
  8
NOCUT
 10
14.20930571899993
 20
46.70523819474072
 30
0.0
  0
VERTEX
  5
FA9
  8
NOCUT
 10
13.38165138250014
 20
45.16261287364073
 30
0.0
  0
VERTEX
  5
FAA
  8
NOCUT
 10
13.09408900140005
 20
44.62573292684071
 30
0.0
  0
SEQEND
  5
FB6
  8
NOCUT
  0
POLYLINE
  5
E00
  8
NOCUT
 66
     1
 10
0.0
 20
0.0
 30
0.0
  0
VERTEX
  5
FAB
  8
NOCUT
 10
9.244089001400141
 20
44.62573292684071
 30
0.0
  0
VERTEX
  5
FAC
  8
NOCUT
 10
8.91841225920001
 20
45.19226217864075
 30
0.0
  0
VERTEX
  5
FAD
  8
NOCUT
 10
8.04718864690011
 20
46.70523819474072
 30
0.0
  0
SEQEND
  5
FB5
  8
NOCUT
  0
LINE
  5
E01
  8
NOCUT
 10
35.04999999999994
 20
34.42499999674071
 30
0.0
 11
35.04999999999994
 21
14.49999999674071
 31
0.0
  0
LINE
  5
E02
  8
NOCUT
 10
47.49999999999994
 20
8.999999996740712
 30
0.0
 11
46.99999999999994
 21
9.499999996740712
 31
0.0
  0
LINE
  5
E03
  8
NOCUT
 10
47.04999999999994
 20
9.499999996740712
 30
0.0
 11
40.04999999999994
 21
9.499999996740712
 31
0.0
  0
ARC
  5
E04
  8
NOCUT
 10
40.04999999999994
 20
14.49999999674071
 30
0.0
 40
5.0
 50
180.0
 51
270.0
  0
LINE
  5
E05
  8
NOCUT
 10
47.49999999999994
 20
8.999999996740712
 30
0.0
 11
47.49999999999994
 21
-0.0000000032592844
 31
0.0
  0
LINE
  5
E06
  8
NOCUT
 10
-0.0000000000000568
 20
34.92499999674071
 30
0.0
 11
-0.0000000000000568
 21
0.0
 31
0.0
  0
LINE
  5
E08
  8
NOCUT
 10
3.175000000000125
 20
46.92611138724071
 30
0.0
 11
3.175000000000352
 21
35.42499999674071
 31
0.0
  0
LINE
  5
E09
  8
NOCUT
 10
19.05000000000013
 20
46.92611138724071
 30
0.0
 11
19.05000000000013
 21
35.92499999674071
 31
0.0
  0
TEXT
  5
F93
  8
SK6
 10
-94.2595579589377
 20
47.33203563734095
 30
0.0
 40
3.5
  1
BIG KAISER
 41
0.85
  0
TEXT
  5
F96
  8
SK6
 10
-94.2595579589377
 20
42.08203563734095
 30
0.0
 40
3.5
  1
11.326.610
 41
0.85
  0
INSERT
  5
F97
  8
SK6
  2
_FILLED
 10
-20.29352190436791
 20
-31.96550091538896
 30
0.0
 41
3.5
 42
3.5
 43
3.5
 50
55.49325986033524
  0
TEXT
  5
F9B
  8
SK6
 10
-56.17129147223457
 20
-56.26042597418896
 30
0.0
 40
3.5
  1
CV50
 41
0.85
  0
POLYLINE
  5
F9C
  8
SK6
 66
     1
 10
0.0
 20
0.0
 30
0.0
  0
VERTEX
  5
FAE
  8
SK6
 10
-22.27628303876551
 20
-34.84970934820417
 30
0.0
  0
VERTEX
  5
FAF
  8
SK6
 10
-35.79212480556791
 20
-54.51042597418896
 30
0.0
  0
VERTEX
  5
FB0
  8
SK6
 10
-37.66712480556791
 20
-52.76042597418896
 30
0.0
  0
VERTEX
  5
FB1
  8
SK6
 10
-41.16712480556791
 20
-52.76042597418896
 30
0.0
  0
SEQEND
  5
FB4
  8
SK6
  0
ENDSEC
  0
EOF
