  0
SECTION
  2
HEADER
  9
$ACADVER
  1
AC1009
  9
$DWGCODEPAGE
  3
ansi_1251
  9
$INSBASE
 10
0.0
 20
0.0
 30
0.0
  9
$EXTMIN
 10
1.000000000000000E+20
 20
1.000000000000000E+20
 30
1.000000000000000E+20
  9
$EXTMAX
 10
-1.000000000000000E+20
 20
-1.000000000000000E+20
 30
-1.000000000000000E+20
  9
$LIMMIN
 10
0.0
 20
0.0
  9
$LIMMAX
 10
420.0
 20
297.0
  9
$ORTHOMODE
 70
     1
  9
$REGENMODE
 70
     1
  9
$FILLMODE
 70
     1
  9
$QTEXTMODE
 70
     0
  9
$MIRRTEXT
 70
     0
  9
$DRAGMODE
 70
     2
  9
$LTSCALE
 40
1.0
  9
$OSMODE
 70
   279
  9
$ATTMODE
 70
     1
  9
$TEXTSIZE
 40
2.5
  9
$TRACEWID
 40
1.0
  9
$TEXTSTYLE
  7
STANDARD
  9
$CLAYER
  8
0
  9
$CELTYPE
  6
BYLAYER
  9
$CECOLOR
 62
   256
  9
$DIMSCALE
 40
1.0
  9
$DIMASZ
 40
2.5
  9
$DIMEXO
 40
0.625
  9
$DIMDLI
 40
3.75
  9
$DIMRND
 40
0.0
  9
$DIMDLE
 40
0.0
  9
$DIMEXE
 40
1.25
  9
$DIMTP
 40
0.0
  9
$DIMTM
 40
0.0
  9
$DIMTXT
 40
2.5
  9
$DIMCEN
 40
2.5
  9
$DIMTSZ
 40
0.0
  9
$DIMTOL
 70
     0
  9
$DIMLIM
 70
     0
  9
$DIMTIH
 70
     0
  9
$DIMTOH
 70
     0
  9
$DIMSE1
 70
     0
  9
$DIMSE2
 70
     0
  9
$DIMTAD
 70
     1
  9
$DIMZIN
 70
     8
  9
$DIMBLK
  1

  9
$DIMASO
 70
     1
  9
$DIMSHO
 70
     1
  9
$DIMPOST
  1

  9
$DIMAPOST
  1

  9
$DIMALT
 70
     0
  9
$DIMALTD
 70
     3
  9
$DIMALTF
 40
0.03937007874016
  9
$DIMLFAC
 40
1.0
  9
$DIMTOFL
 70
     1
  9
$DIMTVP
 40
0.0
  9
$DIMTIX
 70
     0
  9
$DIMSOXD
 70
     0
  9
$DIMSAH
 70
     0
  9
$DIMBLK1
  1

  9
$DIMBLK2
  1

  9
$DIMSTYLE
  2
ISO-25
  9
$DIMCLRD
 70
     0
  9
$DIMCLRE
 70
     0
  9
$DIMCLRT
 70
     0
  9
$DIMTFAC
 40
1.0
  9
$DIMGAP
 40
0.625
  9
$LUNITS
 70
     2
  9
$LUPREC
 70
     3
  9
$SKETCHINC
 40
1.0
  9
$FILLETRAD
 40
10.0
  9
$AUNITS
 70
     0
  9
$AUPREC
 70
     0
  9
$MENU
  1
.
  9
$ELEVATION
 40
0.0
  9
$PELEVATION
 40
0.0
  9
$THICKNESS
 40
0.0
  9
$LIMCHECK
 70
     0
  9
$CHAMFERA
 40
10.0
  9
$CHAMFERB
 40
10.0
  9
$SKPOLY
 70
     0
  9
$TDCREATE
 40
2455022.429026158
  9
$TDUPDATE
 40
2455022.429026158
  9
$TDINDWG
 40
0.0000000116
  9
$TDUSRTIMER
 40
2458688.820032916
  9
$USRTIMER
 70
     1
  9
$ANGBASE
 50
0.0
  9
$ANGDIR
 70
     0
  9
$PDMODE
 70
     0
  9
$PDSIZE
 40
0.0
  9
$PLINEWID
 40
0.0
  9
$COORDS
 70
     1
  9
$SPLFRAME
 70
     0
  9
$SPLINETYPE
 70
     6
  9
$SPLINESEGS
 70
     8
  9
$ATTDIA
 70
     0
  9
$ATTREQ
 70
     1
  9
$HANDLING
 70
     1
  9
$HANDSEED
  5
190F
  9
$SURFTAB1
 70
     6
  9
$SURFTAB2
 70
     6
  9
$SURFTYPE
 70
     6
  9
$SURFU
 70
     6
  9
$SURFV
 70
     6
  9
$UCSNAME
  2

  9
$UCSORG
 10
0.0
 20
0.0
 30
0.0
  9
$UCSXDIR
 10
1.0
 20
0.0
 30
0.0
  9
$UCSYDIR
 10
0.0
 20
1.0
 30
0.0
  9
$PUCSNAME
  2

  9
$PUCSORG
 10
0.0
 20
0.0
 30
0.0
  9
$PUCSXDIR
 10
1.0
 20
0.0
 30
0.0
  9
$PUCSYDIR
 10
0.0
 20
1.0
 30
0.0
  9
$USERI1
 70
     0
  9
$USERI2
 70
     0
  9
$USERI3
 70
     0
  9
$USERI4
 70
     0
  9
$USERI5
 70
     0
  9
$USERR1
 40
0.0
  9
$USERR2
 40
0.0
  9
$USERR3
 40
0.0
  9
$USERR4
 40
0.0
  9
$USERR5
 40
0.0
  9
$WORLDVIEW
 70
     1
  9
$SHADEDGE
 70
     3
  9
$SHADEDIF
 70
    70
  9
$TILEMODE
 70
     1
  9
$MAXACTVP
 70
    64
  9
$PLIMCHECK
 70
     0
  9
$PEXTMIN
 10
1.000000000000000E+20
 20
1.000000000000000E+20
 30
1.000000000000000E+20
  9
$PEXTMAX
 10
-1.000000000000000E+20
 20
-1.000000000000000E+20
 30
-1.000000000000000E+20
  9
$PLIMMIN
 10
0.0
 20
0.0
  9
$PLIMMAX
 10
420.0
 20
297.0
  9
$UNITMODE
 70
     0
  9
$VISRETAIN
 70
     1
  9
$PLINEGEN
 70
     0
  9
$PSLTSCALE
 70
     1
  0
ENDSEC
  0
SECTION
  2
TABLES
  0
TABLE
  2
VPORT
 70
     1
  0
VPORT
  2
*ACTIVE
 70
     0
 10
0.0
 20
0.0
 11
1.0
 21
1.0
 12
191.6663711710401
 22
1.280470270319107
 13
0.0
 23
0.0
 14
10.0
 24
10.0
 15
10.0
 25
10.0
 16
0.0
 26
0.0
 36
1.0
 17
-134.1869158878504
 27
0.0
 37
0.0
 40
192.4314305202776
 41
1.332880434782609
 42
50.0
 43
0.0
 44
0.0
 50
0.0
 51
0.0
 71
    16
 72
  1000
 73
     1
 74
     3
 75
     0
 76
     0
 77
     0
 78
     0
  0
ENDTAB
  0
TABLE
  2
LTYPE
 70
     6
  0
LTYPE
  2
CONTINUOUS
 70
     0
  3
Solid line
 72
    65
 73
     0
 40
0.0
  0
LTYPE
  2
CENTER
 70
     0
  3
 Center _____  _  _____  _  _____  _  _____  _ 
 72
    65
 73
     4
 40
50.8
 49
31.75
 49
-6.35
 49
6.35
 49
-6.35
  0
LTYPE
  2
DASHED
 70
     0
  3
Dashed __  __  __  __  __  __  __  __  __  __  
 72
    65
 73
     2
 40
19.05
 49
12.7
 49
-6.35
  0
LTYPE
  2
HIDDEN
 70
     0
  3
Hidden __ __ __ __ __ __ __ __ __ __ __ __ __ __
 72
    65
 73
     2
 40
1.905
 49
1.27
 49
-0.635
  0
LTYPE
  2
CENTERX2
 70
     0
  3
Center (2x) ________  __  ________  __  _____
 72
    65
 73
     4
 40
20.32
 49
12.7
 49
-2.54
 49
2.54
 49
-2.54
  0
LTYPE
  2
PHANTOM
 70
     0
  3
Phantom ______  __  __  ______  __  __  ______
 72
    65
 73
     6
 40
12.7
 49
6.35
 49
-1.27
 49
1.27
 49
-1.27
 49
1.27
 49
-1.27
  0
ENDTAB
  0
TABLE
  2
LAYER
 70
    26
  0
LAYER
  2
0
 70
     0
 62
     7
  6
CONTINUOUS
  0
LAYER
  2
1
 70
     0
 62
     4
  6
CONTINUOUS
  0
LAYER
  2
2
 70
     0
 62
     7
  6
CONTINUOUS
  0
LAYER
  2
3
 70
     0
 62
     1
  6
DASHED
  0
LAYER
  2
4
 70
     0
 62
     2
  6
CENTER
  0
LAYER
  2
6
 70
     0
 62
     5
  6
CONTINUOUS
  0
LAYER
  2
7
 70
     0
 62
     5
  6
CONTINUOUS
  0
LAYER
  2
11
 70
     0
 62
     4
  6
CONTINUOUS
  0
LAYER
  2
SK1
 70
     0
 62
     4
  6
CONTINUOUS
  0
LAYER
  2
SK2
 70
     0
 62
     7
  6
CONTINUOUS
  0
LAYER
  2
SK3
 70
     0
 62
     1
  6
DASHED
  0
LAYER
  2
SK4
 70
     0
 62
     2
  6
CENTER
  0
LAYER
  2
SK6
 70
     0
 62
     5
  6
CONTINUOUS
  0
LAYER
  2
SK7
 70
     0
 62
     5
  6
CONTINUOUS
  0
LAYER
  2
SK11
 70
     0
 62
     4
  6
CONTINUOUS
  0
LAYER
  2
CUT
 70
     0
 62
     1
  6
CONTINUOUS
  0
LAYER
  2
NOCUT
 70
     0
 62
    -7
  6
CONTINUOUS
  0
LAYER
  2
SKVIEW1
 70
     0
 62
     4
  6
CONTINUOUS
  0
LAYER
  2
SKVIEW2
 70
     0
 62
     7
  6
CONTINUOUS
  0
LAYER
  2
SKVIEW3
 70
     0
 62
     1
  6
DASHED
  0
LAYER
  2
SKVIEW4
 70
     0
 62
     2
  6
CENTER
  0
LAYER
  2
SKVIEW6
 70
     0
 62
     5
  6
CONTINUOUS
  0
LAYER
  2
SKVIEW7
 70
     0
 62
     5
  6
CONTINUOUS
  0
LAYER
  2
SKVIEW11
 70
     0
 62
     4
  6
CONTINUOUS
  0
LAYER
  2
INFTOTAL
 70
     0
 62
     9
  6
CONTINUOUS
  0
LAYER
  2
DEFPOINTS
 70
     0
 62
     7
  6
CONTINUOUS
  0
ENDTAB
  0
TABLE
  2
STYLE
 70
     1
  0
STYLE
  2
STANDARD
 70
     0
 40
0.0
 41
1.0
 50
0.0
 71
     0
 42
2.5
  3
txt
  4

  0
ENDTAB
  0
TABLE
  2
VIEW
 70
     0
  0
ENDTAB
  0
TABLE
  2
UCS
 70
     0
  0
ENDTAB
  0
TABLE
  2
APPID
 70
     2
  0
APPID
  2
ACAD
 70
     0
  0
APPID
  2
ACAECLAYERSTANDARD
 70
     0
  0
ENDTAB
  0
TABLE
  2
DIMSTYLE
 70
     1
  0
DIMSTYLE
  2
ISO-25
 70
     0
  3

  4

  5

  6

  7

 40
1.0
 41
2.5
 42
0.625
 43
3.75
 44
1.25
 45
0.0
 46
0.0
 47
0.0
 48
0.0
140
2.5
141
2.5
142
0.0
143
0.03937007874016
144
1.0
145
0.0
146
1.0
147
0.625
 71
     0
 72
     0
 73
     0
 74
     0
 75
     0
 76
     0
 77
     1
 78
     8
170
     0
171
     3
172
     1
173
     0
174
     0
175
     0
176
     0
177
     0
178
     0
  0
ENDTAB
  0
ENDSEC
  0
SECTION
  2
BLOCKS
  0
BLOCK
  8
0
  2
$MODEL_SPACE
 70
     0
 10
0.0
 20
0.0
 30
0.0
  3
$MODEL_SPACE
  1

  0
ENDBLK
  5
21
  8
0
  0
BLOCK
 67
     1
  8
0
  2
$PAPER_SPACE
 70
     0
 10
0.0
 20
0.0
 30
0.0
  3
$PAPER_SPACE
  1

  0
ENDBLK
  5
1D
 67
     1
  8
0
  0
BLOCK
  8
0
  2
_FILLED
 70
     0
 10
0.0
 20
0.0
 30
0.0
  3
_FILLED
  1

  0
SOLID
  5
1C4
  8
0
  6
BYBLOCK
 62
     0
 10
0.0
 20
0.0
 30
0.0
 11
-1.0
 21
0.2142857143
 31
0.0
 12
-1.0
 22
-0.2142857143
 32
0.0
 13
-1.0
 23
-0.2142857143
 33
0.0
  0
ENDBLK
  5
1C5
  8
0
  6
BYBLOCK
 62
     0
  0
BLOCK
  8
0
  2
*D1
 70
     1
 10
0.0
 20
0.0
 30
0.0
  3
*D1
  1

  0
LINE
  5
1D3
  8
2
 62
     0
 10
0.0
 20
22.84999999999999
 30
0.0
 11
0.0
 21
48.91573065769793
 31
0.0
  0
LINE
  5
1D4
  8
2
 62
     0
 10
153.0
 20
19.375
 30
0.0
 11
153.0
 21
48.91573065769793
 31
0.0
  0
LINE
  5
1D5
  8
2
 62
     0
 10
2.5
 20
47.66573065769793
 30
0.0
 11
150.5
 21
47.66573065769793
 31
0.0
  0
SOLID
  5
1D6
  8
2
 62
     0
 10
2.5
 20
48.08239732436459
 30
0.0
 11
2.5
 21
47.24906399103126
 31
0.0
 12
0.0
 22
47.66573065769793
 32
0.0
 13
0.0
 23
47.66573065769793
 33
0.0
  0
SOLID
  5
1D7
  8
2
 62
     0
 10
150.5
 20
47.24906399103126
 30
0.0
 11
150.5
 21
48.08239732436459
 31
0.0
 12
153.0
 22
47.66573065769793
 32
0.0
 13
153.0
 23
47.66573065769793
 33
0.0
  0
TEXT
  5
1D8
  8
2
  6
CONTINUOUS
 62
     0
 10
73.58333333333333
 20
48.29073065769793
 30
0.0
 40
2.5
  1
153
  0
POINT
  5
1D9
  8
DEFPOINTS
 62
     0
 10
0.0
 20
22.22499999999999
 30
0.0
  0
POINT
  5
1DA
  8
DEFPOINTS
 62
     0
 10
153.0
 20
18.75
 30
0.0
  0
POINT
  5
1DB
  8
DEFPOINTS
 62
     0
 10
153.0
 20
47.66573065769793
 30
0.0
  0
ENDBLK
  5
1DD
  8
0
  0
BLOCK
  8
0
  2
*D2
 70
     1
 10
0.0
 20
0.0
 30
0.0
  3
*D2
  1

  0
LINE
  5
211
  8
SK2
 62
     0
 10
0.0
 20
-22.84999999999999
 30
0.0
 11
0.0
 21
-48.27109509650273
 31
0.0
  0
LINE
  5
212
  8
SK2
 62
     0
 10
35.04999999999998
 20
-21.84999999999999
 30
0.0
 11
35.04999999999998
 21
-48.27109509650273
 31
0.0
  0
LINE
  5
213
  8
SK2
 62
     0
 10
2.5
 20
-47.02109509650273
 30
0.0
 11
32.54999999999998
 21
-47.02109509650273
 31
0.0
  0
SOLID
  5
214
  8
SK2
 62
     0
 10
2.5
 20
-46.60442842983606
 30
0.0
 11
2.5
 21
-47.43776176316939
 31
0.0
 12
0.0
 22
-47.02109509650273
 32
0.0
 13
0.0
 23
-47.02109509650273
 33
0.0
  0
SOLID
  5
215
  8
SK2
 62
     0
 10
32.54999999999998
 20
-47.43776176316939
 30
0.0
 11
32.54999999999998
 21
-46.60442842983606
 31
0.0
 12
35.04999999999998
 22
-47.02109509650273
 32
0.0
 13
35.04999999999998
 23
-47.02109509650273
 33
0.0
  0
TEXT
  5
216
  8
SK2
  6
CONTINUOUS
 62
     0
 10
12.73333333333333
 20
-46.39609509650273
 30
0.0
 40
2.5
  1
35.05
  0
POINT
  5
217
  8
DEFPOINTS
 62
     0
 10
0.0
 20
-22.22499999999999
 30
0.0
  0
POINT
  5
218
  8
DEFPOINTS
 62
     0
 10
35.04999999999998
 20
-21.22499999999999
 30
0.0
  0
POINT
  5
219
  8
DEFPOINTS
 62
     0
 10
35.04999999999998
 20
-47.02109509650273
 30
0.0
  0
ENDBLK
  5
21B
  8
0
  0
BLOCK
  8
0
  2
*D3
 70
     1
 10
0.0
 20
0.0
 30
0.0
  3
*D3
  1

  0
LINE
  5
55C
  8
SK2
 62
     0
 10
34.67499999999998
 20
22.22500000000001
 30
0.0
 11
183.2089105663794
 21
22.22500000000001
 31
0.0
  0
LINE
  5
55D
  8
SK2
 62
     0
 10
34.67499999999998
 20
-22.22500000000001
 30
0.0
 11
183.2089105663794
 21
-22.22500000000002
 31
0.0
  0
LINE
  5
55E
  8
SK2
 62
     0
 10
181.9589105663794
 20
19.72500000000001
 30
0.0
 11
181.9589105663794
 21
-19.72500000000002
 31
0.0
  0
SOLID
  5
55F
  8
SK2
 62
     0
 10
182.375577233046
 20
19.72500000000001
 30
0.0
 11
181.5422438997127
 21
19.72500000000001
 31
0.0
 12
181.9589105663794
 22
22.22500000000001
 32
0.0
 13
181.9589105663794
 23
22.22500000000001
 33
0.0
  0
SOLID
  5
560
  8
SK2
 62
     0
 10
181.5422438997127
 20
-19.72500000000002
 30
0.0
 11
182.375577233046
 21
-19.72500000000002
 31
0.0
 12
181.9589105663794
 22
-22.22500000000002
 32
0.0
 13
181.9589105663794
 23
-22.22500000000002
 33
0.0
  0
TEXT
  5
561
  8
SK2
  6
CONTINUOUS
 62
     0
 10
181.3339105663794
 20
-5.0
 30
0.0
 40
2.5
  1
44.45
 50
90.0
  0
POINT
  5
562
  8
DEFPOINTS
 62
     0
 10
34.04999999999998
 20
22.22500000000001
 30
0.0
  0
POINT
  5
563
  8
DEFPOINTS
 62
     0
 10
34.04999999999998
 20
-22.22500000000001
 30
0.0
  0
POINT
  5
564
  8
DEFPOINTS
 62
     0
 10
181.9589105663794
 20
-22.22500000000002
 30
0.0
  0
ENDBLK
  5
566
  8
0
  0
BLOCK
  8
0
  2
*D4
 70
     1
 10
0.0
 20
0.0
 30
0.0
  3
*D4
  1

  0
LINE
  5
166A
  8
SK2
 62
     0
 10
152.875
 20
19.5
 30
0.0
 11
169.9199408908522
 21
19.5
 31
0.0
  0
LINE
  5
166B
  8
SK2
 62
     0
 10
152.875
 20
-19.50000000000001
 30
0.0
 11
169.9199408908522
 21
-19.50000000000001
 31
0.0
  0
LINE
  5
166C
  8
SK2
 62
     0
 10
168.6699408908522
 20
17.0
 30
0.0
 11
168.6699408908522
 21
-17.00000000000001
 31
0.0
  0
SOLID
  5
166D
  8
SK2
 62
     0
 10
169.0866075575189
 20
17.0
 30
0.0
 11
168.2532742241856
 21
17.0
 31
0.0
 12
168.6699408908522
 22
19.5
 32
0.0
 13
168.6699408908522
 23
19.5
 33
0.0
  0
SOLID
  5
166E
  8
SK2
 62
     0
 10
168.2532742241856
 20
-17.00000000000001
 30
0.0
 11
169.0866075575189
 21
-17.00000000000001
 31
0.0
 12
168.6699408908522
 22
-19.50000000000001
 32
0.0
 13
168.6699408908522
 23
-19.50000000000001
 33
0.0
  0
TEXT
  5
166F
  8
SK2
  6
CONTINUOUS
 62
     0
 10
168.0449408908522
 20
-2.083333333333343
 30
0.0
 40
2.5
  1
39
 50
90.0
  0
POINT
  5
1670
  8
DEFPOINTS
 62
     0
 10
152.25
 20
19.5
 30
0.0
  0
POINT
  5
1671
  8
DEFPOINTS
 62
     0
 10
152.25
 20
-19.50000000000001
 30
0.0
  0
POINT
  5
1672
  8
DEFPOINTS
 62
     0
 10
168.6699408908522
 20
-19.50000000000001
 30
0.0
  0
ENDBLK
  5
1674
  8
0
  0
ENDSEC
  0
SECTION
  2
ENTITIES
  0
LINE
  5
1B2
  8
4
 10
153.0
 20
-0.0000000104983287
 30
0.0
 11
0.0
 21
0.0
 31
0.0
  0
DIMENSION
  5
1CF
  8
2
  2
*D1
 10
153.0
 20
47.66573065769793
 30
0.0
 11
76.5
 21
49.54073065769793
 31
0.0
 70
    32
  3
ISO-25
 13
0.0
 23
22.22499999999999
 33
0.0
 14
153.0
 24
18.75
 34
0.0
  0
DIMENSION
  5
20D
  8
SK2
  2
*D2
 10
35.04999999999998
 20
-47.02109509650273
 30
0.0
 11
17.52499999999999
 21
-45.14609509650273
 31
0.0
 70
    32
  3
ISO-25
 13
0.0
 23
-22.22499999999999
 33
0.0
 14
35.04999999999998
 24
-21.22499999999999
 34
0.0
  0
LINE
  5
364
  8
NOCUT
 10
153.0
 20
-0.0000000104983287
 30
0.0
 11
0.0
 21
0.0
 31
0.0
  0
DIMENSION
  5
558
  8
SK2
  2
*D3
 10
181.9589105663794
 20
-22.22500000000002
 30
0.0
 11
180.0839105663794
 21
-0.0000000000000036
 31
0.0
 70
    32
  3
ISO-25
 13
34.04999999999998
 23
22.22500000000001
 33
0.0
 14
34.04999999999998
 24
-22.22500000000001
 34
0.0
 50
90.0
1001
ACAD
1000
DSTYLE
1002
{
1070
   287
1070
     5
1070
   271
1070
     3
1070
   272
1070
     3
1070
   279
1070
     2
1002
}
  0
ARC
  5
943
  8
1
 10
2.674999999999955
 20
-22.72500000000001
 30
0.0
 40
0.5000000000000036
 50
0.0
 51
90.0
  0
ARC
  5
945
  8
1
 10
2.674999999999955
 20
22.72499999999999
 30
0.0
 40
0.5
 50
270.0
 51
0.0
  0
ARC
  5
946
  8
1
 10
19.54999999999995
 20
-22.72500000000001
 30
0.0
 40
0.5000000000000036
 50
90.0
 51
180.0
  0
ARC
  5
947
  8
1
 10
19.54999999999995
 20
22.72499999999999
 30
0.0
 40
0.5
 50
180.0
 51
270.0
  0
LINE
  5
948
  8
SK1
 10
0.0
 20
22.22499999999999
 30
0.0
 11
-67.39430822730003
 21
12.39657058260001
 31
0.0
  0
LINE
  5
949
  8
SK1
 10
-67.39430822730003
 20
-12.39657058269999
 30
0.0
 11
0.0
 21
-22.22500000000001
 31
0.0
  0
LINE
  5
94A
  8
1
 10
0.0
 20
-22.22500000000001
 30
0.0
 11
2.674999999999955
 21
-22.22500000000001
 31
0.0
  0
LINE
  5
94B
  8
1
 10
2.674999999999955
 20
22.22499999999999
 30
0.0
 11
0.0
 21
22.22499999999999
 31
0.0
  0
LINE
  5
94C
  8
1
 10
19.54999999999995
 20
-22.22500000000001
 30
0.0
 11
34.5
 21
-22.22500000000001
 31
0.0
  0
LINE
  5
94D
  8
1
 10
34.5
 20
22.22499999999999
 30
0.0
 11
19.54999999999995
 21
22.22499999999999
 31
0.0
  0
LINE
  5
94E
  8
1
 10
34.5
 20
-22.22500000000001
 30
0.0
 11
35.0
 21
-21.72500000000001
 31
0.0
  0
LINE
  5
94F
  8
1
 10
35.0
 20
21.72499999999999
 30
0.0
 11
34.5
 21
22.22499999999999
 31
0.0
  0
ARC
  5
956
  8
SK1
 10
-67.25000000000003
 20
-11.40703779620002
 30
0.0
 40
1.0
 50
180.0
 51
261.7027777778001
  0
ARC
  5
957
  8
SK1
 10
-67.25000000000003
 20
11.4070377961
 30
0.0
 40
1.000000000000004
 50
98.29722222219978
 51
180.0
  0
LINE
  5
958
  8
1
 10
14.65616676909997
 20
30.7125381562
 30
0.0
 11
18.54999999999995
 21
30.7125381562
 31
0.0
  0
LINE
  5
959
  8
1
 10
18.54999999999995
 20
-30.7125381563
 30
0.0
 11
18.54999999999995
 21
30.7125381562
 31
0.0
  0
LINE
  5
95A
  8
1
 10
14.65616676909997
 20
-30.7125381563
 30
0.0
 11
18.54999999999995
 21
-30.7125381563
 31
0.0
  0
LINE
  5
95B
  8
1
 10
14.65616676909997
 20
-30.7125381563
 30
0.0
 11
14.65616676909997
 21
30.7125381562
 31
0.0
  0
POLYLINE
  5
95C
  8
1
 66
     1
 10
0.0
 20
0.0
 30
0.0
  0
VERTEX
  5
18D8
  8
1
 10
18.54999999999995
 20
30.7125381562
 30
0.0
  0
VERTEX
  5
18D9
  8
1
 10
18.57284145939997
 20
30.6889245341
 30
0.0
  0
VERTEX
  5
18DA
  8
1
 10
19.04999999999995
 20
30.1953638825
 30
0.0
  0
SEQEND
  5
190E
  8
1
  0
LINE
  5
95D
  8
1
 10
19.04999999999995
 20
-30.19536388260001
 30
0.0
 11
19.04999999999995
 21
30.1953638825
 31
0.0
  0
POLYLINE
  5
95E
  8
1
 66
     1
 10
0.0
 20
0.0
 30
0.0
  0
VERTEX
  5
18DB
  8
1
 10
18.54999999999995
 20
-30.7125381563
 30
0.0
  0
VERTEX
  5
18DC
  8
1
 10
18.72393834649995
 20
-30.53269017859999
 30
0.0
  0
VERTEX
  5
18DD
  8
1
 10
19.04999999999995
 20
-30.19536388260001
 30
0.0
  0
SEQEND
  5
190D
  8
1
  0
POLYLINE
  5
95F
  8
1
 66
     1
 10
0.0
 20
0.0
 30
0.0
  0
VERTEX
  5
18DE
  8
1
 10
3.174999999999955
 20
30.1953638825
 30
0.0
  0
VERTEX
  5
18DF
  8
1
 10
3.652158540599999
 20
30.6889245341
 30
0.0
  0
VERTEX
  5
18E0
  8
1
 10
3.674999999999955
 20
30.7125381562
 30
0.0
  0
SEQEND
  5
190C
  8
1
  0
LINE
  5
960
  8
1
 10
3.674999999999955
 20
-30.7125381563
 30
0.0
 11
3.674999999999955
 21
30.7125381562
 31
0.0
  0
POLYLINE
  5
961
  8
1
 66
     1
 10
0.0
 20
0.0
 30
0.0
  0
VERTEX
  5
18E1
  8
1
 10
3.174999999999955
 20
-30.19536388260001
 30
0.0
  0
VERTEX
  5
18E2
  8
1
 10
3.501061653399972
 20
-30.53269017859999
 30
0.0
  0
VERTEX
  5
18E3
  8
1
 10
3.674999999999955
 20
-30.7125381563
 30
0.0
  0
SEQEND
  5
190B
  8
1
  0
LINE
  5
962
  8
1
 10
3.174999999999955
 20
-30.19536388260001
 30
0.0
 11
3.174999999999955
 21
30.1953638825
 31
0.0
  0
LINE
  5
963
  8
1
 10
3.674999999999955
 20
30.7125381562
 30
0.0
 11
7.603833230899966
 21
30.7125381562
 31
0.0
  0
LINE
  5
964
  8
1
 10
7.603833230899966
 20
-30.7125381563
 30
0.0
 11
7.603833230899966
 21
30.7125381562
 31
0.0
  0
LINE
  5
965
  8
1
 10
3.674999999999955
 20
-30.7125381563
 30
0.0
 11
7.603833230899966
 21
-30.7125381563
 31
0.0
  0
POLYLINE
  5
966
  8
1
 66
     1
 10
0.0
 20
0.0
 30
0.0
  0
VERTEX
  5
18E4
  8
1
 10
7.603833230899966
 20
30.7125381562
 30
0.0
  0
VERTEX
  5
18E5
  8
1
 10
9.140787278000005
 20
27.9518236359
 30
0.0
  0
VERTEX
  5
18E6
  8
1
 10
9.204999999999984
 20
27.8360650174
 30
0.0
  0
SEQEND
  5
190A
  8
1
  0
LINE
  5
967
  8
1
 10
9.204999999999984
 20
-27.83606501749999
 30
0.0
 11
9.204999999999984
 21
27.8360650174
 31
0.0
  0
POLYLINE
  5
968
  8
1
 66
     1
 10
0.0
 20
0.0
 30
0.0
  0
VERTEX
  5
18E7
  8
1
 10
7.603833230899966
 20
-30.7125381563
 30
0.0
  0
VERTEX
  5
18E8
  8
1
 10
7.839309007799955
 20
-30.29071623330002
 30
0.0
  0
VERTEX
  5
18E9
  8
1
 10
9.204999999999984
 20
-27.83606501749999
 30
0.0
  0
SEQEND
  5
1909
  8
1
  0
POLYLINE
  5
969
  8
1
 66
     1
 10
0.0
 20
0.0
 30
0.0
  0
VERTEX
  5
18EA
  8
1
 10
13.05499999999995
 20
27.8360650174
 30
0.0
  0
VERTEX
  5
18EB
  8
1
 10
13.1192127219
 20
27.9518236359
 30
0.0
  0
VERTEX
  5
18EC
  8
1
 10
14.65616676909997
 20
30.7125381562
 30
0.0
  0
SEQEND
  5
1908
  8
1
  0
POLYLINE
  5
96A
  8
1
 66
     1
 10
0.0
 20
0.0
 30
0.0
  0
VERTEX
  5
18ED
  8
1
 10
13.05499999999995
 20
-27.83606501749999
 30
0.0
  0
VERTEX
  5
18EE
  8
1
 10
14.42069099219998
 20
-30.29071623330002
 30
0.0
  0
VERTEX
  5
18EF
  8
1
 10
14.65616676909997
 20
-30.7125381563
 30
0.0
  0
SEQEND
  5
1907
  8
1
  0
LINE
  5
96B
  8
1
 10
13.05499999999995
 20
-27.83606501749999
 30
0.0
 11
13.05499999999995
 21
27.8360650174
 31
0.0
  0
ARC
  5
96C
  8
1
 10
12.54226966779999
 20
27.51838423379999
 30
0.0
 40
0.512803993977288
 50
271.4225108534019
 51
0.9711541378997977
  0
ARC
  5
96D
  8
1
 10
12.5439705343
 20
-27.51675298100001
 30
0.0
 40
0.511133715010145
 50
358.8427842359026
 51
88.76355077280213
  0
ARC
  5
96E
  8
1
 10
9.716236145599964
 20
27.5169512018
 30
0.0
 40
0.5113363895821054
 50
178.8654582714003
 51
268.7408767374973
  0
ARC
  5
96F
  8
1
 10
9.71601520759998
 20
-27.5167393064
 30
0.0
 40
0.511119736159064
 50
91.23488436249683
 51
181.1587806289016
  0
LINE
  5
970
  8
1
 10
9.704999999999984
 20
27.0057382791
 30
0.0
 11
12.55499999999995
 21
27.0057382791
 31
0.0
  0
LINE
  5
971
  8
1
 10
9.704999999999984
 20
-27.00573827909999
 30
0.0
 11
12.55499999999995
 21
-27.00573827909999
 31
0.0
  0
LINE
  5
972
  8
1
 10
0.0
 20
0.0
 30
0.0
 11
0.0
 21
22.22499999999999
 31
0.0
  0
LINE
  5
973
  8
1
 10
0.0
 20
-22.22500000000001
 30
0.0
 11
0.0
 21
0.0
 31
0.0
  0
LINE
  5
974
  8
1
 10
34.5
 20
0.0
 30
0.0
 11
34.5
 21
22.22499999999999
 31
0.0
  0
LINE
  5
975
  8
1
 10
34.5
 20
-22.22500000000001
 30
0.0
 11
34.5
 21
0.0
 31
0.0
  0
LINE
  5
976
  8
1
 10
35.0
 20
0.0
 30
0.0
 11
35.0
 21
-21.72500000000001
 31
0.0
  0
LINE
  5
977
  8
1
 10
35.0
 20
21.72499999999999
 30
0.0
 11
35.0
 21
0.0
 31
0.0
  0
LINE
  5
97C
  8
SK1
 10
-68.25000000000003
 20
0.0
 30
0.0
 11
-68.25000000000003
 21
11.4070377961
 31
0.0
  0
LINE
  5
97D
  8
SK1
 10
-68.25000000000003
 20
-11.40703779620002
 30
0.0
 11
-68.25000000000003
 21
0.0
 31
0.0
  0
LINE
  5
99D
  8
SK3
 10
-66.51794919240001
 20
0.0
 30
0.0
 11
-66.51794919240001
 21
8.149999999999991
 31
0.0
  0
LINE
  5
99E
  8
SK3
 10
-66.51794919240001
 20
-8.149999999999991
 30
0.0
 11
-66.51794919240001
 21
0.0
 31
0.0
  0
LINE
  5
99F
  8
SK3
 10
-63.48000000000002
 20
0.0
 30
0.0
 11
-63.48000000000002
 21
8.149999999999991
 31
0.0
  0
LINE
  5
9A0
  8
SK3
 10
-63.48000000000002
 20
-8.149999999999991
 30
0.0
 11
-63.48000000000002
 21
0.0
 31
0.0
  0
LINE
  5
9A1
  8
3
 10
3.174999999999955
 20
25.02
 30
0.0
 11
19.04999999999995
 21
25.02
 31
0.0
  0
LINE
  5
9A2
  8
3
 10
3.174999999999955
 20
-22.60000000000001
 30
0.0
 11
19.04999999999995
 21
-22.60000000000001
 31
0.0
  0
LINE
  5
9A7
  8
3
 10
11.13
 20
21.22
 30
0.0
 11
17.47999999999996
 21
21.22
 31
0.0
  0
LINE
  5
9A8
  8
3
 10
4.779999999999973
 20
21.22
 30
0.0
 11
11.13
 21
21.22
 31
0.0
  0
LINE
  5
9AF
  8
3
 10
11.13
 20
21.20999999999999
 30
0.0
 11
15.88
 21
21.20999999999999
 31
0.0
  0
LINE
  5
9B0
  8
3
 10
6.379999999999995
 20
21.20999999999999
 30
0.0
 11
11.13
 21
21.20999999999999
 31
0.0
  0
LINE
  5
9BF
  8
SK3
 10
-68.25000000000003
 20
-9.149999999999991
 30
0.0
 11
-66.51794919240001
 21
-8.149999999999991
 31
0.0
  0
LINE
  5
9C0
  8
SK3
 10
-66.51794919240001
 20
8.149999999999991
 30
0.0
 11
-68.25000000000003
 21
9.149999999999991
 31
0.0
  0
LINE
  5
9C1
  8
SK3
 10
-66.51794919240001
 20
-8.149999999999991
 30
0.0
 11
-63.48000000000002
 21
-8.149999999999991
 31
0.0
  0
LINE
  5
9C2
  8
SK3
 10
-63.48000000000002
 20
8.149999999999991
 30
0.0
 11
-66.51794919240001
 21
8.149999999999991
 31
0.0
  0
LINE
  5
9C3
  8
SK3
 10
-63.48000000000002
 20
-6.700000000000003
 30
0.0
 11
-25.75
 21
-6.700000000000003
 31
0.0
  0
LINE
  5
9C4
  8
SK3
 10
-25.75
 20
6.700000000000003
 30
0.0
 11
-63.48000000000002
 21
6.700000000000003
 31
0.0
  0
LINE
  5
9C7
  8
3
 10
4.779999999999973
 20
25.02
 30
0.0
 11
4.779999999999973
 21
21.22
 31
0.0
  0
LINE
  5
9C8
  8
3
 10
17.47999999999996
 20
21.22
 30
0.0
 11
17.47999999999996
 21
25.02
 31
0.0
  0
LINE
  5
9CB
  8
3
 10
6.379999999999995
 20
21.20999999999999
 30
0.0
 11
11.13
 21
18.3559120596
 31
0.0
  0
LINE
  5
9CC
  8
3
 10
11.13
 20
18.3559120596
 30
0.0
 11
15.88
 21
21.20999999999999
 31
0.0
  0
LINE
  5
9CD
  8
3
 10
6.379999999999995
 20
21.22
 30
0.0
 11
6.379999999999995
 21
21.20999999999999
 31
0.0
  0
LINE
  5
9CE
  8
3
 10
15.88
 20
21.20999999999999
 30
0.0
 11
15.88
 21
21.22
 31
0.0
  0
LINE
  5
9D7
  8
1
 10
2.674999999999955
 20
22.22499999999999
 30
0.0
 11
2.674999999999955
 21
-22.22500000000001
 31
0.0
  0
LINE
  5
9D8
  8
1
 10
19.54999999999995
 20
22.22499999999999
 30
0.0
 11
19.54999999999995
 21
-22.22500000000001
 31
0.0
  0
LINE
  5
9DF
  8
1
 10
9.704999999999984
 20
27.0057382791
 30
0.0
 11
9.704999999999984
 21
-27.00573827909999
 31
0.0
  0
LINE
  5
9E0
  8
1
 10
12.55499999999995
 20
27.0057382791
 30
0.0
 11
12.55499999999995
 21
-27.00573827909999
 31
0.0
  0
LINE
  5
9E4
  8
0
 10
3.0
 20
3.0
 30
0.0
 11
-3.0
 21
-3.0
 31
0.0
  0
LINE
  5
9E5
  8
0
 10
-3.0
 20
3.0
 30
0.0
 11
3.0
 21
-3.0
 31
0.0
  0
CIRCLE
  5
9E6
  8
0
 10
0.0
 20
0.0
 30
0.0
 40
2.5
  0
LINE
  5
9E7
  8
SK3
 10
-63.48000000000005
 20
-7.937499999800011
 30
0.0
 11
-39.75000000000003
 21
-7.937499999800011
 31
0.0
  0
LINE
  5
9E8
  8
SK3
 10
-39.75000000000003
 20
7.937500000199975
 30
0.0
 11
-39.75000000000003
 21
-7.937499999800011
 31
0.0
  0
LINE
  5
9E9
  8
SK3
 10
-39.75000000000003
 20
7.937500000199975
 30
0.0
 11
-63.48000000000005
 21
7.937500000199975
 31
0.0
  0
LINE
  5
9EA
  8
SK4
 10
-0.0000000000000284
 20
0.0000000002000036
 30
0.0
 11
-68.25000000000003
 21
0.0
 31
0.0
  0
ARC
  5
AA1
  8
NOCUT
 10
2.674999999999955
 20
22.72499999999999
 30
0.0
 40
0.5
 50
270.0
 51
0.0
  0
ARC
  5
AA3
  8
NOCUT
 10
19.54999999999995
 20
22.72499999999999
 30
0.0
 40
0.5
 50
180.0
 51
270.0
  0
LINE
  5
AA4
  8
NOCUT
 10
2.674999999999955
 20
22.22499999999999
 30
0.0
 11
0.0
 21
22.22499999999999
 31
0.0
  0
LINE
  5
AA5
  8
NOCUT
 10
34.5
 20
22.22499999999999
 30
0.0
 11
19.54999999999995
 21
22.22499999999999
 31
0.0
  0
LINE
  5
AA6
  8
NOCUT
 10
35.0
 20
21.72499999999999
 30
0.0
 11
34.5
 21
22.22499999999999
 31
0.0
  0
LINE
  5
AA7
  8
NOCUT
 10
14.65616676909997
 20
30.7125381562
 30
0.0
 11
18.54999999999995
 21
30.7125381562
 31
0.0
  0
POLYLINE
  5
AA8
  8
NOCUT
 66
     1
 10
0.0
 20
0.0
 30
0.0
  0
VERTEX
  5
18F0
  8
NOCUT
 10
18.54999999999995
 20
30.7125381562
 30
0.0
  0
VERTEX
  5
18F1
  8
NOCUT
 10
18.57284145939997
 20
30.6889245341
 30
0.0
  0
VERTEX
  5
18F2
  8
NOCUT
 10
19.04999999999995
 20
30.1953638825
 30
0.0
  0
SEQEND
  5
1906
  8
NOCUT
  0
POLYLINE
  5
AA9
  8
NOCUT
 66
     1
 10
0.0
 20
0.0
 30
0.0
  0
VERTEX
  5
18F3
  8
NOCUT
 10
3.174999999999955
 20
30.1953638825
 30
0.0
  0
VERTEX
  5
18F4
  8
NOCUT
 10
3.652158540599999
 20
30.6889245341
 30
0.0
  0
VERTEX
  5
18F5
  8
NOCUT
 10
3.674999999999955
 20
30.7125381562
 30
0.0
  0
SEQEND
  5
1905
  8
NOCUT
  0
LINE
  5
AAA
  8
NOCUT
 10
3.674999999999955
 20
30.7125381562
 30
0.0
 11
7.603833230899966
 21
30.7125381562
 31
0.0
  0
POLYLINE
  5
AAB
  8
NOCUT
 66
     1
 10
0.0
 20
0.0
 30
0.0
  0
VERTEX
  5
18F6
  8
NOCUT
 10
7.603833230899966
 20
30.7125381562
 30
0.0
  0
VERTEX
  5
18F7
  8
NOCUT
 10
9.140787278000005
 20
27.9518236359
 30
0.0
  0
VERTEX
  5
18F8
  8
NOCUT
 10
9.204999999999984
 20
27.8360650174
 30
0.0
  0
SEQEND
  5
1904
  8
NOCUT
  0
POLYLINE
  5
AAC
  8
NOCUT
 66
     1
 10
0.0
 20
0.0
 30
0.0
  0
VERTEX
  5
18F9
  8
NOCUT
 10
13.05499999999995
 20
27.8360650174
 30
0.0
  0
VERTEX
  5
18FA
  8
NOCUT
 10
13.1192127219
 20
27.9518236359
 30
0.0
  0
VERTEX
  5
18FB
  8
NOCUT
 10
14.65616676909997
 20
30.7125381562
 30
0.0
  0
SEQEND
  5
1903
  8
NOCUT
  0
ARC
  5
AAD
  8
NOCUT
 10
12.54226966779999
 20
27.51838423379999
 30
0.0
 40
0.512803993977288
 50
271.4225108534019
 51
0.9711541378997977
  0
ARC
  5
AAE
  8
NOCUT
 10
9.716236145599964
 20
27.5169512018
 30
0.0
 40
0.5113363895821054
 50
178.8654582714003
 51
268.7408767374973
  0
LINE
  5
AAF
  8
NOCUT
 10
9.704999999999984
 20
27.0057382791
 30
0.0
 11
12.55499999999995
 21
27.0057382791
 31
0.0
  0
LINE
  5
AB0
  8
NOCUT
 10
0.0
 20
0.0
 30
0.0
 11
0.0
 21
22.22499999999999
 31
0.0
  0
LINE
  5
ACA
  8
NOCUT
 10
3.174999999999955
 20
22.72499999999999
 30
0.0
 11
3.174999999999955
 21
30.1953638825
 31
0.0
  0
LINE
  5
ACB
  8
NOCUT
 10
9.204999999999984
 20
27.8360650174
 30
0.0
 11
9.20489975601786
 21
27.5169512018
 31
0.0
  0
LINE
  5
ACC
  8
NOCUT
 10
13.05499999999995
 20
27.8360650174
 30
0.0
 11
13.05507366177728
 21
27.51838423379999
 31
0.0
  0
LINE
  5
ACD
  8
NOCUT
 10
19.04999999999995
 20
30.1953638825
 30
0.0
 11
19.04999999999995
 21
22.72499999999999
 31
0.0
  0
LINE
  5
BF7
  8
NOCUT
 10
35.0
 20
21.72499999674071
 30
0.0
 11
35.0
 21
21.5
 31
0.0
  0
LINE
  5
EAA
  8
SK3
 10
-25.75
 20
0.0
 30
0.0
 11
-25.75
 21
6.700000000000003
 31
0.0
  0
LINE
  5
EAB
  8
SK3
 10
-25.75
 20
-6.700000000000003
 30
0.0
 11
-25.75
 21
0.0
 31
0.0
  0
LINE
  5
EAC
  8
SK3
 10
-25.3293975667
 20
0.0
 30
0.0
 11
-25.3293975667
 21
-6.0
 31
0.0
  0
LINE
  5
EAD
  8
SK3
 10
-25.3293975667
 20
6.0
 30
0.0
 11
-25.3293975667
 21
0.0
 31
0.0
  0
LINE
  5
ECA
  8
SK3
 10
-25.75
 20
-6.700000000000003
 30
0.0
 11
-25.3293975667
 21
-6.0
 31
0.0
  0
LINE
  5
ECB
  8
SK3
 10
-25.3293975667
 20
6.0
 30
0.0
 11
-25.75
 21
6.700000000000003
 31
0.0
  0
LINE
  5
EE5
  8
SK3
 10
0.0000000000000071
 20
6.0
 30
0.0
 11
-25.3293975667
 21
6.0
 31
0.0
  0
LINE
  5
EE6
  8
SK3
 10
-25.3293975667
 20
-6.0
 30
0.0
 11
0.0
 21
-5.999999999999986
 31
0.0
  0
ARC
  5
15CD
  8
1
 10
37.0
 20
-21.50000000000001
 30
0.0
 40
2.000000000000004
 50
90.0
 51
180.0
  0
ARC
  5
15CE
  8
1
 10
37.0
 20
21.5
 30
0.0
 40
2.0
 50
180.0
 51
270.0
  0
LINE
  5
15CF
  8
1
 10
37.00000000000001
 20
-19.50000000000001
 30
0.0
 11
152.25
 21
-19.50000000000001
 31
0.0
  0
LINE
  5
15D0
  8
1
 10
152.25
 20
19.5
 30
0.0
 11
37.0
 21
19.5
 31
0.0
  0
LINE
  5
15D1
  8
1
 10
152.25
 20
-19.50000000000001
 30
0.0
 11
153.0
 21
-18.75000000000001
 31
0.0
  0
LINE
  5
15D2
  8
1
 10
153.0
 20
18.75
 30
0.0
 11
152.25
 21
19.5
 31
0.0
  0
LINE
  5
15F5
  8
1
 10
152.25
 20
0.0
 30
0.0
 11
152.25
 21
19.5
 31
0.0
  0
LINE
  5
15F6
  8
1
 10
152.25
 20
-19.50000000000001
 30
0.0
 11
152.25
 21
0.0
 31
0.0
  0
LINE
  5
15F7
  8
1
 10
153.0
 20
0.0
 30
0.0
 11
153.0
 21
18.75
 31
0.0
  0
LINE
  5
15F8
  8
1
 10
153.0
 20
-18.75000000000001
 30
0.0
 11
153.0
 21
0.0
 31
0.0
  0
CIRCLE
  5
15FD
  8
1
 10
142.95
 20
0.0
 30
0.0
 40
3.799999999999937
  0
LINE
  5
15FE
  8
1
 10
142.95
 20
-2.3094010768
 30
0.0
 11
144.95
 21
-1.154700538400007
 31
0.0
  0
LINE
  5
15FF
  8
1
 10
140.95
 20
-1.154700538400007
 30
0.0
 11
142.95
 21
-2.3094010768
 31
0.0
  0
LINE
  5
1600
  8
1
 10
142.95
 20
2.309401076699999
 30
0.0
 11
140.95
 21
1.154700538299991
 31
0.0
  0
LINE
  5
1601
  8
1
 10
140.95
 20
1.154700538299991
 30
0.0
 11
140.95
 21
-1.154700538400007
 31
0.0
  0
LINE
  5
1602
  8
1
 10
144.95
 20
1.154700538299991
 30
0.0
 11
142.95
 21
2.309401076699999
 31
0.0
  0
LINE
  5
1603
  8
1
 10
144.95
 20
-1.154700538400007
 30
0.0
 11
144.95
 21
1.154700538299991
 31
0.0
  0
LINE
  5
1612
  8
3
 10
131.5
 20
11.25
 30
0.0
 11
131.5
 21
-11.25
 31
0.0
  0
LINE
  5
1613
  8
3
 10
127.0
 20
11.25
 30
0.0
 11
127.0
 21
-11.25
 31
0.0
  0
LINE
  5
1614
  8
3
 10
152.6
 20
-9.595993735299999
 30
0.0
 11
142.4
 21
-9.595993735299999
 31
0.0
  0
LINE
  5
1615
  8
3
 10
142.4
 20
9.595993735199997
 30
0.0
 11
152.6
 21
9.595993735199997
 31
0.0
  0
LINE
  5
1616
  8
3
 10
152.6
 20
9.595993735199997
 30
0.0
 11
152.6
 21
-9.595993735299999
 31
0.0
  0
LINE
  5
1619
  8
3
 10
124.5965575239
 20
-6.0
 30
0.0
 11
124.5965575239
 21
6.0
 31
0.0
  0
LINE
  5
1626
  8
3
 10
153.0
 20
9.890284626600007
 30
0.0
 11
152.6
 21
9.595993735199997
 31
0.0
  0
LINE
  5
1627
  8
3
 10
152.6
 20
-9.595993735299999
 30
0.0
 11
153.0
 21
-9.890284626600007
 31
0.0
  0
LINE
  5
1628
  8
3
 10
152.6
 20
13.66
 30
0.0
 11
152.6
 21
9.595993735199997
 31
0.0
  0
LINE
  5
1629
  8
3
 10
142.4
 20
13.66
 30
0.0
 11
142.4
 21
9.595993735199997
 31
0.0
  0
LINE
  5
162A
  8
3
 10
152.6
 20
-9.595993735299999
 30
0.0
 11
152.6
 21
-13.66000000000001
 31
0.0
  0
LINE
  5
162B
  8
3
 10
142.4
 20
-9.595993735299999
 30
0.0
 11
142.4
 21
-13.66000000000001
 31
0.0
  0
LINE
  5
162E
  8
3
 10
152.6
 20
-13.66000000000001
 30
0.0
 11
152.6
 21
-15.41000000000001
 31
0.0
  0
LINE
  5
162F
  8
3
 10
152.6
 20
15.41
 30
0.0
 11
152.6
 21
13.66
 31
0.0
  0
LINE
  5
1630
  8
3
 10
142.4
 20
-13.66000000000001
 30
0.0
 11
142.4
 21
-15.41000000000001
 31
0.0
  0
LINE
  5
1631
  8
3
 10
142.4
 20
15.41
 30
0.0
 11
142.4
 21
13.66
 31
0.0
  0
LINE
  5
1632
  8
3
 10
139.5
 20
1.75
 30
0.0
 11
139.5
 21
-1.75
 31
0.0
  0
LINE
  5
1636
  8
3
 10
127.0
 20
-11.25
 30
0.0
 11
131.5
 21
-11.25
 31
0.0
  0
LINE
  5
1637
  8
3
 10
131.5
 20
11.25
 30
0.0
 11
127.0
 21
11.25
 31
0.0
  0
LINE
  5
1638
  8
3
 10
142.4
 20
11.0
 30
0.0
 11
131.5
 21
11.0
 31
0.0
  0
LINE
  5
1639
  8
3
 10
131.5
 20
-11.0
 30
0.0
 11
142.4
 21
-11.0
 31
0.0
  0
LINE
  5
163A
  8
3
 10
127.0
 20
10.0
 30
0.0
 11
124.5965575239
 21
6.0
 31
0.0
  0
LINE
  5
163B
  8
3
 10
124.5965575239
 20
-6.0
 30
0.0
 11
127.0
 21
-10.0
 31
0.0
  0
LINE
  5
1646
  8
SK3
 10
0.0
 20
6.0
 30
0.0
 11
-25.32939756670001
 21
6.0
 31
0.0
  0
LINE
  5
1647
  8
3
 10
-0.0000000000000036
 20
-6.0
 30
0.0
 11
124.5965575239
 21
-6.0
 31
0.0
  0
LINE
  5
164C
  8
3
 10
152.6
 20
-15.41000000000001
 30
0.0
 11
153.0
 21
-15.81
 31
0.0
  0
LINE
  5
164D
  8
3
 10
153.0
 20
15.81
 30
0.0
 11
152.6
 21
15.41
 31
0.0
  0
LINE
  5
164E
  8
3
 10
142.4
 20
-15.41000000000001
 30
0.0
 11
152.6
 21
-15.41000000000001
 31
0.0
  0
LINE
  5
164F
  8
3
 10
152.6
 20
15.41
 30
0.0
 11
142.4
 21
15.41
 31
0.0
  0
LINE
  5
1650
  8
3
 10
153.0
 20
1.75
 30
0.0
 11
139.5
 21
1.75
 31
0.0
  0
LINE
  5
1651
  8
3
 10
139.5
 20
-1.75
 30
0.0
 11
153.0
 21
-1.75
 31
0.0
  0
LINE
  5
1652
  8
3
 10
139.5
 20
1.75
 30
0.0
 11
138.4484939167
 21
0.0
 31
0.0
  0
LINE
  5
1653
  8
3
 10
138.4484939167
 20
0.0
 30
0.0
 11
139.5
 21
-1.75
 31
0.0
  0
LINE
  5
1657
  8
1
 10
37.0
 20
-19.50000000000001
 30
0.0
 11
37.0
 21
19.5
 31
0.0
  0
LINE
  5
1663
  8
3
 10
-0.0000000000000036
 20
6.0
 30
0.0
 11
124.5965575239
 21
6.0
 31
0.0
  0
DIMENSION
  5
1666
  8
SK2
  2
*D4
 10
168.6699408908522
 20
-19.50000000000001
 30
0.0
 11
166.7949408908522
 21
-0.0000000000000071
 31
0.0
 70
    32
  3
ISO-25
 13
152.25
 23
19.5
 33
0.0
 14
152.25
 24
-19.50000000000001
 34
0.0
 50
90.0
1001
ACAD
1000
DSTYLE
1002
{
1070
   287
1070
     5
1070
   271
1070
     3
1070
   272
1070
     3
1070
   279
1070
     2
1002
}
  0
LINE
  5
1675
  8
NOCUT
 10
152.25
 20
19.5
 30
0.0
 11
37.0
 21
19.5
 31
0.0
  0
ARC
  5
1677
  8
NOCUT
 10
37.0
 20
21.5
 30
0.0
 40
2.0
 50
180.0
 51
270.0
  0
LINE
  5
1678
  8
NOCUT
 10
153.0
 20
18.75
 30
0.0
 11
152.25
 21
19.5
 31
0.0
  0
LINE
  5
1679
  8
NOCUT
 10
153.0
 20
0.0
 30
0.0
 11
153.0
 21
18.75
 31
0.0
  0
LINE
  5
16C1
  8
0
 10
154.9999999999998
 20
1.999999994990993
 30
0.0
 11
151.0
 21
-2.000000005009007
 31
0.0
  0
LINE
  5
16C2
  8
0
 10
151.0
 20
1.999999994990993
 30
0.0
 11
154.9999999999998
 21
-2.000000005009007
 31
0.0
  0
CIRCLE
  5
16C3
  8
0
 10
153.0
 20
-0.0000000050090065
 30
0.0
 40
1.5
  0
TEXT
  5
181D
  8
SK6
 10
-66.17909534664393
 20
47.33203563714093
 30
0.0
 40
3.5
  1
BIG KAISER
 41
0.85
  0
TEXT
  5
1820
  8
SK6
 10
-66.17909534664393
 20
42.08203563714093
 30
0.0
 40
3.5
  1
11.326.444
 41
0.85
  0
INSERT
  5
1821
  8
SK6
  2
_FILLED
 10
-17.9836627818344
 20
-19.60235774778011
 30
0.0
 41
3.5
 42
3.5
 43
3.5
 50
55.49325986033524
  0
POLYLINE
  5
1825
  8
SK6
 66
     1
 10
0.0
 20
0.0
 30
0.0
  0
VERTEX
  5
18FC
  8
SK6
 10
-19.966423916232
 20
-22.48656618059532
 30
0.0
  0
VERTEX
  5
18FD
  8
SK6
 10
-33.48226568303438
 20
-42.14728280658011
 30
0.0
  0
VERTEX
  5
18FE
  8
SK6
 10
-35.35726568303438
 20
-40.39728280658011
 30
0.0
  0
VERTEX
  5
18FF
  8
SK6
 10
-38.85726568303438
 20
-40.39728280658011
 30
0.0
  0
SEQEND
  5
1902
  8
SK6
  0
TEXT
  5
1826
  8
SK6
 10
-53.86143234970105
 20
-43.89728280658011
 30
0.0
 40
3.5
  1
CV40
 41
0.85
  0
ENDSEC
  0
EOF
