  0
SECTION
  2
HEADER
  9
$ACADVER
  1
AC1009
  9
$DWGCODEPAGE
  3
ansi_1251
  9
$INSBASE
 10
0.0
 20
0.0
 30
0.0
  9
$EXTMIN
 10
1.000000000000000E+20
 20
1.000000000000000E+20
 30
1.000000000000000E+20
  9
$EXTMAX
 10
-1.000000000000000E+20
 20
-1.000000000000000E+20
 30
-1.000000000000000E+20
  9
$LIMMIN
 10
0.0
 20
0.0
  9
$LIMMAX
 10
420.0
 20
297.0
  9
$ORTHOMODE
 70
     1
  9
$REGENMODE
 70
     1
  9
$FILLMODE
 70
     1
  9
$QTEXTMODE
 70
     0
  9
$MIRRTEXT
 70
     0
  9
$DRAGMODE
 70
     2
  9
$LTSCALE
 40
1.0
  9
$OSMODE
 70
   279
  9
$ATTMODE
 70
     1
  9
$TEXTSIZE
 40
2.5
  9
$TRACEWID
 40
1.0
  9
$TEXTSTYLE
  7
STANDARD
  9
$CLAYER
  8
0
  9
$CELTYPE
  6
BYLAYER
  9
$CECOLOR
 62
   256
  9
$DIMSCALE
 40
1.0
  9
$DIMASZ
 40
2.5
  9
$DIMEXO
 40
0.625
  9
$DIMDLI
 40
3.75
  9
$DIMRND
 40
0.0
  9
$DIMDLE
 40
0.0
  9
$DIMEXE
 40
1.25
  9
$DIMTP
 40
0.0
  9
$DIMTM
 40
0.0
  9
$DIMTXT
 40
2.5
  9
$DIMCEN
 40
2.5
  9
$DIMTSZ
 40
0.0
  9
$DIMTOL
 70
     0
  9
$DIMLIM
 70
     0
  9
$DIMTIH
 70
     0
  9
$DIMTOH
 70
     0
  9
$DIMSE1
 70
     0
  9
$DIMSE2
 70
     0
  9
$DIMTAD
 70
     1
  9
$DIMZIN
 70
     8
  9
$DIMBLK
  1

  9
$DIMASO
 70
     1
  9
$DIMSHO
 70
     1
  9
$DIMPOST
  1

  9
$DIMAPOST
  1

  9
$DIMALT
 70
     0
  9
$DIMALTD
 70
     3
  9
$DIMALTF
 40
0.03937007874016
  9
$DIMLFAC
 40
1.0
  9
$DIMTOFL
 70
     1
  9
$DIMTVP
 40
0.0
  9
$DIMTIX
 70
     0
  9
$DIMSOXD
 70
     0
  9
$DIMSAH
 70
     0
  9
$DIMBLK1
  1

  9
$DIMBLK2
  1

  9
$DIMSTYLE
  2
ISO-25
  9
$DIMCLRD
 70
     0
  9
$DIMCLRE
 70
     0
  9
$DIMCLRT
 70
     0
  9
$DIMTFAC
 40
1.0
  9
$DIMGAP
 40
0.625
  9
$LUNITS
 70
     2
  9
$LUPREC
 70
     3
  9
$SKETCHINC
 40
1.0
  9
$FILLETRAD
 40
10.0
  9
$AUNITS
 70
     0
  9
$AUPREC
 70
     0
  9
$MENU
  1
.
  9
$ELEVATION
 40
0.0
  9
$PELEVATION
 40
0.0
  9
$THICKNESS
 40
0.0
  9
$LIMCHECK
 70
     0
  9
$CHAMFERA
 40
10.0
  9
$CHAMFERB
 40
10.0
  9
$SKPOLY
 70
     0
  9
$TDCREATE
 40
2455022.429026158
  9
$TDUPDATE
 40
2455022.429026158
  9
$TDINDWG
 40
0.0000000116
  9
$TDUSRTIMER
 40
2458688.812958264
  9
$USRTIMER
 70
     1
  9
$ANGBASE
 50
0.0
  9
$ANGDIR
 70
     0
  9
$PDMODE
 70
     0
  9
$PDSIZE
 40
0.0
  9
$PLINEWID
 40
0.0
  9
$COORDS
 70
     1
  9
$SPLFRAME
 70
     0
  9
$SPLINETYPE
 70
     6
  9
$SPLINESEGS
 70
     8
  9
$ATTDIA
 70
     0
  9
$ATTREQ
 70
     1
  9
$HANDLING
 70
     1
  9
$HANDSEED
  5
1600
  9
$SURFTAB1
 70
     6
  9
$SURFTAB2
 70
     6
  9
$SURFTYPE
 70
     6
  9
$SURFU
 70
     6
  9
$SURFV
 70
     6
  9
$UCSNAME
  2

  9
$UCSORG
 10
0.0
 20
0.0
 30
0.0
  9
$UCSXDIR
 10
1.0
 20
0.0
 30
0.0
  9
$UCSYDIR
 10
0.0
 20
1.0
 30
0.0
  9
$PUCSNAME
  2

  9
$PUCSORG
 10
0.0
 20
0.0
 30
0.0
  9
$PUCSXDIR
 10
1.0
 20
0.0
 30
0.0
  9
$PUCSYDIR
 10
0.0
 20
1.0
 30
0.0
  9
$USERI1
 70
     0
  9
$USERI2
 70
     0
  9
$USERI3
 70
     0
  9
$USERI4
 70
     0
  9
$USERI5
 70
     0
  9
$USERR1
 40
0.0
  9
$USERR2
 40
0.0
  9
$USERR3
 40
0.0
  9
$USERR4
 40
0.0
  9
$USERR5
 40
0.0
  9
$WORLDVIEW
 70
     1
  9
$SHADEDGE
 70
     3
  9
$SHADEDIF
 70
    70
  9
$TILEMODE
 70
     1
  9
$MAXACTVP
 70
    64
  9
$PLIMCHECK
 70
     0
  9
$PEXTMIN
 10
1.000000000000000E+20
 20
1.000000000000000E+20
 30
1.000000000000000E+20
  9
$PEXTMAX
 10
-1.000000000000000E+20
 20
-1.000000000000000E+20
 30
-1.000000000000000E+20
  9
$PLIMMIN
 10
0.0
 20
0.0
  9
$PLIMMAX
 10
420.0
 20
297.0
  9
$UNITMODE
 70
     0
  9
$VISRETAIN
 70
     1
  9
$PLINEGEN
 70
     0
  9
$PSLTSCALE
 70
     1
  0
ENDSEC
  0
SECTION
  2
TABLES
  0
TABLE
  2
VPORT
 70
     1
  0
VPORT
  2
*ACTIVE
 70
     0
 10
0.0
 20
0.0
 11
1.0
 21
1.0
 12
135.6777975834991
 22
1.280470270319107
 13
0.0
 23
0.0
 14
10.0
 24
10.0
 15
10.0
 25
10.0
 16
0.0
 26
0.0
 36
1.0
 17
-134.1869158878504
 27
0.0
 37
0.0
 40
106.7398057218296
 41
1.332880434782609
 42
50.0
 43
0.0
 44
0.0
 50
0.0
 51
0.0
 71
    16
 72
  1000
 73
     1
 74
     3
 75
     0
 76
     0
 77
     0
 78
     0
  0
ENDTAB
  0
TABLE
  2
LTYPE
 70
     6
  0
LTYPE
  2
CONTINUOUS
 70
     0
  3
Solid line
 72
    65
 73
     0
 40
0.0
  0
LTYPE
  2
CENTER
 70
     0
  3
 Center _____  _  _____  _  _____  _  _____  _ 
 72
    65
 73
     4
 40
50.8
 49
31.75
 49
-6.35
 49
6.35
 49
-6.35
  0
LTYPE
  2
DASHED
 70
     0
  3
Dashed __  __  __  __  __  __  __  __  __  __  
 72
    65
 73
     2
 40
19.05
 49
12.7
 49
-6.35
  0
LTYPE
  2
HIDDEN
 70
     0
  3
Hidden __ __ __ __ __ __ __ __ __ __ __ __ __ __
 72
    65
 73
     2
 40
1.905
 49
1.27
 49
-0.635
  0
LTYPE
  2
CENTERX2
 70
     0
  3
Center (2x) ________  __  ________  __  _____
 72
    65
 73
     4
 40
20.32
 49
12.7
 49
-2.54
 49
2.54
 49
-2.54
  0
LTYPE
  2
PHANTOM
 70
     0
  3
Phantom ______  __  __  ______  __  __  ______
 72
    65
 73
     6
 40
12.7
 49
6.35
 49
-1.27
 49
1.27
 49
-1.27
 49
1.27
 49
-1.27
  0
ENDTAB
  0
TABLE
  2
LAYER
 70
    26
  0
LAYER
  2
0
 70
     0
 62
     7
  6
CONTINUOUS
  0
LAYER
  2
1
 70
     0
 62
     4
  6
CONTINUOUS
  0
LAYER
  2
2
 70
     0
 62
     7
  6
CONTINUOUS
  0
LAYER
  2
3
 70
     0
 62
     1
  6
DASHED
  0
LAYER
  2
4
 70
     0
 62
     2
  6
CENTER
  0
LAYER
  2
6
 70
     0
 62
     5
  6
CONTINUOUS
  0
LAYER
  2
7
 70
     0
 62
     5
  6
CONTINUOUS
  0
LAYER
  2
11
 70
     0
 62
     4
  6
CONTINUOUS
  0
LAYER
  2
SK1
 70
     0
 62
     4
  6
CONTINUOUS
  0
LAYER
  2
SK2
 70
     0
 62
     7
  6
CONTINUOUS
  0
LAYER
  2
SK3
 70
     0
 62
     1
  6
DASHED
  0
LAYER
  2
SK4
 70
     0
 62
     2
  6
CENTER
  0
LAYER
  2
SK6
 70
     0
 62
     5
  6
CONTINUOUS
  0
LAYER
  2
SK7
 70
     0
 62
     5
  6
CONTINUOUS
  0
LAYER
  2
SK11
 70
     0
 62
     4
  6
CONTINUOUS
  0
LAYER
  2
CUT
 70
     0
 62
     1
  6
CONTINUOUS
  0
LAYER
  2
NOCUT
 70
     0
 62
    -7
  6
CONTINUOUS
  0
LAYER
  2
SKVIEW1
 70
     0
 62
     4
  6
CONTINUOUS
  0
LAYER
  2
SKVIEW2
 70
     0
 62
     7
  6
CONTINUOUS
  0
LAYER
  2
SKVIEW3
 70
     0
 62
     1
  6
DASHED
  0
LAYER
  2
SKVIEW4
 70
     0
 62
     2
  6
CENTER
  0
LAYER
  2
SKVIEW6
 70
     0
 62
     5
  6
CONTINUOUS
  0
LAYER
  2
SKVIEW7
 70
     0
 62
     5
  6
CONTINUOUS
  0
LAYER
  2
SKVIEW11
 70
     0
 62
     4
  6
CONTINUOUS
  0
LAYER
  2
INFTOTAL
 70
     0
 62
     9
  6
CONTINUOUS
  0
LAYER
  2
DEFPOINTS
 70
     0
 62
     7
  6
CONTINUOUS
  0
ENDTAB
  0
TABLE
  2
STYLE
 70
     1
  0
STYLE
  2
STANDARD
 70
     0
 40
0.0
 41
1.0
 50
0.0
 71
     0
 42
2.5
  3
txt
  4

  0
ENDTAB
  0
TABLE
  2
VIEW
 70
     0
  0
ENDTAB
  0
TABLE
  2
UCS
 70
     0
  0
ENDTAB
  0
TABLE
  2
APPID
 70
     2
  0
APPID
  2
ACAD
 70
     0
  0
APPID
  2
ACAECLAYERSTANDARD
 70
     0
  0
ENDTAB
  0
TABLE
  2
DIMSTYLE
 70
     1
  0
DIMSTYLE
  2
ISO-25
 70
     0
  3

  4

  5

  6

  7

 40
1.0
 41
2.5
 42
0.625
 43
3.75
 44
1.25
 45
0.0
 46
0.0
 47
0.0
 48
0.0
140
2.5
141
2.5
142
0.0
143
0.03937007874016
144
1.0
145
0.0
146
1.0
147
0.625
 71
     0
 72
     0
 73
     0
 74
     0
 75
     0
 76
     0
 77
     1
 78
     8
170
     0
171
     3
172
     1
173
     0
174
     0
175
     0
176
     0
177
     0
178
     0
  0
ENDTAB
  0
ENDSEC
  0
SECTION
  2
BLOCKS
  0
BLOCK
  8
0
  2
$MODEL_SPACE
 70
     0
 10
0.0
 20
0.0
 30
0.0
  3
$MODEL_SPACE
  1

  0
ENDBLK
  5
21
  8
0
  0
BLOCK
 67
     1
  8
0
  2
$PAPER_SPACE
 70
     0
 10
0.0
 20
0.0
 30
0.0
  3
$PAPER_SPACE
  1

  0
ENDBLK
  5
1D
 67
     1
  8
0
  0
BLOCK
  8
0
  2
_FILLED
 70
     0
 10
0.0
 20
0.0
 30
0.0
  3
_FILLED
  1

  0
SOLID
  5
1C4
  8
0
  6
BYBLOCK
 62
     0
 10
0.0
 20
0.0
 30
0.0
 11
-1.0
 21
0.2142857143
 31
0.0
 12
-1.0
 22
-0.2142857143
 32
0.0
 13
-1.0
 23
-0.2142857143
 33
0.0
  0
ENDBLK
  5
1C5
  8
0
  6
BYBLOCK
 62
     0
  0
BLOCK
  8
0
  2
*D5
 70
     1
 10
0.0
 20
0.0
 30
0.0
  3
*D5
  1

  0
LINE
  5
1D3
  8
2
 62
     0
 10
0.0
 20
22.84999999999999
 30
0.0
 11
0.0
 21
48.91573065769793
 31
0.0
  0
LINE
  5
1D4
  8
2
 62
     0
 10
38.0
 20
19.375
 30
0.0
 11
38.0
 21
48.91573065769793
 31
0.0
  0
LINE
  5
1D5
  8
2
 62
     0
 10
2.5
 20
47.66573065769793
 30
0.0
 11
35.5
 21
47.66573065769793
 31
0.0
  0
SOLID
  5
1D6
  8
2
 62
     0
 10
2.5
 20
48.08239732436459
 30
0.0
 11
2.5
 21
47.24906399103126
 31
0.0
 12
0.0
 22
47.66573065769793
 32
0.0
 13
0.0
 23
47.66573065769793
 33
0.0
  0
SOLID
  5
1D7
  8
2
 62
     0
 10
35.5
 20
47.24906399103126
 30
0.0
 11
35.5
 21
48.08239732436459
 31
0.0
 12
38.0
 22
47.66573065769793
 32
0.0
 13
38.0
 23
47.66573065769793
 33
0.0
  0
TEXT
  5
1D8
  8
2
  6
CONTINUOUS
 62
     0
 10
16.91666666666667
 20
48.29073065769793
 30
0.0
 40
2.5
  1
38
  0
POINT
  5
1D9
  8
DEFPOINTS
 62
     0
 10
0.0
 20
22.22499999999999
 30
0.0
  0
POINT
  5
1DA
  8
DEFPOINTS
 62
     0
 10
38.0
 20
18.75
 30
0.0
  0
POINT
  5
1DB
  8
DEFPOINTS
 62
     0
 10
38.0
 20
47.66573065769793
 30
0.0
  0
ENDBLK
  5
1DD
  8
0
  0
BLOCK
  8
0
  2
*D9
 70
     1
 10
0.0
 20
0.0
 30
0.0
  3
*D9
  1

  0
LINE
  5
211
  8
SK2
 62
     0
 10
0.0
 20
-22.84999999999999
 30
0.0
 11
0.0
 21
-48.27109509650273
 31
0.0
  0
LINE
  5
212
  8
SK2
 62
     0
 10
35.04999999999998
 20
-21.84999999999999
 30
0.0
 11
35.04999999999998
 21
-48.27109509650273
 31
0.0
  0
LINE
  5
213
  8
SK2
 62
     0
 10
2.5
 20
-47.02109509650273
 30
0.0
 11
32.54999999999998
 21
-47.02109509650273
 31
0.0
  0
SOLID
  5
214
  8
SK2
 62
     0
 10
2.5
 20
-46.60442842983606
 30
0.0
 11
2.5
 21
-47.43776176316939
 31
0.0
 12
0.0
 22
-47.02109509650273
 32
0.0
 13
0.0
 23
-47.02109509650273
 33
0.0
  0
SOLID
  5
215
  8
SK2
 62
     0
 10
32.54999999999998
 20
-47.43776176316939
 30
0.0
 11
32.54999999999998
 21
-46.60442842983606
 31
0.0
 12
35.04999999999998
 22
-47.02109509650273
 32
0.0
 13
35.04999999999998
 23
-47.02109509650273
 33
0.0
  0
TEXT
  5
216
  8
SK2
  6
CONTINUOUS
 62
     0
 10
12.73333333333333
 20
-46.39609509650273
 30
0.0
 40
2.5
  1
35.05
  0
POINT
  5
217
  8
DEFPOINTS
 62
     0
 10
0.0
 20
-22.22499999999999
 30
0.0
  0
POINT
  5
218
  8
DEFPOINTS
 62
     0
 10
35.04999999999998
 20
-21.22499999999999
 30
0.0
  0
POINT
  5
219
  8
DEFPOINTS
 62
     0
 10
35.04999999999998
 20
-47.02109509650273
 30
0.0
  0
ENDBLK
  5
21B
  8
0
  0
BLOCK
  8
0
  2
*D12
 70
     1
 10
0.0
 20
0.0
 30
0.0
  3
*D12
  1

  0
LINE
  5
55C
  8
SK2
 62
     0
 10
34.67499999999998
 20
22.22500000000001
 30
0.0
 11
71.23176339129745
 21
22.225
 31
0.0
  0
LINE
  5
55D
  8
SK2
 62
     0
 10
34.67499999999998
 20
-22.22500000000001
 30
0.0
 11
71.23176339129745
 21
-22.22500000000001
 31
0.0
  0
LINE
  5
55E
  8
SK2
 62
     0
 10
69.98176339129745
 20
19.725
 30
0.0
 11
69.98176339129745
 21
-19.72500000000001
 31
0.0
  0
SOLID
  5
55F
  8
SK2
 62
     0
 10
70.39843005796412
 20
19.725
 30
0.0
 11
69.56509672463078
 21
19.725
 31
0.0
 12
69.98176339129745
 22
22.225
 32
0.0
 13
69.98176339129745
 23
22.225
 33
0.0
  0
SOLID
  5
560
  8
SK2
 62
     0
 10
69.56509672463078
 20
-19.72500000000001
 30
0.0
 11
70.39843005796412
 21
-19.72500000000001
 31
0.0
 12
69.98176339129745
 22
-22.22500000000001
 32
0.0
 13
69.98176339129745
 23
-22.22500000000001
 33
0.0
  0
TEXT
  5
561
  8
SK2
  6
CONTINUOUS
 62
     0
 10
69.35676339129745
 20
-5.0
 30
0.0
 40
2.5
  1
44.45
 50
90.0
  0
POINT
  5
562
  8
DEFPOINTS
 62
     0
 10
34.04999999999998
 20
22.22500000000001
 30
0.0
  0
POINT
  5
563
  8
DEFPOINTS
 62
     0
 10
34.04999999999998
 20
-22.22500000000001
 30
0.0
  0
POINT
  5
564
  8
DEFPOINTS
 62
     0
 10
69.98176339129745
 20
-22.22500000000001
 30
0.0
  0
ENDBLK
  5
566
  8
0
  0
BLOCK
  8
0
  2
*D21
 70
     1
 10
0.0
 20
0.0
 30
0.0
  3
*D21
  1

  0
LINE
  5
14A6
  8
0
 62
     0
 10
37.875
 20
19.5
 30
0.0
 11
57.07867406627373
 21
19.5
 31
0.0
  0
LINE
  5
14A7
  8
0
 62
     0
 10
37.875
 20
-19.5
 30
0.0
 11
57.07867406627373
 21
-19.5
 31
0.0
  0
LINE
  5
14A8
  8
0
 62
     0
 10
55.82867406627373
 20
17.0
 30
0.0
 11
55.82867406627373
 21
-17.0
 31
0.0
  0
SOLID
  5
14A9
  8
0
 62
     0
 10
56.24534073294039
 20
17.0
 30
0.0
 11
55.41200739960706
 21
17.0
 31
0.0
 12
55.82867406627373
 22
19.5
 32
0.0
 13
55.82867406627373
 23
19.5
 33
0.0
  0
SOLID
  5
14AA
  8
0
 62
     0
 10
55.41200739960706
 20
-17.0
 30
0.0
 11
56.24534073294039
 21
-17.0
 31
0.0
 12
55.82867406627373
 22
-19.5
 32
0.0
 13
55.82867406627373
 23
-19.5
 33
0.0
  0
TEXT
  5
14AB
  8
0
  6
CONTINUOUS
 62
     0
 10
55.20367406627373
 20
-2.083333333333336
 30
0.0
 40
2.5
  1
39
 50
90.0
  0
POINT
  5
14AC
  8
DEFPOINTS
 62
     0
 10
37.25
 20
19.5
 30
0.0
  0
POINT
  5
14AD
  8
DEFPOINTS
 62
     0
 10
37.25
 20
-19.5
 30
0.0
  0
POINT
  5
14AE
  8
DEFPOINTS
 62
     0
 10
55.82867406627373
 20
-19.5
 30
0.0
  0
ENDBLK
  5
14B0
  8
0
  0
ENDSEC
  0
SECTION
  2
ENTITIES
  0
LINE
  5
1B2
  8
4
 10
38.0
 20
-0.0000000026074281
 30
0.0
 11
0.0
 21
0.0
 31
0.0
  0
DIMENSION
  5
1CF
  8
2
  2
*D5
 10
38.0
 20
47.66573065769793
 30
0.0
 11
19.0
 21
49.54073065769793
 31
0.0
 70
    32
  3
ISO-25
 13
0.0
 23
22.22499999999999
 33
0.0
 14
38.0
 24
18.75
 34
0.0
  0
DIMENSION
  5
20D
  8
SK2
  2
*D9
 10
35.04999999999998
 20
-47.02109509650273
 30
0.0
 11
17.52499999999999
 21
-45.14609509650273
 31
0.0
 70
    32
  3
ISO-25
 13
0.0
 23
-22.22499999999999
 33
0.0
 14
35.04999999999998
 24
-21.22499999999999
 34
0.0
  0
LINE
  5
364
  8
NOCUT
 10
38.0
 20
-0.0000000026074281
 30
0.0
 11
0.0
 21
0.0
 31
0.0
  0
DIMENSION
  5
558
  8
SK2
  2
*D12
 10
69.98176339129745
 20
-22.22500000000001
 30
0.0
 11
68.10676339129745
 21
-0.0000000000000036
 31
0.0
 70
    32
  3
ISO-25
 13
34.04999999999998
 23
22.22500000000001
 33
0.0
 14
34.04999999999998
 24
-22.22500000000001
 34
0.0
 50
90.0
1001
ACAD
1000
DSTYLE
1002
{
1070
   287
1070
     5
1070
   271
1070
     3
1070
   272
1070
     3
1070
   279
1070
     2
1002
}
  0
ARC
  5
943
  8
1
 10
2.674999999999955
 20
-22.72500000000001
 30
0.0
 40
0.5000000000000036
 50
0.0
 51
90.0
  0
ARC
  5
945
  8
1
 10
2.674999999999955
 20
22.72499999999999
 30
0.0
 40
0.5
 50
270.0
 51
0.0
  0
ARC
  5
946
  8
1
 10
19.54999999999995
 20
-22.72500000000001
 30
0.0
 40
0.5000000000000036
 50
90.0
 51
180.0
  0
ARC
  5
947
  8
1
 10
19.54999999999995
 20
22.72499999999999
 30
0.0
 40
0.5
 50
180.0
 51
270.0
  0
LINE
  5
948
  8
SK1
 10
0.0
 20
22.22499999999999
 30
0.0
 11
-67.39430822730003
 21
12.39657058260001
 31
0.0
  0
LINE
  5
949
  8
SK1
 10
-67.39430822730003
 20
-12.39657058269999
 30
0.0
 11
0.0
 21
-22.22500000000001
 31
0.0
  0
LINE
  5
94A
  8
1
 10
0.0
 20
-22.22500000000001
 30
0.0
 11
2.674999999999955
 21
-22.22500000000001
 31
0.0
  0
LINE
  5
94B
  8
1
 10
2.674999999999955
 20
22.22499999999999
 30
0.0
 11
0.0
 21
22.22499999999999
 31
0.0
  0
LINE
  5
94C
  8
1
 10
19.54999999999995
 20
-22.22500000000001
 30
0.0
 11
34.5
 21
-22.22500000000001
 31
0.0
  0
LINE
  5
94D
  8
1
 10
34.5
 20
22.22499999999999
 30
0.0
 11
19.54999999999995
 21
22.22499999999999
 31
0.0
  0
LINE
  5
94E
  8
1
 10
34.5
 20
-22.22500000000001
 30
0.0
 11
35.0
 21
-21.72500000000001
 31
0.0
  0
LINE
  5
94F
  8
1
 10
35.0
 20
21.72499999999999
 30
0.0
 11
34.5
 21
22.22499999999999
 31
0.0
  0
ARC
  5
956
  8
SK1
 10
-67.25000000000003
 20
-11.40703779620002
 30
0.0
 40
1.0
 50
180.0
 51
261.7027777778001
  0
ARC
  5
957
  8
SK1
 10
-67.25000000000003
 20
11.4070377961
 30
0.0
 40
1.000000000000004
 50
98.29722222219978
 51
180.0
  0
LINE
  5
958
  8
1
 10
14.65616676909997
 20
30.7125381562
 30
0.0
 11
18.54999999999995
 21
30.7125381562
 31
0.0
  0
LINE
  5
959
  8
1
 10
18.54999999999995
 20
-30.7125381563
 30
0.0
 11
18.54999999999995
 21
30.7125381562
 31
0.0
  0
LINE
  5
95A
  8
1
 10
14.65616676909997
 20
-30.7125381563
 30
0.0
 11
18.54999999999995
 21
-30.7125381563
 31
0.0
  0
LINE
  5
95B
  8
1
 10
14.65616676909997
 20
-30.7125381563
 30
0.0
 11
14.65616676909997
 21
30.7125381562
 31
0.0
  0
POLYLINE
  5
95C
  8
1
 66
     1
 10
0.0
 20
0.0
 30
0.0
  0
VERTEX
  5
15B9
  8
1
 10
18.54999999999995
 20
30.7125381562
 30
0.0
  0
VERTEX
  5
15BA
  8
1
 10
18.57284145939997
 20
30.6889245341
 30
0.0
  0
VERTEX
  5
15BB
  8
1
 10
19.04999999999995
 20
30.1953638825
 30
0.0
  0
SEQEND
  5
15FF
  8
1
  0
LINE
  5
95D
  8
1
 10
19.04999999999995
 20
-30.19536388260001
 30
0.0
 11
19.04999999999995
 21
30.1953638825
 31
0.0
  0
POLYLINE
  5
95E
  8
1
 66
     1
 10
0.0
 20
0.0
 30
0.0
  0
VERTEX
  5
15BC
  8
1
 10
18.54999999999995
 20
-30.7125381563
 30
0.0
  0
VERTEX
  5
15BD
  8
1
 10
18.72393834649995
 20
-30.53269017859999
 30
0.0
  0
VERTEX
  5
15BE
  8
1
 10
19.04999999999995
 20
-30.19536388260001
 30
0.0
  0
SEQEND
  5
15FE
  8
1
  0
POLYLINE
  5
95F
  8
1
 66
     1
 10
0.0
 20
0.0
 30
0.0
  0
VERTEX
  5
15BF
  8
1
 10
3.174999999999955
 20
30.1953638825
 30
0.0
  0
VERTEX
  5
15C0
  8
1
 10
3.652158540599999
 20
30.6889245341
 30
0.0
  0
VERTEX
  5
15C1
  8
1
 10
3.674999999999955
 20
30.7125381562
 30
0.0
  0
SEQEND
  5
15FD
  8
1
  0
LINE
  5
960
  8
1
 10
3.674999999999955
 20
-30.7125381563
 30
0.0
 11
3.674999999999955
 21
30.7125381562
 31
0.0
  0
POLYLINE
  5
961
  8
1
 66
     1
 10
0.0
 20
0.0
 30
0.0
  0
VERTEX
  5
15C2
  8
1
 10
3.174999999999955
 20
-30.19536388260001
 30
0.0
  0
VERTEX
  5
15C3
  8
1
 10
3.501061653399972
 20
-30.53269017859999
 30
0.0
  0
VERTEX
  5
15C4
  8
1
 10
3.674999999999955
 20
-30.7125381563
 30
0.0
  0
SEQEND
  5
15FC
  8
1
  0
LINE
  5
962
  8
1
 10
3.174999999999955
 20
-30.19536388260001
 30
0.0
 11
3.174999999999955
 21
30.1953638825
 31
0.0
  0
LINE
  5
963
  8
1
 10
3.674999999999955
 20
30.7125381562
 30
0.0
 11
7.603833230899966
 21
30.7125381562
 31
0.0
  0
LINE
  5
964
  8
1
 10
7.603833230899966
 20
-30.7125381563
 30
0.0
 11
7.603833230899966
 21
30.7125381562
 31
0.0
  0
LINE
  5
965
  8
1
 10
3.674999999999955
 20
-30.7125381563
 30
0.0
 11
7.603833230899966
 21
-30.7125381563
 31
0.0
  0
POLYLINE
  5
966
  8
1
 66
     1
 10
0.0
 20
0.0
 30
0.0
  0
VERTEX
  5
15C5
  8
1
 10
7.603833230899966
 20
30.7125381562
 30
0.0
  0
VERTEX
  5
15C6
  8
1
 10
9.140787278000005
 20
27.9518236359
 30
0.0
  0
VERTEX
  5
15C7
  8
1
 10
9.204999999999984
 20
27.8360650174
 30
0.0
  0
SEQEND
  5
15FB
  8
1
  0
LINE
  5
967
  8
1
 10
9.204999999999984
 20
-27.83606501749999
 30
0.0
 11
9.204999999999984
 21
27.8360650174
 31
0.0
  0
POLYLINE
  5
968
  8
1
 66
     1
 10
0.0
 20
0.0
 30
0.0
  0
VERTEX
  5
15C8
  8
1
 10
7.603833230899966
 20
-30.7125381563
 30
0.0
  0
VERTEX
  5
15C9
  8
1
 10
7.839309007799955
 20
-30.29071623330002
 30
0.0
  0
VERTEX
  5
15CA
  8
1
 10
9.204999999999984
 20
-27.83606501749999
 30
0.0
  0
SEQEND
  5
15FA
  8
1
  0
POLYLINE
  5
969
  8
1
 66
     1
 10
0.0
 20
0.0
 30
0.0
  0
VERTEX
  5
15CB
  8
1
 10
13.05499999999995
 20
27.8360650174
 30
0.0
  0
VERTEX
  5
15CC
  8
1
 10
13.1192127219
 20
27.9518236359
 30
0.0
  0
VERTEX
  5
15CD
  8
1
 10
14.65616676909997
 20
30.7125381562
 30
0.0
  0
SEQEND
  5
15F9
  8
1
  0
POLYLINE
  5
96A
  8
1
 66
     1
 10
0.0
 20
0.0
 30
0.0
  0
VERTEX
  5
15CE
  8
1
 10
13.05499999999995
 20
-27.83606501749999
 30
0.0
  0
VERTEX
  5
15CF
  8
1
 10
14.42069099219998
 20
-30.29071623330002
 30
0.0
  0
VERTEX
  5
15D0
  8
1
 10
14.65616676909997
 20
-30.7125381563
 30
0.0
  0
SEQEND
  5
15F8
  8
1
  0
LINE
  5
96B
  8
1
 10
13.05499999999995
 20
-27.83606501749999
 30
0.0
 11
13.05499999999995
 21
27.8360650174
 31
0.0
  0
ARC
  5
96C
  8
1
 10
12.54226966779999
 20
27.51838423379999
 30
0.0
 40
0.512803993977288
 50
271.4225108534019
 51
0.9711541378997977
  0
ARC
  5
96D
  8
1
 10
12.5439705343
 20
-27.51675298100001
 30
0.0
 40
0.511133715010145
 50
358.8427842359026
 51
88.76355077280213
  0
ARC
  5
96E
  8
1
 10
9.716236145599964
 20
27.5169512018
 30
0.0
 40
0.5113363895821054
 50
178.8654582714003
 51
268.7408767374973
  0
ARC
  5
96F
  8
1
 10
9.71601520759998
 20
-27.5167393064
 30
0.0
 40
0.511119736159064
 50
91.23488436249683
 51
181.1587806289016
  0
LINE
  5
970
  8
1
 10
9.704999999999984
 20
27.0057382791
 30
0.0
 11
12.55499999999995
 21
27.0057382791
 31
0.0
  0
LINE
  5
971
  8
1
 10
9.704999999999984
 20
-27.00573827909999
 30
0.0
 11
12.55499999999995
 21
-27.00573827909999
 31
0.0
  0
LINE
  5
972
  8
1
 10
0.0
 20
0.0
 30
0.0
 11
0.0
 21
22.22499999999999
 31
0.0
  0
LINE
  5
973
  8
1
 10
0.0
 20
-22.22500000000001
 30
0.0
 11
0.0
 21
0.0
 31
0.0
  0
LINE
  5
974
  8
1
 10
34.5
 20
0.0
 30
0.0
 11
34.5
 21
22.22499999999999
 31
0.0
  0
LINE
  5
975
  8
1
 10
34.5
 20
-22.22500000000001
 30
0.0
 11
34.5
 21
0.0
 31
0.0
  0
LINE
  5
976
  8
1
 10
35.0
 20
0.0
 30
0.0
 11
35.0
 21
-21.72500000000001
 31
0.0
  0
LINE
  5
977
  8
1
 10
35.0
 20
21.72499999999999
 30
0.0
 11
35.0
 21
0.0
 31
0.0
  0
LINE
  5
97C
  8
SK1
 10
-68.25000000000003
 20
0.0
 30
0.0
 11
-68.25000000000003
 21
11.4070377961
 31
0.0
  0
LINE
  5
97D
  8
SK1
 10
-68.25000000000003
 20
-11.40703779620002
 30
0.0
 11
-68.25000000000003
 21
0.0
 31
0.0
  0
LINE
  5
99D
  8
SK3
 10
-66.51794919240001
 20
0.0
 30
0.0
 11
-66.51794919240001
 21
8.149999999999991
 31
0.0
  0
LINE
  5
99E
  8
SK3
 10
-66.51794919240001
 20
-8.149999999999991
 30
0.0
 11
-66.51794919240001
 21
0.0
 31
0.0
  0
LINE
  5
99F
  8
SK3
 10
-63.48000000000002
 20
0.0
 30
0.0
 11
-63.48000000000002
 21
8.149999999999991
 31
0.0
  0
LINE
  5
9A0
  8
SK3
 10
-63.48000000000002
 20
-8.149999999999991
 30
0.0
 11
-63.48000000000002
 21
0.0
 31
0.0
  0
LINE
  5
9A1
  8
3
 10
3.174999999999955
 20
25.02
 30
0.0
 11
19.04999999999995
 21
25.02
 31
0.0
  0
LINE
  5
9A2
  8
3
 10
3.174999999999955
 20
-22.60000000000001
 30
0.0
 11
19.04999999999995
 21
-22.60000000000001
 31
0.0
  0
LINE
  5
9A7
  8
3
 10
11.13
 20
21.22
 30
0.0
 11
17.47999999999996
 21
21.22
 31
0.0
  0
LINE
  5
9A8
  8
3
 10
4.779999999999973
 20
21.22
 30
0.0
 11
11.13
 21
21.22
 31
0.0
  0
LINE
  5
9AF
  8
3
 10
11.13
 20
21.20999999999999
 30
0.0
 11
15.88
 21
21.20999999999999
 31
0.0
  0
LINE
  5
9B0
  8
3
 10
6.379999999999995
 20
21.20999999999999
 30
0.0
 11
11.13
 21
21.20999999999999
 31
0.0
  0
LINE
  5
9BF
  8
SK3
 10
-68.25000000000003
 20
-9.149999999999991
 30
0.0
 11
-66.51794919240001
 21
-8.149999999999991
 31
0.0
  0
LINE
  5
9C0
  8
SK3
 10
-66.51794919240001
 20
8.149999999999991
 30
0.0
 11
-68.25000000000003
 21
9.149999999999991
 31
0.0
  0
LINE
  5
9C1
  8
SK3
 10
-66.51794919240001
 20
-8.149999999999991
 30
0.0
 11
-63.48000000000002
 21
-8.149999999999991
 31
0.0
  0
LINE
  5
9C2
  8
SK3
 10
-63.48000000000002
 20
8.149999999999991
 30
0.0
 11
-66.51794919240001
 21
8.149999999999991
 31
0.0
  0
LINE
  5
9C3
  8
SK3
 10
-63.48000000000002
 20
-6.700000000000003
 30
0.0
 11
-25.75
 21
-6.700000000000003
 31
0.0
  0
LINE
  5
9C4
  8
SK3
 10
-25.75
 20
6.700000000000003
 30
0.0
 11
-63.48000000000002
 21
6.700000000000003
 31
0.0
  0
LINE
  5
9C7
  8
3
 10
4.779999999999973
 20
25.02
 30
0.0
 11
4.779999999999973
 21
21.22
 31
0.0
  0
LINE
  5
9C8
  8
3
 10
17.47999999999996
 20
21.22
 30
0.0
 11
17.47999999999996
 21
25.02
 31
0.0
  0
LINE
  5
9CB
  8
3
 10
6.379999999999995
 20
21.20999999999999
 30
0.0
 11
11.13
 21
18.3559120596
 31
0.0
  0
LINE
  5
9CC
  8
3
 10
11.13
 20
18.3559120596
 30
0.0
 11
15.88
 21
21.20999999999999
 31
0.0
  0
LINE
  5
9CD
  8
3
 10
6.379999999999995
 20
21.22
 30
0.0
 11
6.379999999999995
 21
21.20999999999999
 31
0.0
  0
LINE
  5
9CE
  8
3
 10
15.88
 20
21.20999999999999
 30
0.0
 11
15.88
 21
21.22
 31
0.0
  0
LINE
  5
9D7
  8
1
 10
2.674999999999955
 20
22.22499999999999
 30
0.0
 11
2.674999999999955
 21
-22.22500000000001
 31
0.0
  0
LINE
  5
9D8
  8
1
 10
19.54999999999995
 20
22.22499999999999
 30
0.0
 11
19.54999999999995
 21
-22.22500000000001
 31
0.0
  0
LINE
  5
9DF
  8
1
 10
9.704999999999984
 20
27.0057382791
 30
0.0
 11
9.704999999999984
 21
-27.00573827909999
 31
0.0
  0
LINE
  5
9E0
  8
1
 10
12.55499999999995
 20
27.0057382791
 30
0.0
 11
12.55499999999995
 21
-27.00573827909999
 31
0.0
  0
LINE
  5
9E4
  8
0
 10
3.0
 20
3.0
 30
0.0
 11
-3.0
 21
-3.0
 31
0.0
  0
LINE
  5
9E5
  8
0
 10
-3.0
 20
3.0
 30
0.0
 11
3.0
 21
-3.0
 31
0.0
  0
CIRCLE
  5
9E6
  8
0
 10
0.0
 20
0.0
 30
0.0
 40
2.5
  0
LINE
  5
9E7
  8
SK3
 10
-63.48000000000005
 20
-7.937499999800011
 30
0.0
 11
-39.75000000000003
 21
-7.937499999800011
 31
0.0
  0
LINE
  5
9E8
  8
SK3
 10
-39.75000000000003
 20
7.937500000199975
 30
0.0
 11
-39.75000000000003
 21
-7.937499999800011
 31
0.0
  0
LINE
  5
9E9
  8
SK3
 10
-39.75000000000003
 20
7.937500000199975
 30
0.0
 11
-63.48000000000005
 21
7.937500000199975
 31
0.0
  0
LINE
  5
9EA
  8
SK4
 10
-0.0000000000000284
 20
0.0000000002000036
 30
0.0
 11
-68.25000000000003
 21
0.0
 31
0.0
  0
ARC
  5
AA1
  8
NOCUT
 10
2.674999999999955
 20
22.72499999999999
 30
0.0
 40
0.5
 50
270.0
 51
0.0
  0
ARC
  5
AA3
  8
NOCUT
 10
19.54999999999995
 20
22.72499999999999
 30
0.0
 40
0.5
 50
180.0
 51
270.0
  0
LINE
  5
AA4
  8
NOCUT
 10
2.674999999999955
 20
22.22499999999999
 30
0.0
 11
0.0
 21
22.22499999999999
 31
0.0
  0
LINE
  5
AA5
  8
NOCUT
 10
34.5
 20
22.22499999999999
 30
0.0
 11
19.54999999999995
 21
22.22499999999999
 31
0.0
  0
LINE
  5
AA6
  8
NOCUT
 10
35.0
 20
21.72499999999999
 30
0.0
 11
34.5
 21
22.22499999999999
 31
0.0
  0
LINE
  5
AA7
  8
NOCUT
 10
14.65616676909997
 20
30.7125381562
 30
0.0
 11
18.54999999999995
 21
30.7125381562
 31
0.0
  0
POLYLINE
  5
AA8
  8
NOCUT
 66
     1
 10
0.0
 20
0.0
 30
0.0
  0
VERTEX
  5
15D1
  8
NOCUT
 10
18.54999999999995
 20
30.7125381562
 30
0.0
  0
VERTEX
  5
15D2
  8
NOCUT
 10
18.57284145939997
 20
30.6889245341
 30
0.0
  0
VERTEX
  5
15D3
  8
NOCUT
 10
19.04999999999995
 20
30.1953638825
 30
0.0
  0
SEQEND
  5
15F7
  8
NOCUT
  0
POLYLINE
  5
AA9
  8
NOCUT
 66
     1
 10
0.0
 20
0.0
 30
0.0
  0
VERTEX
  5
15D4
  8
NOCUT
 10
3.174999999999955
 20
30.1953638825
 30
0.0
  0
VERTEX
  5
15D5
  8
NOCUT
 10
3.652158540599999
 20
30.6889245341
 30
0.0
  0
VERTEX
  5
15D6
  8
NOCUT
 10
3.674999999999955
 20
30.7125381562
 30
0.0
  0
SEQEND
  5
15F6
  8
NOCUT
  0
LINE
  5
AAA
  8
NOCUT
 10
3.674999999999955
 20
30.7125381562
 30
0.0
 11
7.603833230899966
 21
30.7125381562
 31
0.0
  0
POLYLINE
  5
AAB
  8
NOCUT
 66
     1
 10
0.0
 20
0.0
 30
0.0
  0
VERTEX
  5
15D7
  8
NOCUT
 10
7.603833230899966
 20
30.7125381562
 30
0.0
  0
VERTEX
  5
15D8
  8
NOCUT
 10
9.140787278000005
 20
27.9518236359
 30
0.0
  0
VERTEX
  5
15D9
  8
NOCUT
 10
9.204999999999984
 20
27.8360650174
 30
0.0
  0
SEQEND
  5
15F5
  8
NOCUT
  0
POLYLINE
  5
AAC
  8
NOCUT
 66
     1
 10
0.0
 20
0.0
 30
0.0
  0
VERTEX
  5
15DA
  8
NOCUT
 10
13.05499999999995
 20
27.8360650174
 30
0.0
  0
VERTEX
  5
15DB
  8
NOCUT
 10
13.1192127219
 20
27.9518236359
 30
0.0
  0
VERTEX
  5
15DC
  8
NOCUT
 10
14.65616676909997
 20
30.7125381562
 30
0.0
  0
SEQEND
  5
15F4
  8
NOCUT
  0
ARC
  5
AAD
  8
NOCUT
 10
12.54226966779999
 20
27.51838423379999
 30
0.0
 40
0.512803993977288
 50
271.4225108534019
 51
0.9711541378997977
  0
ARC
  5
AAE
  8
NOCUT
 10
9.716236145599964
 20
27.5169512018
 30
0.0
 40
0.5113363895821054
 50
178.8654582714003
 51
268.7408767374973
  0
LINE
  5
AAF
  8
NOCUT
 10
9.704999999999984
 20
27.0057382791
 30
0.0
 11
12.55499999999995
 21
27.0057382791
 31
0.0
  0
LINE
  5
AB0
  8
NOCUT
 10
0.0
 20
0.0
 30
0.0
 11
0.0
 21
22.22499999999999
 31
0.0
  0
LINE
  5
ACA
  8
NOCUT
 10
3.174999999999955
 20
22.72499999999999
 30
0.0
 11
3.174999999999955
 21
30.1953638825
 31
0.0
  0
LINE
  5
ACB
  8
NOCUT
 10
9.204999999999984
 20
27.8360650174
 30
0.0
 11
9.20489975601786
 21
27.5169512018
 31
0.0
  0
LINE
  5
ACC
  8
NOCUT
 10
13.05499999999995
 20
27.8360650174
 30
0.0
 11
13.05507366177728
 21
27.51838423379999
 31
0.0
  0
LINE
  5
ACD
  8
NOCUT
 10
19.04999999999995
 20
30.1953638825
 30
0.0
 11
19.04999999999995
 21
22.72499999999999
 31
0.0
  0
LINE
  5
BF7
  8
NOCUT
 10
35.0
 20
21.72499999674071
 30
0.0
 11
35.0
 21
21.5
 31
0.0
  0
LINE
  5
EAA
  8
SK3
 10
-25.75
 20
0.0
 30
0.0
 11
-25.75
 21
6.700000000000003
 31
0.0
  0
LINE
  5
EAB
  8
SK3
 10
-25.75
 20
-6.700000000000003
 30
0.0
 11
-25.75
 21
0.0
 31
0.0
  0
LINE
  5
EAC
  8
SK3
 10
-25.3293975667
 20
0.0
 30
0.0
 11
-25.3293975667
 21
-6.0
 31
0.0
  0
LINE
  5
EAD
  8
SK3
 10
-25.3293975667
 20
6.0
 30
0.0
 11
-25.3293975667
 21
0.0
 31
0.0
  0
LINE
  5
ECA
  8
SK3
 10
-25.75
 20
-6.700000000000003
 30
0.0
 11
-25.3293975667
 21
-6.0
 31
0.0
  0
LINE
  5
ECB
  8
SK3
 10
-25.3293975667
 20
6.0
 30
0.0
 11
-25.75
 21
6.700000000000003
 31
0.0
  0
LINE
  5
EE5
  8
SK3
 10
0.0000000000000071
 20
6.0
 30
0.0
 11
-25.3293975667
 21
6.0
 31
0.0
  0
LINE
  5
EE6
  8
SK3
 10
-25.3293975667
 20
-6.0
 30
0.0
 11
0.0
 21
-5.999999999999986
 31
0.0
  0
LINE
  5
12A6
  8
0
 10
39.99999999999991
 20
2.0
 30
0.0
 11
36.0
 21
-2.0
 31
0.0
  0
LINE
  5
12A7
  8
0
 10
36.0
 20
2.0
 30
0.0
 11
39.99999999999991
 21
-2.0
 31
0.0
  0
CIRCLE
  5
12A8
  8
0
 10
38.0
 20
0.0
 30
0.0
 40
1.5
  0
ARC
  5
140B
  8
1
 10
37.0
 20
-21.5
 30
0.0
 40
2.0
 50
90.0
 51
180.0
  0
ARC
  5
140C
  8
1
 10
37.0
 20
21.5
 30
0.0
 40
2.0
 50
180.0
 51
270.0
  0
LINE
  5
140D
  8
1
 10
37.25
 20
-19.5
 30
0.0
 11
38.0
 21
-18.75
 31
0.0
  0
LINE
  5
140E
  8
1
 10
38.0
 20
18.75
 30
0.0
 11
37.25
 21
19.5
 31
0.0
  0
LINE
  5
140F
  8
1
 10
37.0
 20
-19.5
 30
0.0
 11
37.25
 21
-19.5
 31
0.0
  0
LINE
  5
1410
  8
1
 10
37.25
 20
19.5
 30
0.0
 11
37.0
 21
19.5
 31
0.0
  0
CIRCLE
  5
143B
  8
1
 10
27.94999999999999
 20
0.0
 30
0.0
 40
3.39999999999992
  0
LINE
  5
143C
  8
1
 10
38.0
 20
18.75
 30
0.0
 11
38.0
 21
-18.75
 31
0.0
  0
LINE
  5
143D
  8
1
 10
37.25
 20
-19.5
 30
0.0
 11
37.25
 21
19.5
 31
0.0
  0
LINE
  5
1453
  8
3
 10
12.0
 20
11.25
 30
0.0
 11
12.0
 21
-11.25
 31
0.0
  0
LINE
  5
1454
  8
3
 10
16.25
 20
11.25
 30
0.0
 11
16.25
 21
-11.25
 31
0.0
  0
LINE
  5
1455
  8
3
 10
10.08915627010003
 20
6.0
 30
0.0
 11
10.08915627010003
 21
-6.0
 31
0.0
  0
LINE
  5
1456
  8
3
 10
16.5
 20
-11.0
 30
0.0
 11
16.5
 21
11.0
 31
0.0
  0
POLYLINE
  5
1457
  8
3
 66
     1
 10
0.0
 20
0.0
 30
0.0
  0
VERTEX
  5
15DD
  8
3
 10
37.59999999990004
 20
9.595993735200011
 30
0.0
  0
VERTEX
  5
15DE
  8
3
 10
37.67588875839999
 20
9.521663424300016
 30
0.0
  0
VERTEX
  5
15DF
  8
3
 10
37.75
 20
9.44555731700001
 30
0.0
  0
SEQEND
  5
15F3
  8
3
  0
LINE
  5
1458
  8
3
 10
27.39999999989999
 20
9.595993735200011
 30
0.0
 11
37.59999999990004
 21
9.595993735200011
 31
0.0
  0
LINE
  5
1459
  8
3
 10
27.39999999989999
 20
-9.595993735299999
 30
0.0
 11
37.59999999990004
 21
-9.595993735299999
 31
0.0
  0
POLYLINE
  5
145A
  8
3
 66
     1
 10
0.0
 20
0.0
 30
0.0
  0
VERTEX
  5
15E0
  8
3
 10
37.75
 20
-9.445557317099997
 30
0.0
  0
VERTEX
  5
15E1
  8
3
 10
37.67588875839999
 20
-9.521663424400003
 30
0.0
  0
VERTEX
  5
15E2
  8
3
 10
37.59999999990004
 20
-9.595993735299999
 30
0.0
  0
SEQEND
  5
15F2
  8
3
  0
LINE
  5
145B
  8
3
 10
37.75
 20
9.44555731700001
 30
0.0
 11
37.75
 21
-9.445557317099997
 31
0.0
  0
POLYLINE
  5
146B
  8
3
 66
     1
 10
0.0
 20
0.0
 30
0.0
  0
VERTEX
  5
15E3
  8
3
 10
37.75
 20
9.44555731700001
 30
0.0
  0
VERTEX
  5
15E4
  8
3
 10
37.8759343543
 20
9.440982247500017
 30
0.0
  0
VERTEX
  5
15E5
  8
3
 10
38.0
 20
9.433765206299995
 30
0.0
  0
SEQEND
  5
15F1
  8
3
  0
POLYLINE
  5
146C
  8
3
 66
     1
 10
0.0
 20
0.0
 30
0.0
  0
VERTEX
  5
15E6
  8
3
 10
38.0
 20
-9.433765206399983
 30
0.0
  0
VERTEX
  5
15E7
  8
3
 10
37.8759343543
 20
-9.440982247600004
 30
0.0
  0
VERTEX
  5
15E8
  8
3
 10
37.75
 20
-9.445557317099997
 30
0.0
  0
SEQEND
  5
15F0
  8
3
  0
LINE
  5
146D
  8
3
 10
37.59999999990004
 20
-9.595993735299999
 30
0.0
 11
37.59999999990004
 21
-13.66
 31
0.0
  0
LINE
  5
146E
  8
3
 10
27.39999999989999
 20
-9.595993735299999
 30
0.0
 11
27.39999999989999
 21
-13.66
 31
0.0
  0
LINE
  5
146F
  8
3
 10
37.59999999990004
 20
13.66
 30
0.0
 11
37.59999999990004
 21
9.595993735200011
 31
0.0
  0
LINE
  5
1470
  8
3
 10
27.39999999989999
 20
13.66
 30
0.0
 11
27.39999999989999
 21
9.595993735200011
 31
0.0
  0
LINE
  5
1473
  8
3
 10
37.59999999990004
 20
-13.66
 30
0.0
 11
37.59999999990004
 21
-15.41
 31
0.0
  0
LINE
  5
1474
  8
3
 10
37.59999999990004
 20
15.41
 30
0.0
 11
37.59999999990004
 21
13.66
 31
0.0
  0
LINE
  5
1475
  8
3
 10
27.39999999989999
 20
-13.66
 30
0.0
 11
27.39999999989999
 21
-15.41
 31
0.0
  0
LINE
  5
1476
  8
3
 10
27.39999999989999
 20
15.41
 30
0.0
 11
27.39999999989999
 21
13.66
 31
0.0
  0
LINE
  5
1477
  8
3
 10
24.5
 20
1.75
 30
0.0
 11
24.5
 21
-1.75
 31
0.0
  0
LINE
  5
1478
  8
3
 10
12.0
 20
-11.25
 30
0.0
 11
16.25
 21
-11.25
 31
0.0
  0
LINE
  5
1479
  8
3
 10
16.25
 20
11.25
 30
0.0
 11
12.0
 21
11.25
 31
0.0
  0
LINE
  5
147A
  8
3
 10
12.0
 20
11.25
 30
0.0
 11
10.08915627010003
 21
6.0
 31
0.0
  0
LINE
  5
147B
  8
3
 10
10.08915627010003
 20
-6.0
 30
0.0
 11
12.0
 21
-11.25
 31
0.0
  0
LINE
  5
147C
  8
3
 10
16.25
 20
-11.25
 30
0.0
 11
16.5
 21
-11.0
 31
0.0
  0
LINE
  5
147D
  8
3
 10
16.5
 20
11.0
 30
0.0
 11
16.25
 21
11.25
 31
0.0
  0
LINE
  5
147E
  8
3
 10
27.39999999989999
 20
11.0
 30
0.0
 11
16.5
 21
11.0
 31
0.0
  0
LINE
  5
147F
  8
3
 10
16.5
 20
-11.0
 30
0.0
 11
27.39999999989999
 21
-11.0
 31
0.0
  0
LINE
  5
148A
  8
3
 10
10.08915627010003
 20
6.0
 30
0.0
 11
0.0
 21
6.0
 31
0.0
  0
LINE
  5
148B
  8
3
 10
-0.0000000000000071
 20
-6.0
 30
0.0
 11
10.08915627010003
 21
-6.0
 31
0.0
  0
LINE
  5
1490
  8
3
 10
37.59999999990004
 20
-15.41
 30
0.0
 11
38.0
 21
-15.81000000009999
 31
0.0
  0
LINE
  5
1491
  8
3
 10
38.0
 20
15.81
 30
0.0
 11
37.59999999990004
 21
15.41
 31
0.0
  0
LINE
  5
1492
  8
3
 10
27.39999999989999
 20
-15.41
 30
0.0
 11
37.59999999990004
 21
-15.41
 31
0.0
  0
LINE
  5
1493
  8
3
 10
37.59999999990004
 20
15.41
 30
0.0
 11
27.39999999989999
 21
15.41
 31
0.0
  0
LINE
  5
1494
  8
3
 10
38.0
 20
1.75
 30
0.0
 11
24.5
 21
1.75
 31
0.0
  0
LINE
  5
1495
  8
3
 10
24.5
 20
-1.75
 30
0.0
 11
38.0
 21
-1.75
 31
0.0
  0
LINE
  5
1496
  8
3
 10
24.5
 20
1.75
 30
0.0
 11
23.44849391669999
 21
0.0
 31
0.0
  0
LINE
  5
1497
  8
3
 10
23.44849391669999
 20
0.0
 30
0.0
 11
24.5
 21
-1.75
 31
0.0
  0
LINE
  5
149B
  8
1
 10
37.0
 20
-19.5
 30
0.0
 11
37.0
 21
19.5
 31
0.0
  0
DIMENSION
  5
14A2
  8
0
  2
*D21
 10
55.82867406627373
 20
-19.5
 30
0.0
 11
53.95367406627373
 21
0.0
 31
0.0
 70
    32
  3
ISO-25
 13
37.25
 23
19.5
 33
0.0
 14
37.25
 24
-19.5
 34
0.0
 50
90.0
1001
ACAD
1000
DSTYLE
1002
{
1070
   287
1070
     5
1070
   271
1070
     3
1070
   272
1070
     3
1070
   279
1070
     2
1002
}
  0
LINE
  5
14B1
  8
1
 10
29.94999999999999
 20
-1.1547005384
 30
0.0
 11
29.94999999999999
 21
1.154700538299998
 31
0.0
  0
LINE
  5
14B3
  8
1
 10
27.94999999999999
 20
-2.3094010768
 30
0.0
 11
29.94999999999999
 21
-1.1547005384
 31
0.0
  0
LINE
  5
14B4
  8
1
 10
25.94999999999999
 20
-1.1547005384
 30
0.0
 11
27.94999999999999
 21
-2.3094010768
 31
0.0
  0
LINE
  5
14B5
  8
1
 10
25.94999999999999
 20
1.154700538299998
 30
0.0
 11
25.94999999999999
 21
-1.1547005384
 31
0.0
  0
LINE
  5
14B6
  8
1
 10
27.94999999999999
 20
2.309401076699999
 30
0.0
 11
25.94999999999999
 21
1.154700538299998
 31
0.0
  0
LINE
  5
14B7
  8
1
 10
29.94999999999999
 20
1.154700538299998
 30
0.0
 11
27.94999999999999
 21
2.309401076699999
 31
0.0
  0
CIRCLE
  5
14B8
  8
1
 10
27.94999999999999
 20
0.0
 30
0.0
 40
3.799999999999937
  0
ARC
  5
14BA
  8
NOCUT
 10
37.0
 20
21.5
 30
0.0
 40
2.0
 50
180.0
 51
270.0
  0
LINE
  5
14BC
  8
NOCUT
 10
37.25
 20
19.5
 30
0.0
 11
37.0
 21
19.5
 31
0.0
  0
LINE
  5
14BD
  8
NOCUT
 10
38.0
 20
18.75
 30
0.0
 11
37.25
 21
19.5
 31
0.0
  0
LINE
  5
14BE
  8
NOCUT
 10
38.0
 20
18.75
 30
0.0
 11
38.0
 21
-0.0000000026074218
 31
0.0
  0
TEXT
  5
15AD
  8
SK6
 10
-66.17909534664396
 20
47.33203563714093
 30
0.0
 40
3.5
  1
BIG KAISER
 41
0.85
  0
TEXT
  5
15B0
  8
SK6
 10
-66.17909534664396
 20
42.08203563714093
 30
0.0
 40
3.5
  1
11.326.440
 41
0.85
  0
INSERT
  5
15B1
  8
SK6
  2
_FILLED
 10
-17.9836627818344
 20
-19.60235774778011
 30
0.0
 41
3.5
 42
3.5
 43
3.5
 50
55.49325986033524
  0
POLYLINE
  5
15B5
  8
SK6
 66
     1
 10
0.0
 20
0.0
 30
0.0
  0
VERTEX
  5
15E9
  8
SK6
 10
-19.966423916232
 20
-22.48656618059532
 30
0.0
  0
VERTEX
  5
15EA
  8
SK6
 10
-33.48226568303441
 20
-42.14728280658011
 30
0.0
  0
VERTEX
  5
15EB
  8
SK6
 10
-35.35726568303438
 20
-40.39728280658011
 30
0.0
  0
VERTEX
  5
15EC
  8
SK6
 10
-38.85726568303438
 20
-40.39728280658011
 30
0.0
  0
SEQEND
  5
15EF
  8
SK6
  0
TEXT
  5
15B6
  8
SK6
 10
-53.86143234970108
 20
-43.89728280658011
 30
0.0
 40
3.5
  1
CV40
 41
0.85
  0
ENDSEC
  0
EOF
