  0
SECTION
  2
HEADER
  9
$ACADVER
  1
AC1015
  9
$ACADMAINTVER
 70
    13
  9
$DWGCODEPAGE
  3
ANSI_1252
  9
$INSBASE
 10
0.0
 20
0.0
 30
0.0
  9
$EXTMIN
 10
-3.937601112760418
 20
-1.245903345894447
 30
-0.0015258207003583
  9
$EXTMAX
 10
3.333260924070472
 20
2.706179559577282
 30
0.0000000349246037
  9
$LIMMIN
 10
0.0
 20
0.0
  9
$LIMMAX
 10
12.0
 20
9.0
  9
$ORTHOMODE
 70
     0
  9
$REGENMODE
 70
     1
  9
$FILLMODE
 70
     1
  9
$QTEXTMODE
 70
     0
  9
$MIRRTEXT
 70
     1
  9
$LTSCALE
 40
1.0
  9
$ATTMODE
 70
     1
  9
$TEXTSIZE
 40
0.2
  9
$TRACEWID
 40
0.05
  9
$TEXTSTYLE
  7
STYLE1
  9
$CLAYER
  8
LINE
  9
$CELTYPE
  6
BYLAYER
  9
$CECOLOR
 62
   256
  9
$CELTSCALE
 40
1.0
  9
$DISPSILH
 70
     0
  9
$DIMSCALE
 40
1.0
  9
$DIMASZ
 40
0.12
  9
$DIMEXO
 40
0.0625
  9
$DIMDLI
 40
0.38
  9
$DIMRND
 40
0.0
  9
$DIMDLE
 40
0.0
  9
$DIMEXE
 40
0.0625
  9
$DIMTP
 40
0.0
  9
$DIMTM
 40
0.0
  9
$DIMTXT
 40
0.125
  9
$DIMCEN
 40
0.0
  9
$DIMTSZ
 40
0.0
  9
$DIMTOL
 70
     0
  9
$DIMLIM
 70
     0
  9
$DIMTIH
 70
     0
  9
$DIMTOH
 70
     0
  9
$DIMSE1
 70
     0
  9
$DIMSE2
 70
     0
  9
$DIMTAD
 70
     1
  9
$DIMZIN
 70
     0
  9
$DIMBLK
  1

  9
$DIMASO
 70
     1
  9
$DIMSHO
 70
     1
  9
$DIMPOST
  1

  9
$DIMAPOST
  1

  9
$DIMALT
 70
     0
  9
$DIMALTD
 70
     2
  9
$DIMALTF
 40
25.4
  9
$DIMLFAC
 40
1.0
  9
$DIMTOFL
 70
     1
  9
$DIMTVP
 40
0.0
  9
$DIMTIX
 70
     0
  9
$DIMSOXD
 70
     0
  9
$DIMSAH
 70
     0
  9
$DIMBLK1
  1

  9
$DIMBLK2
  1

  9
$DIMSTYLE
  2
STANDARD
  9
$DIMCLRD
 70
     0
  9
$DIMCLRE
 70
     0
  9
$DIMCLRT
 70
     0
  9
$DIMTFAC
 40
1.0
  9
$DIMGAP
 40
0.05
  9
$DIMJUST
 70
     0
  9
$DIMSD1
 70
     0
  9
$DIMSD2
 70
     0
  9
$DIMTOLJ
 70
     1
  9
$DIMTZIN
 70
     0
  9
$DIMALTZ
 70
     0
  9
$DIMALTTZ
 70
     0
  9
$DIMUPT
 70
     0
  9
$DIMDEC
 70
     3
  9
$DIMTDEC
 70
     3
  9
$DIMALTU
 70
     2
  9
$DIMALTTD
 70
     2
  9
$DIMTXSTY
  7
ROMANS
  9
$DIMAUNIT
 70
     0
  9
$DIMADEC
 70
     0
  9
$DIMALTRND
 40
0.0
  9
$DIMAZIN
 70
     0
  9
$DIMDSEP
 70
    46
  9
$DIMATFIT
 70
     3
  9
$DIMFRAC
 70
     0
  9
$DIMLDRBLK
  1

  9
$DIMLUNIT
 70
     2
  9
$DIMLWD
 70
    -2
  9
$DIMLWE
 70
    -2
  9
$DIMTMOVE
 70
     0
  9
$LUNITS
 70
     2
  9
$LUPREC
 70
     4
  9
$SKETCHINC
 40
0.1
  9
$FILLETRAD
 40
0.0
  9
$AUNITS
 70
     0
  9
$AUPREC
 70
     0
  9
$MENU
  1
acad
  9
$ELEVATION
 40
0.0
  9
$PELEVATION
 40
0.0
  9
$THICKNESS
 40
0.0
  9
$LIMCHECK
 70
     0
  9
$CHAMFERA
 40
0.0
  9
$CHAMFERB
 40
0.0
  9
$CHAMFERC
 40
0.0
  9
$CHAMFERD
 40
0.0
  9
$SKPOLY
 70
     0
  9
$TDCREATE
 40
2452599.489566562
  9
$TDUCREATE
 40
2452599.697899895
  9
$TDUPDATE
 40
2452852.567800833
  9
$TDUUPDATE
 40
2452852.776134167
  9
$TDINDWG
 40
0.0256256250
  9
$TDUSRTIMER
 40
0.0256243519
  9
$USRTIMER
 70
     1
  9
$ANGBASE
 50
0.0
  9
$ANGDIR
 70
     0
  9
$PDMODE
 70
    65
  9
$PDSIZE
 40
-2.0
  9
$PLINEWID
 40
0.0
  9
$SPLFRAME
 70
     0
  9
$SPLINETYPE
 70
     6
  9
$SPLINESEGS
 70
     8
  9
$HANDSEED
  5
ADB
  9
$SURFTAB1
 70
     6
  9
$SURFTAB2
 70
     6
  9
$SURFTYPE
 70
     6
  9
$SURFU
 70
     6
  9
$SURFV
 70
     6
  9
$UCSBASE
  2

  9
$UCSNAME
  2

  9
$UCSORG
 10
0.0
 20
0.0
 30
0.0
  9
$UCSXDIR
 10
1.0
 20
0.0
 30
0.0
  9
$UCSYDIR
 10
0.0
 20
1.0
 30
0.0
  9
$UCSORTHOREF
  2

  9
$UCSORTHOVIEW
 70
     0
  9
$UCSORGTOP
 10
0.0
 20
0.0
 30
0.0
  9
$UCSORGBOTTOM
 10
0.0
 20
0.0
 30
0.0
  9
$UCSORGLEFT
 10
0.0
 20
0.0
 30
0.0
  9
$UCSORGRIGHT
 10
0.0
 20
0.0
 30
0.0
  9
$UCSORGFRONT
 10
0.0
 20
0.0
 30
0.0
  9
$UCSORGBACK
 10
0.0
 20
0.0
 30
0.0
  9
$PUCSBASE
  2

  9
$PUCSNAME
  2

  9
$PUCSORG
 10
0.0
 20
0.0
 30
0.0
  9
$PUCSXDIR
 10
1.0
 20
0.0
 30
0.0
  9
$PUCSYDIR
 10
0.0
 20
1.0
 30
0.0
  9
$PUCSORTHOREF
  2

  9
$PUCSORTHOVIEW
 70
     0
  9
$PUCSORGTOP
 10
0.0
 20
0.0
 30
0.0
  9
$PUCSORGBOTTOM
 10
0.0
 20
0.0
 30
0.0
  9
$PUCSORGLEFT
 10
0.0
 20
0.0
 30
0.0
  9
$PUCSORGRIGHT
 10
0.0
 20
0.0
 30
0.0
  9
$PUCSORGFRONT
 10
0.0
 20
0.0
 30
0.0
  9
$PUCSORGBACK
 10
0.0
 20
0.0
 30
0.0
  9
$USERI1
 70
     0
  9
$USERI2
 70
     0
  9
$USERI3
 70
     0
  9
$USERI4
 70
     0
  9
$USERI5
 70
     0
  9
$USERR1
 40
0.0
  9
$USERR2
 40
0.0
  9
$USERR3
 40
0.0
  9
$USERR4
 40
0.0
  9
$USERR5
 40
0.0
  9
$WORLDVIEW
 70
     1
  9
$SHADEDGE
 70
     3
  9
$SHADEDIF
 70
    70
  9
$TILEMODE
 70
     1
  9
$MAXACTVP
 70
    16
  9
$PINSBASE
 10
0.0
 20
0.0
 30
0.0
  9
$PLIMCHECK
 70
     0
  9
$PEXTMIN
 10
0.0
 20
0.0
 30
0.0
  9
$PEXTMAX
 10
0.0
 20
0.0
 30
0.0
  9
$PLIMMIN
 10
0.0
 20
0.0
  9
$PLIMMAX
 10
12.0
 20
9.0
  9
$UNITMODE
 70
     0
  9
$VISRETAIN
 70
     0
  9
$PLINEGEN
 70
     0
  9
$PSLTSCALE
 70
     1
  9
$TREEDEPTH
 70
  3020
  9
$CMLSTYLE
  2
STANDARD
  9
$CMLJUST
 70
     0
  9
$CMLSCALE
 40
1.0
  9
$PROXYGRAPHICS
 70
     1
  9
$MEASUREMENT
 70
     1
  9
$CELWEIGHT
370
    -1
  9
$ENDCAPS
280
     0
  9
$JOINSTYLE
280
     0
  9
$LWDISPLAY
290
     0
  9
$INSUNITS
 70
     4
  9
$HYPERLINKBASE
  1

  9
$STYLESHEET
  1

  9
$XEDIT
290
     1
  9
$CEPSNTYPE
380
     0
  9
$PSTYLEMODE
290
     1
  9
$FINGERPRINTGUID
  2
{D1A600B4-0B7C-4C98-A56B-7CC634BBC99F}
  9
$VERSIONGUID
  2
{64E899E1-25BC-45F3-860F-70CA6C4DA99C}
  9
$EXTNAMES
290
     1
  9
$PSVPSCALE
 40
0.0
  9
$OLESTARTUP
290
     0
  0
ENDSEC
  0
SECTION
  2
CLASSES
  0
CLASS
  1
ACDBDICTIONARYWDFLT
  2
AcDbDictionaryWithDefault
  3
AutoCAD 2000
 90
        0
280
     0
281
     0
  0
CLASS
  1
ACDBPLACEHOLDER
  2
AcDbPlaceHolder
  3
AutoCAD 2000
 90
        0
280
     0
281
     0
  0
CLASS
  1
LAYOUT
  2
AcDbLayout
  3
AutoCAD 2000
 90
        0
280
     0
281
     0
  0
CLASS
  1
DICTIONARYVAR
  2
AcDbDictionaryVar
  3
AutoCAD 2000
 90
        0
280
     0
281
     0
  0
CLASS
  1
ACME_DOCUMENT
  2
AcMeDbDoc
  3
AcMeServices
 90
    32768
280
     0
281
     0
  0
CLASS
  1
AMGSETTINGSOBJ
  2
AmgSettingsObj
  3
"AcadM|Product Description: AutoCAD Mechanical 2000|Company: Autodesk"
 90
        0
280
     0
281
     0
  0
CLASS
  1
ACMESCOPE
  2
AcMeScope
  3
AcMeServices
 90
        0
280
     0
281
     0
  0
CLASS
  1
ACMECOMMANDHISTORY
  2
AcMeCommandHistory
  3
AcMeServices
 90
        0
280
     0
281
     0
  0
CLASS
  1
ACIMSYSVARMAN
  2
AcImSysVarManager
  3
AcMeServices
 90
        0
280
     0
281
     0
  0
CLASS
  1
ACIMREALSYSVAR
  2
AcImRealSysVar
  3
AcMeServices
 90
        0
280
     0
281
     0
  0
CLASS
  1
ACIMINTSYSVAR
  2
AcImIntSysVar
  3
AcMeServices
 90
        0
280
     0
281
     0
  0
CLASS
  1
ACMEDRAWINGMAN
  2
AcMeDrawingMan
  3
AcMeServices
 90
        0
280
     0
281
     0
  0
CLASS
  1
ACMEVIEW
  2
AcMeView
  3
AcMeServices
 90
        0
280
     0
281
     0
  0
CLASS
  1
ACDBENTITYCACHE
  2
AcMeEntityCache
  3
AcMeServices
 90
    32768
280
     0
281
     0
  0
CLASS
  1
GSMANAGER
  2
AcMeGSManager
  3
AcMeServices
 90
    32768
280
     0
281
     0
  0
CLASS
  1
AMDTINTERNALREACTOR
  2
AmdtInternalReactor
  3
AcMeServices
 90
    32768
280
     0
281
     0
  0
CLASS
  1
ACMESTATEMGR
  2
AcMeStateMgr
  3
AcMeServices
 90
        0
280
     0
281
     0
  0
CLASS
  1
ACGREFMASTER
  2
AcGrefMaster
  3
AcAttribServices
 90
        0
280
     0
281
     0
  0
CLASS
  1
AM_DRAWING_MGR
  2
AcDmDwgMgr
  3
AcMechDwgViewMgmt
 90
        0
280
     0
281
     0
  0
CLASS
  1
AM_DWG_DOCUMENT
  2
AcDmDwgDocument
  3
AcMechDwgViewMgmt
 90
        0
280
     0
281
     0
  0
CLASS
  1
AM_DWG_SHEET
  2
AcDmSheet
  3
AcMechDwgViewMgmt
 90
        0
280
     0
281
     0
  0
CLASS
  1
AM_VIEWDIMPARMAP
  2
AcDmViewDimParMap
  3
AcMechDwgViewMgmt
 90
        0
280
     0
281
     0
  0
CLASS
  1
AM_DWGMGR_NAME
  2
AcDmDwgMgrName
  3
AcMechDwgViewMgmt
 90
        0
280
     0
281
     0
  0
CLASS
  1
ACME_DATABASE
  2
AcMeDbDatabase
  3
AcMeServices
 90
    32768
280
     0
281
     0
  0
CLASS
  1
ACRFINSADJUSTERMGR
  2
AcRfInsAdjusterMgr
  3
AcMeServices
 90
    32768
280
     0
281
     0
  0
CLASS
  1
ACGREFACADMASTER
  2
AcGrefacadMaster
  3
AcGrefServices
 90
        0
280
     0
281
     0
  0
CLASS
  1
AMDTMENUSTATEMGR
  2
AmdtMenuStateMgr
  3
McadcomServices
 90
    32768
280
     0
281
     0
  0
CLASS
  1
AMDTMCOMMENUSTATE
  2
AmdtMcomMenuState
  3
McadcomServices
 90
    32768
280
     0
281
     0
  0
CLASS
  1
AMIMASTER
  2
AmiMaster
  3
AmiServices
 90
        0
280
     0
281
     0
  0
CLASS
  1
ASAPP
  2
AcAsAppObject
  3
AutoSurfServices
 90
        0
280
     0
281
     0
  0
CLASS
  1
IM_STATIC_MAN
  2
AcImStaticVarManager
  3
AcMeServices
 90
        0
280
     0
281
     0
  0
CLASS
  1
ACIMSTRSYSVAR
  2
AcImStrSysVar
  3
AcMeServices
 90
        0
280
     0
281
     0
  0
CLASS
  1
ACIMDBLSTATICVAR
  2
AcImDblStaticVar
  3
AcMeServices
 90
        0
280
     0
281
     0
  0
CLASS
  1
ACIMSTRSTATICVAR
  2
AcImStrStaticVar
  3
AcMeServices
 90
        0
280
     0
281
     0
  0
CLASS
  1
ACIMINTSTATICVAR
  2
AcImIntStaticVar
  3
AcMeServices
 90
        0
280
     0
281
     0
  0
CLASS
  1
ACASGREFMASTER
  2
AcAsGrefMaster
  3
AutoSurfResolverServices
 90
        0
280
     0
281
     0
  0
CLASS
  1
ACADGREFMODULE
  2
AcAdGrefModule
  3
AdGrefServices
 90
        0
280
     0
281
     0
  0
CLASS
  1
AMDTMAPISURFMOUDULE
  2
AmdtMApiSurfModule
  3
MApiSurfServices
 90
        0
280
     0
281
     0
  0
CLASS
  1
MAPIAMMOUDLE
  2
MApiAmModule
  3
MApiAmServices
 90
        0
280
     0
281
     0
  0
CLASS
  1
AMDTADMENUSTATE
  2
AmdtAdMenuState
  3
DesignerServices
 90
    32768
280
     0
281
     0
  0
CLASS
  1
ADAPPL
  2
AcAdAppl
  3
DesignerServices
 90
        0
280
     0
281
     0
  0
CLASS
  1
DEPMGR
  2
AcAdDepMgr
  3
DesignerServices
 90
        0
280
     0
281
     0
  0
CLASS
  1
PARAMMGR
  2
AcAdParamMgr
  3
DesignerServices
 90
        0
280
     0
281
     0
  0
CLASS
  1
PARAMSCOPE
  2
AcAdParamScope
  3
DesignerServices
 90
        0
280
     0
281
     0
  0
CLASS
  1
NAMEDAPPL
  2
AcAdNamedAppl
  3
DesignerServices
 90
        0
280
     0
281
     0
  0
CLASS
  1
AMDTDMMENUSTATE
  2
AmdtDmMenuState
  3
AcMechDwgViewMgmt
 90
    32768
280
     0
281
     0
  0
CLASS
  1
MAPIADMODULE
  2
MApiAdModule
  3
MApiAdServices
 90
        0
280
     0
281
     0
  0
CLASS
  1
AMDTAMMENUSTATE
  2
AmdtAmMenuState
  3
DesignerAssemblies
 90
    32768
280
     0
281
     0
  0
CLASS
  1
ACAMPROJECT
  2
AcAmProject
  3
DesignerAssemblies
 90
        0
280
     0
281
     0
  0
CLASS
  1
ACAMGRCOMPDEF
  2
AcAmGrCompDef
  3
DesignerAssemblies
 90
        0
280
     0
281
     0
  0
CLASS
  1
ACCMCONTEXT
  2
AcCmContext
  3
DesignerAssemblies
 90
        0
280
     0
281
     0
  0
CLASS
  1
ACAMCOMPDEF
  2
AcAmCompDef
  3
DesignerAssemblies
 90
        0
280
     0
281
     0
  0
CLASS
  1
ACAMCOMPDEFMGR
  2
AcAmCompDefMgr
  3
DesignerAssemblies
 90
        0
280
     0
281
     0
  0
CLASS
  1
AMCONTEXTMGR
  2
AcAmContextMgr
  3
DesignerAssemblies
 90
        0
280
     0
281
     0
  0
CLASS
  1
ACAMCONTEXTMODELER
  2
AcAmContextModeler
  3
DesignerAssemblies
 90
        0
280
     0
281
     0
  0
CLASS
  1
ACMDATADICTIONARY
  2
AcmDataDictionary
  3
"AcmSymBB|Product Description: AutoCAD Mechanical 2000|Company: Autodesk"
 90
        0
280
     0
281
     0
  0
CLASS
  1
ACMDATAENTRYBLOCK
  2
AcmDataEntryBlock
  3
"AcmSymBB|Product Description: AutoCAD Mechanical 2000|Company: Autodesk"
 90
        0
280
     0
281
     0
  0
CLASS
  1
CATALOGSTATE
  2
AcAmCatalogState
  3
DesignerAssemblies
 90
        0
280
     0
281
     0
  0
CLASS
  1
ACAMGRCOMPDEFSET
  2
AcAmGrCompDefSet
  3
DesignerAssemblies
 90
    32768
280
     0
281
     0
  0
CLASS
  1
AMDTBROWSERDBTAB
  2
AmdtBrowserDbTab
  3
McadcomServices
 90
    32768
280
     0
281
     0
  0
CLASS
  1
CBROWSERAPPOBJECT
  2
CBrowserAppObject
  3
McadcomServices
 90
    32768
280
     0
281
     0
  0
CLASS
  1
DM_PLACEHOLDER
  2
AcDmSelsetPlaceholder
  3
AcMechDwgViewMgmt
 90
    32768
280
     0
281
     0
  0
CLASS
  1
ACMSTANDARDISO
  2
AcmStandardISO
  3
"Amdt_StdImp|Product Description: AutoCAD Mechanical 2000|Company: Autodesk"
 90
        0
280
     0
281
     0
  0
CLASS
  1
AMGOBJPROPCFG
  2
AmgObjPropCfg
  3
"AmgLay|Product Description: AutoCAD Mechanical 2000|Company: Autodesk"
 90
        1
280
     0
281
     0
  0
CLASS
  1
AMDTEDGESTANDARDISO
  2
AmdtEdgeStdISO
  3
"Amdt_StdImp|Product Description: AutoCAD Mechanical 2000|Company: Autodesk"
 90
        0
280
     0
281
     0
  0
CLASS
  1
ACMSURFSTANDARDISO
  2
AcmSurfTextStdISO
  3
"Amdt_StdImp|Product Description: AutoCAD Mechanical 2000|Company: Autodesk"
 90
        0
280
     0
281
     0
  0
CLASS
  1
ACMFCFSTANDARDISO
  2
AcmFCFStdISO
  3
"Amdt_StdImp|Product Description: AutoCAD Mechanical 2000|Company: Autodesk"
 90
        0
280
     0
281
     0
  0
CLASS
  1
ACMWELDSTANDARDISO
  2
AcmWeldingStdISO
  3
"Amdt_StdImp|Product Description: AutoCAD Mechanical 2000|Company: Autodesk"
 90
        0
280
     0
281
     0
  0
CLASS
  1
ACMIDSTANDARDISO
  2
AcmIdStdISO
  3
"Amdt_StdImp|Product Description: AutoCAD Mechanical 2000|Company: Autodesk"
 90
        0
280
     0
281
     0
  0
CLASS
  1
ACMDATUMSTANDARDISO
  2
AcmDatumStdISO
  3
"Amdt_StdImp|Product Description: AutoCAD Mechanical 2000|Company: Autodesk"
 90
        0
280
     0
281
     0
  0
CLASS
  1
ACMBOMSTANDARDISO
  2
AcmBOMStdISO
  3
"Amdt_StdImp|Product Description: AutoCAD Mechanical 2000|Company: Autodesk"
 90
        0
280
     0
281
     0
  0
CLASS
  1
ACMDETAILSTANDARDISO
  2
AmdtDetailSymStdISO
  3
"Amdt_StdImp|Product Description: AutoCAD Mechanical 2000|Company: Autodesk"
 90
        0
280
     0
281
     0
  0
CLASS
  1
ACMSECTIONSTANDARDISO
  2
AmdtSectionSymStdISO
  3
"Amdt_StdImp|Product Description: AutoCAD Mechanical 2000|Company: Autodesk"
 90
        0
280
     0
281
     0
  0
CLASS
  1
ACMCENTERLINESTANDARDISO
  2
AmdtCenterLineStdISO
  3
"Amdt_StdImp|Product Description: AutoCAD Mechanical 2000|Company: Autodesk"
 90
        0
280
     0
281
     0
  0
CLASS
  1
ACMTHREADLINESTANDARDISO
  2
AmdtThreadLineStdISO
  3
"Amdt_StdImp|Product Description: AutoCAD Mechanical 2000|Company: Autodesk"
 90
        0
280
     0
281
     0
  0
CLASS
  1
ACMNOTESTANDARDISO
  2
AmdtNoteStdISO
  3
"Amdt_StdImp|Product Description: AutoCAD Mechanical 2000|Company: Autodesk"
 90
        0
280
     0
281
     0
  0
CLASS
  1
ACAMGLAYSTD
  2
AcAmgLayStd
  3
"AcAmgLayStd|Product Description: AutoCAD Mechanical 2000|Company: Autodesk"
 90
        0
280
     0
281
     0
  0
CLASS
  1
ACAMGDIMSTD
  2
AcAmgDimStd
  3
"AcAmgDimStd|Product Description: AutoCAD Mechanical 2000|Company: Autodesk"
 90
        0
280
     0
281
     0
  0
CLASS
  1
ACAMGHOLECHARTSTDISO
  2
AcAmgHoleChartStdISO
  3
ACMSYMBB_MODULE_NAME
 90
        0
280
     0
281
     0
  0
CLASS
  1
ACAMGTITLESTD
  2
AcAmgTitleStd
  3
"TITLEAPP"
 90
        0
280
     0
281
     0
  0
CLASS
  1
ACMSTANDARDANSI
  2
AcmStandardANSI
  3
"Amdt_StdImp|Product Description: AutoCAD Mechanical 2000|Company: Autodesk"
 90
        0
280
     0
281
     0
  0
CLASS
  1
ACMSURFSTANDARDANSI
  2
AcmSurfTextStdANSI
  3
"Amdt_StdImp|Product Description: AutoCAD Mechanical 2000|Company: Autodesk"
 90
        0
280
     0
281
     0
  0
CLASS
  1
ACMFCFSTANDARDANSI
  2
AcmFCFStdANSI
  3
"Amdt_StdImp|Product Description: AutoCAD Mechanical 2000|Company: Autodesk"
 90
        0
280
     0
281
     0
  0
CLASS
  1
ACMWELDSTANDARDANSI
  2
AcmWeldingStdANSI
  3
"Amdt_StdImp|Product Description: AutoCAD Mechanical 2000|Company: Autodesk"
 90
        0
280
     0
281
     0
  0
CLASS
  1
ACMIDSTANDARDANSI
  2
AcmIdStdANSI
  3
"Amdt_StdImp|Product Description: AutoCAD Mechanical 2000|Company: Autodesk"
 90
        0
280
     0
281
     0
  0
CLASS
  1
ACMDATUMSTANDARDANSI
  2
AcmDatumStdANSI
  3
"Amdt_StdImp|Product Description: AutoCAD Mechanical 2000|Company: Autodesk"
 90
        0
280
     0
281
     0
  0
CLASS
  1
ACMBOMSTANDARDANSI
  2
AcmBOMStdANSI
  3
"Amdt_StdImp|Product Description: AutoCAD Mechanical 2000|Company: Autodesk"
 90
        0
280
     0
281
     0
  0
CLASS
  1
ACMDETAILSTANDARDANSI
  2
AmdtDetailSymStdANSI
  3
"Amdt_StdImp|Product Description: AutoCAD Mechanical 2000|Company: Autodesk"
 90
        0
280
     0
281
     0
  0
CLASS
  1
ACMSECTIONSTANDARDANSI
  2
AmdtSectionSymStdANSI
  3
"Amdt_StdImp|Product Description: AutoCAD Mechanical 2000|Company: Autodesk"
 90
        0
280
     0
281
     0
  0
CLASS
  1
ACMCENTERLINESTANDARDANSI
  2
AmdtCenterLineStdANSI
  3
"Amdt_StdImp|Product Description: AutoCAD Mechanical 2000|Company: Autodesk"
 90
        0
280
     0
281
     0
  0
CLASS
  1
ACMTHREADLINESTANDARDANSI
  2
AmdtThreadLineStdANSI
  3
"Amdt_StdImp|Product Description: AutoCAD Mechanical 2000|Company: Autodesk"
 90
        0
280
     0
281
     0
  0
CLASS
  1
ACMNOTESTANDARDANSI
  2
AmdtNoteStdANSI
  3
"Amdt_StdImp|Product Description: AutoCAD Mechanical 2000|Company: Autodesk"
 90
        0
280
     0
281
     0
  0
CLASS
  1
ACAMGHOLECHARTSTDANSI
  2
AcAmgHoleChartStdANSI
  3
ACMSYMBB_MODULE_NAME
 90
        0
280
     0
281
     0
  0
CLASS
  1
LAYER_INDEX
  2
AcDbLayerIndex
  3
AutoCAD 2000
 90
        0
280
     0
281
     0
  0
CLASS
  1
IDBUFFER
  2
AcDbIdBuffer
  3
AutoCAD 2000
 90
        0
280
     0
281
     0
  0
ENDSEC
  0
SECTION
  2
TABLES
  0
TABLE
  2
VPORT
  5
8
330
0
100
AcDbSymbolTable
 70
     2
  0
VPORT
  5
ADA
330
8
100
AcDbSymbolTableRecord
100
AcDbViewportTableRecord
  2
*Active
 70
     0
 10
0.0
 20
0.0
 11
1.0
 21
1.0
 12
-249.2618218634798
 22
-245.1695746883267
 13
0.0
 23
0.0
 14
1.0
 24
1.0
 15
0.0
 25
0.0
 16
0.0
 26
0.0
 36
1.0
 17
248.9596517691349
 27
245.8997127951682
 37
0.0
 40
4.225055704630395
 41
1.731751824817518
 42
50.0
 43
0.0
 44
0.0
 50
0.0
 51
0.0
 71
     0
 72
  1000
 73
     1
 74
     0
 75
     0
 76
     0
 77
     0
 78
     0
281
     0
 65
     0
110
0.0
120
0.0
130
0.0
111
1.0
121
0.0
131
0.0
112
0.0
122
1.0
132
0.0
 79
     0
146
0.0
  0
ENDTAB
  0
TABLE
  2
LTYPE
  5
5
330
0
100
AcDbSymbolTable
 70
    13
  0
LTYPE
  5
14
330
5
100
AcDbSymbolTableRecord
100
AcDbLinetypeTableRecord
  2
BYBLOCK
 70
     0
  3

 72
    65
 73
     0
 40
0.0
  0
LTYPE
  5
15
330
5
100
AcDbSymbolTableRecord
100
AcDbLinetypeTableRecord
  2
BYLAYER
 70
     0
  3

 72
    65
 73
     0
 40
0.0
  0
LTYPE
  5
16
330
5
100
AcDbSymbolTableRecord
100
AcDbLinetypeTableRecord
  2
CONTINUOUS
 70
     0
  3
Solid line
 72
    65
 73
     0
 40
0.0
  0
LTYPE
  5
28
330
5
100
AcDbSymbolTableRecord
100
AcDbLinetypeTableRecord
  2
HIDDEN
 70
     0
  3
__ __ __ __ __ __ __ __ __ __ __ __ __ __ __ __
 72
    65
 73
     2
 40
0.375
 49
0.25
 74
     0
 49
-0.125
 74
     0
  0
LTYPE
  5
C5
330
5
100
AcDbSymbolTableRecord
100
AcDbLinetypeTableRecord
  2
CENTER
 70
     0
  3
____ _ ____ _ ____ _ ____ _ ____ _ ____ _ ____
 72
    65
 73
     4
 40
2.0
 49
1.25
 74
     0
 49
-0.25
 74
     0
 49
0.25
 74
     0
 49
-0.25
 74
     0
  0
LTYPE
  5
34B
330
5
100
AcDbSymbolTableRecord
100
AcDbLinetypeTableRecord
  2
PHANTOM2
 70
     0
  3
Phantom (.5x) ___ _ _ ___ _ _ ___ _ _ ___ _ _
 72
    65
 73
     6
 40
31.75
 49
15.875
 74
     0
 49
-3.174999999999998
 74
     0
 49
3.174999999999998
 74
     0
 49
-3.174999999999998
 74
     0
 49
3.174999999999998
 74
     0
 49
-3.174999999999998
 74
     0
  0
LTYPE
  5
3F5
330
5
100
AcDbSymbolTableRecord
100
AcDbLinetypeTableRecord
  2
Amconstr
 70
     0
  3
_______________________
 72
    65
 73
     2
 40
9999.0
 49
9999.0
 74
     0
 49
0.0
 74
     0
  0
LTYPE
  5
409
330
5
100
AcDbSymbolTableRecord
100
AcDbLinetypeTableRecord
  2
ACISOWELD
 70
     0
  3
_ _ _ _ _
 72
    65
 73
     2
 40
2.0
 49
2.0
 74
     0
 49
-1.0
 74
     0
  0
LTYPE
  5
40A
330
5
100
AcDbSymbolTableRecord
100
AcDbLinetypeTableRecord
  2
ACISOTGB
 70
     0
  3
__ . . __ . .
 72
    65
 73
     6
 40
9.0
 49
4.0
 74
     0
 49
-1.0
 74
     0
 49
1.0
 74
     0
 49
-1.0
 74
     0
 49
1.0
 74
     0
 49
-1.0
 74
     0
  0
LTYPE
  5
40B
330
5
100
AcDbSymbolTableRecord
100
AcDbLinetypeTableRecord
  2
ACISOTGL
 70
     0
  3
_ _ _ _ _
 72
    65
 73
     2
 40
3.0
 49
2.0
 74
     0
 49
-1.0
 74
     0
  0
LTYPE
  5
439
330
5
100
AcDbSymbolTableRecord
100
AcDbLinetypeTableRecord
  2
CENTER2
 70
     0
  3
Center (.5x) ___ _ ___ _ ___ _ ___ _ ___ _ ___
 72
    65
 73
     4
 40
1.125
 49
0.75
 74
     0
 49
-0.125
 74
     0
 49
0.125
 74
     0
 49
-0.125
 74
     0
  0
LTYPE
  5
43A
330
5
100
AcDbSymbolTableRecord
100
AcDbLinetypeTableRecord
  2
HIDDEN2
 70
     0
  3
Hidden (.5x) _ _ _ _ _ _ _ _ _ _ _ _ _ _ _ _ _
 72
    65
 73
     2
 40
0.1875
 49
0.125
 74
     0
 49
-0.0625
 74
     0
  0
LTYPE
  5
43B
330
5
100
AcDbSymbolTableRecord
100
AcDbLinetypeTableRecord
  2
Amzigzag2
 70
     0
  3
/\/-/\/-/\/-/\/-/\/-/\/
 72
    65
 73
     2
 40
0.4401
 49
0.0001
 74
     4
 75
   135
340
3F9
 46
0.0016
 50
0.0
 44
0.0
 45
0.0
 49
-0.4400000000000003
 74
     0
  0
LTYPE
  5
43C
330
5
100
AcDbSymbolTableRecord
100
AcDbLinetypeTableRecord
  2
ACANSTGBM
 70
     0
  3
__ . . __ . .
 72
    65
 73
     6
 40
9.0
 49
4.0
 74
     0
 49
-1.0
 74
     0
 49
1.0
 74
     0
 49
-1.0
 74
     0
 49
1.0
 74
     0
 49
-1.0
 74
     0
  0
LTYPE
  5
43D
330
5
100
AcDbSymbolTableRecord
100
AcDbLinetypeTableRecord
  2
ACANSTGLM
 70
     0
  3
_ _ _ _ _
 72
    65
 73
     2
 40
3.0
 49
2.0
 74
     0
 49
-1.0
 74
     0
  0
ENDTAB
  0
TABLE
  2
LAYER
  5
2
330
0
100
AcDbSymbolTable
 70
     6
  0
LAYER
  5
F
330
2
100
AcDbSymbolTableRecord
100
AcDbLayerTableRecord
  2
0
 70
     0
 62
     7
  6
CONTINUOUS
370
    -3
390
316
  0
LAYER
  5
4CA
330
2
100
AcDbSymbolTableRecord
100
AcDbLayerTableRecord
  2
LINE
 70
     0
 62
     3
  6
CONTINUOUS
370
    -3
390
316
  0
LAYER
  5
4CB
330
2
100
AcDbSymbolTableRecord
100
AcDbLayerTableRecord
  2
HIDDEN
 70
     0
 62
     2
  6
HIDDEN
370
    -3
390
316
  0
LAYER
  5
4CC
330
2
100
AcDbSymbolTableRecord
100
AcDbLayerTableRecord
  2
DIM
 70
     0
 62
     7
  6
CONTINUOUS
370
    -3
390
316
  0
LAYER
  5
4CF
330
2
100
AcDbSymbolTableRecord
100
AcDbLayerTableRecord
  2
CTRL
 70
     0
 62
     1
  6
CENTER
370
    -3
390
316
  0
LAYER
  5
705
330
2
100
AcDbSymbolTableRecord
100
AcDbLayerTableRecord
  2
Defpoints
 70
     0
 62
     7
  6
CONTINUOUS
290
     0
370
    -3
390
316
  0
ENDTAB
  0
TABLE
  2
STYLE
  5
3
330
0
100
AcDbSymbolTable
 70
     9
  0
STYLE
  5
10
330
3
100
AcDbSymbolTableRecord
100
AcDbTextStyleTableRecord
  2
STANDARD
 70
     0
 40
0.0
 41
1.0
 50
0.0
 71
     0
 42
0.2
  3
ROMANS.SHX
  4

  0
STYLE
  5
1CA
330
3
100
AcDbSymbolTableRecord
100
AcDbTextStyleTableRecord
  2
ROMANS
 70
     0
 40
0.0
 41
1.0
 50
0.0
 71
     0
 42
0.24
  3
romans
  4

  0
STYLE
  5
28B
330
3
100
AcDbSymbolTableRecord
100
AcDbTextStyleTableRecord
  2
STYLE1
 70
     0
 40
0.0
 41
1.0
 50
0.0
 71
     0
 42
0.2
  3
romans.shx
  4

  0
STYLE
  5
3F9
330
3
100
AcDbSymbolTableRecord
100
AcDbTextStyleTableRecord
  2

 70
     1
 40
0.0
 41
1.0
 50
0.0
 71
     0
 42
0.2
  3
ltypeshp.shx
  4

  0
STYLE
  5
3FB
330
3
100
AcDbSymbolTableRecord
100
AcDbTextStyleTableRecord
  2
ACISOTS
 70
     0
 40
1.0
 41
1.0
 50
0.0
 71
     0
 42
0.2
  3
isocp.shx
  4

  0
STYLE
  5
408
330
3
100
AcDbSymbolTableRecord
100
AcDbTextStyleTableRecord
  2
ACISOGDT
 70
     0
 40
0.0
 41
1.0
 50
0.0
 71
     0
 42
0.2
  3
amgdt.shx
  4

  0
STYLE
  5
420
330
3
100
AcDbSymbolTableRecord
100
AcDbTextStyleTableRecord
  2
ACANSTS
 70
     0
 40
1.0
 41
1.0
 50
0.0
 71
     0
 42
0.2
  3
romans.shx
  4

  0
STYLE
  5
42C
330
3
100
AcDbSymbolTableRecord
100
AcDbTextStyleTableRecord
  2
ACANSGDT
 70
     0
 40
0.0
 41
1.0
 50
0.0
 71
     0
 42
0.2
  3
amgdtans.shx
  4

  0
STYLE
  5
8CA
330
3
100
AcDbSymbolTableRecord
100
AcDbTextStyleTableRecord
  2
LOGO
 70
     0
 40
0.0
 41
0.6
 50
0.0
 71
     0
 42
4.7
  3
ARIAL.TTF
  4

1001
ACAD
1000
Arial
1071
       34
  0
ENDTAB
  0
TABLE
  2
VIEW
  5
6
330
0
100
AcDbSymbolTable
 70
     0
  0
ENDTAB
  0
TABLE
  2
UCS
  5
7
330
0
100
AcDbSymbolTable
 70
     0
  0
ENDTAB
  0
TABLE
  2
APPID
  5
9
330
0
100
AcDbSymbolTable
 70
    13
  0
APPID
  5
11
330
9
100
AcDbSymbolTableRecord
100
AcDbRegAppTableRecord
  2
ACAD
 70
     0
  0
APPID
  5
329
330
9
100
AcDbSymbolTableRecord
100
AcDbRegAppTableRecord
  2
GENIUS_GENDIM_13
 70
     0
  0
APPID
  5
32A
330
9
100
AcDbSymbolTableRecord
100
AcDbRegAppTableRecord
  2
GENIUS_GENDTOL_13
 70
     0
  0
APPID
  5
32B
330
9
100
AcDbSymbolTableRecord
100
AcDbRegAppTableRecord
  2
GENIUS_GE3DTOL_13
 70
     0
  0
APPID
  5
32E
330
9
100
AcDbSymbolTableRecord
100
AcDbRegAppTableRecord
  2
MCAD_NO_VIS
 70
     0
  0
APPID
  5
32F
330
9
100
AcDbSymbolTableRecord
100
AcDbRegAppTableRecord
  2
ACAD_TEMP_GRAPHIC
 70
     0
  0
APPID
  5
360
330
9
100
AcDbSymbolTableRecord
100
AcDbRegAppTableRecord
  2
AD_DRAW
 70
     0
  0
APPID
  5
363
330
9
100
AcDbSymbolTableRecord
100
AcDbRegAppTableRecord
  2
ACATTRIBSERVICES
 70
     0
  0
APPID
  5
3AF
330
9
100
AcDbSymbolTableRecord
100
AcDbRegAppTableRecord
  2
ASURF_PCURVE_APPNAME
 70
     0
  0
APPID
  5
3B4
330
9
100
AcDbSymbolTableRecord
100
AcDbRegAppTableRecord
  2
AMG_3D2D_5.0
 70
     0
  0
APPID
  5
3DF
330
9
100
AcDbSymbolTableRecord
100
AcDbRegAppTableRecord
  2
DESIGNERASSEMBLIES
 70
     0
  0
APPID
  5
3E7
330
9
100
AcDbSymbolTableRecord
100
AcDbRegAppTableRecord
  2
ACADM_DIM_EDIT
 70
     0
  0
APPID
  5
3E8
330
9
100
AcDbSymbolTableRecord
100
AcDbRegAppTableRecord
  2
AMDT_DM_ADJ
 70
     0
  0
ENDTAB
  0
TABLE
  2
DIMSTYLE
  5
A
330
0
100
AcDbSymbolTable
 70
    14
100
AcDbDimStyleTable
 71
     2
340
1D
340
431
  0
DIMSTYLE
105
1D
102
{ACAD_REACTORS
330
712
330
79D
330
7AA
330
8A6
102
}
330
A
100
AcDbSymbolTableRecord
100
AcDbDimStyleTableRecord
  2
STANDARD
 70
     0
 41
0.12
 44
0.0625
 73
     0
 74
     0
 77
     1
140
0.125
141
0.0
147
0.05
172
     1
271
     3
272
     3
340
1CA
  0
DIMSTYLE
105
40F
330
A
100
AcDbSymbolTableRecord
100
AcDbDimStyleTableRecord
  2
AM_ISO
 70
     0
  4
"
 41
2.5
 42
1.0
 43
10.0
 44
1.0
 47
0.1
 48
0.1
 73
     0
 74
     0
 77
     1
 78
     8
 79
     2
140
3.5
141
0.0
143
0.0393701
146
0.71
147
1.5
172
     1
176
   256
177
   256
178
     2
271
     2
272
     3
274
     4
283
     0
284
     8
340
10
371
    -1
372
    -1
  0
DIMSTYLE
105
410
330
A
100
AcDbSymbolTableRecord
100
AcDbDimStyleTableRecord
  2
AM_ISO$3
 70
     0
  4
"
 41
2.5
 42
1.0
 43
10.0
 44
1.0
 47
0.1
 48
0.1
 73
     0
 77
     1
 78
     8
 79
     2
140
3.5
141
0.0
143
0.0393701
146
0.71
147
1.5
176
   256
177
   256
178
     2
271
     2
272
     3
274
     4
283
     0
284
     8
288
     1
289
     0
340
10
371
    -1
372
    -1
  0
DIMSTYLE
105
411
330
A
100
AcDbSymbolTableRecord
100
AcDbDimStyleTableRecord
  2
AM_ISO$4
 70
     0
  4
"
 41
2.5
 42
1.0
 43
10.0
 44
1.0
 47
0.1
 48
0.1
 73
     0
 77
     1
 78
     8
 79
     2
140
3.5
141
0.0
143
0.0393701
146
0.71
147
1.5
176
   256
177
   256
178
     2
271
     2
272
     3
274
     4
283
     0
284
     8
288
     1
289
     0
340
10
371
    -1
372
    -1
  0
DIMSTYLE
105
412
330
A
100
AcDbSymbolTableRecord
100
AcDbDimStyleTableRecord
  2
AM_ISO$6
 70
     0
  4
"
 41
2.5
 42
1.0
 43
10.0
 44
1.0
 47
0.1
 48
0.1
 73
     0
 74
     0
 78
     8
 79
     2
140
3.5
141
0.0
143
0.0393701
146
0.71
147
1.5
172
     1
176
   256
177
   256
178
     2
271
     2
272
     3
274
     4
283
     0
284
     8
340
10
371
    -1
372
    -1
  0
DIMSTYLE
105
413
330
A
100
AcDbSymbolTableRecord
100
AcDbDimStyleTableRecord
  2
AM_ISO$7
 70
     0
  4
"
 41
2.5
 42
1.0
 43
10.0
 44
1.0
 47
0.1
 48
0.1
 73
     0
 74
     0
 77
     1
 78
     8
 79
     2
140
5.0
141
0.0
143
0.0393701
146
0.71
147
1.5
172
     1
176
   256
177
   256
178
     2
271
     2
272
     3
274
     4
283
     0
284
     8
340
10
371
    -1
372
    -1
  0
DIMSTYLE
105
414
330
A
100
AcDbSymbolTableRecord
100
AcDbDimStyleTableRecord
  2
AM_ISO$SF
 70
     0
  4
"
 41
2.5
 42
1.0
 43
10.0
 44
1.0
 47
0.1
 48
0.1
 73
     0
 74
     0
 75
     1
 76
     1
 77
     1
 78
     8
 79
     2
140
3.5
141
0.0
143
0.0393701
146
0.71
147
1.5
172
     1
176
   256
177
   256
178
     2
271
     2
272
     3
274
     4
283
     0
284
     8
340
10
371
    -1
372
    -1
  0
DIMSTYLE
105
419
330
A
100
AcDbSymbolTableRecord
100
AcDbDimStyleTableRecord
  2
AM_ISO$SH
 70
     0
  4
"
 41
2.5
 42
1.0
 43
10.0
 44
1.0
 47
0.1
 48
0.1
 73
     0
 74
     0
 75
     1
 76
     1
 77
     1
 78
     8
 79
     2
140
3.5
141
0.0
143
0.0393701
144
2.0
146
0.71
147
1.5
172
     1
173
     1
176
   256
177
   256
178
     2
271
     2
272
     3
274
     4
283
     0
284
     8
340
10
341
415
343
415
371
    -1
372
    -1
  0
DIMSTYLE
105
431
330
A
100
AcDbSymbolTableRecord
100
AcDbDimStyleTableRecord
  2
AM_ANSI
 70
     0
  4
"
 41
2.5
 42
1.0
 43
10.0
 44
1.0
 47
0.1
 48
0.1
 78
     8
 79
     2
140
3.5
141
0.0
143
0.0393701
146
0.71
147
1.5
176
   256
177
   256
178
     2
271
     2
272
     3
274
     4
284
     8
340
10
371
    -1
372
    -1
  0
DIMSTYLE
105
432
330
A
100
AcDbSymbolTableRecord
100
AcDbDimStyleTableRecord
  2
AM_ANSI$3
 70
     0
  4
"
 41
2.5
 42
1.0
 43
10.0
 44
1.0
 47
0.1
 48
0.1
 78
     8
 79
     2
140
3.5
141
0.0
143
0.0393701
146
0.71
147
1.5
176
   256
177
   256
178
     2
271
     2
272
     3
274
     4
284
     8
288
     1
289
     0
340
10
371
    -1
372
    -1
  0
DIMSTYLE
105
433
330
A
100
AcDbSymbolTableRecord
100
AcDbDimStyleTableRecord
  2
AM_ANSI$4
 70
     0
  4
"
 41
2.5
 42
1.0
 43
10.0
 44
1.0
 47
0.1
 48
0.1
 78
     8
 79
     2
140
3.5
141
0.0
143
0.0393701
146
0.71
147
1.5
176
   256
177
   256
178
     2
271
     2
272
     3
274
     4
284
     8
288
     1
289
     0
340
10
371
    -1
372
    -1
  0
DIMSTYLE
105
434
330
A
100
AcDbSymbolTableRecord
100
AcDbDimStyleTableRecord
  2
AM_ANSI$7
 70
     0
  4
"
 41
2.5
 42
1.0
 43
10.0
 44
1.0
 47
0.1
 48
0.1
 78
     8
 79
     2
140
5.0
141
0.0
143
0.0393701
146
0.71
147
1.5
176
   256
177
   256
178
     2
271
     2
272
     3
274
     4
284
     8
340
10
371
    -1
372
    -1
  0
DIMSTYLE
105
435
330
A
100
AcDbSymbolTableRecord
100
AcDbDimStyleTableRecord
  2
AM_ANSI$SF
 70
     0
  4
"
 41
2.5
 42
1.0
 43
10.0
 44
1.0
 47
0.1
 48
0.1
 75
     1
 76
     1
 78
     8
 79
     2
140
3.5
141
0.0
143
0.0393701
146
0.71
147
1.5
176
   256
177
   256
178
     2
271
     2
272
     3
274
     4
284
     8
340
10
371
    -1
372
    -1
  0
DIMSTYLE
105
436
330
A
100
AcDbSymbolTableRecord
100
AcDbDimStyleTableRecord
  2
AM_ANSI$SH
 70
     0
  4
"
 41
2.5
 42
1.0
 43
10.0
 44
1.0
 47
0.1
 48
0.1
 75
     1
 76
     1
 78
     8
 79
     2
140
3.5
141
0.0
143
0.0393701
146
0.71
147
1.5
173
     1
176
   256
177
   256
178
     2
271
     2
272
     3
274
     4
284
     8
340
10
341
415
343
415
371
    -1
372
    -1
  0
ENDTAB
  0
TABLE
  2
BLOCK_RECORD
  5
1
330
0
100
AcDbSymbolTable
 70
     7
  0
BLOCK_RECORD
  5
1A
102
{ACAD_XDICTIONARY
360
43F
102
}
330
1
100
AcDbSymbolTableRecord
100
AcDbBlockTableRecord
  2
*MODEL_SPACE
340
319
  0
BLOCK_RECORD
  5
4B0
330
1
100
AcDbSymbolTableRecord
100
AcDbBlockTableRecord
  2
*Paper_Space
340
4B1
  0
BLOCK_RECORD
  5
3D6
330
1
100
AcDbSymbolTableRecord
100
AcDbBlockTableRecord
  2
*U0
340
0
  0
BLOCK_RECORD
  5
415
330
1
100
AcDbSymbolTableRecord
100
AcDbBlockTableRecord
  2
GENAXEH
340
0
  0
BLOCK_RECORD
  5
713
330
1
100
AcDbSymbolTableRecord
100
AcDbBlockTableRecord
  2
*D2
340
0
  0
BLOCK_RECORD
  5
79E
330
1
100
AcDbSymbolTableRecord
100
AcDbBlockTableRecord
  2
*D3
340
0
  0
BLOCK_RECORD
  5
7AB
330
1
100
AcDbSymbolTableRecord
100
AcDbBlockTableRecord
  2
*D4
340
0
  0
BLOCK_RECORD
  5
8A7
330
1
100
AcDbSymbolTableRecord
100
AcDbBlockTableRecord
  2
*D5
340
0
  0
ENDTAB
  0
ENDSEC
  0
SECTION
  2
BLOCKS
  0
BLOCK
  5
1B
330
1A
100
AcDbEntity
  8
0
100
AcDbBlockBegin
  2
*MODEL_SPACE
 70
     0
 10
0.0
 20
0.0
 30
0.0
  3
*MODEL_SPACE
  1

  0
ENDBLK
  5
1C
330
1A
100
AcDbEntity
  8
0
100
AcDbBlockEnd
  0
BLOCK
  5
4B2
330
4B0
100
AcDbEntity
 67
     1
  8
0
100
AcDbBlockBegin
  2
*Paper_Space
 70
     0
 10
0.0
 20
0.0
 30
0.0
  3
*Paper_Space
  1

  0
ENDBLK
  5
4B3
330
4B0
100
AcDbEntity
 67
     1
  8
0
100
AcDbBlockEnd
  0
BLOCK
  5
3D7
330
3D6
100
AcDbEntity
  8
0
100
AcDbBlockBegin
  2
*U0
 70
     1
 10
0.0
 20
0.0
 30
0.0
  3
*U0
  1

  0
ENDBLK
  5
3D8
330
3D6
100
AcDbEntity
  8
0
100
AcDbBlockEnd
  0
BLOCK
  5
417
330
415
100
AcDbEntity
  8
0
100
AcDbBlockBegin
  2
GENAXEH
 70
     0
 10
0.0
 20
0.0
 30
0.0
  3
GENAXEH
  1

  0
LINE
  5
416
330
415
100
AcDbEntity
  8
0
100
AcDbLine
 10
-1.0
 20
0.0
 30
0.0
 11
1.0
 21
0.0
 31
0.0
  0
ENDBLK
  5
418
330
415
100
AcDbEntity
  8
0
100
AcDbBlockEnd
  0
BLOCK
  5
71D
330
713
100
AcDbEntity
  8
0
100
AcDbBlockBegin
  2
*D2
 70
     1
 10
0.0
 20
0.0
 30
0.0
  3
*D2
  1

  0
LINE
  5
87D
330
713
100
AcDbEntity
  8
DIM
 62
     0
370
    -2
100
AcDbLine
 10
1.774500119999995
 20
1.245499999999998
 30
0.0
 11
3.331435977988475
 21
1.245499999999998
 31
0.0
  0
LINE
  5
87E
330
713
100
AcDbEntity
  8
DIM
 62
     0
370
    -2
100
AcDbLine
 10
1.774500119999995
 20
-1.245499999999998
 30
0.0
 11
3.331435977988475
 21
-1.245499999999998
 31
0.0
  0
LINE
  5
87F
330
713
100
AcDbEntity
  8
DIM
 62
     0
370
    -2
100
AcDbLine
 10
3.268935977988475
 20
1.125499999999998
 30
0.0
 11
3.268935977988475
 21
-1.125499999999999
 31
0.0
  0
SOLID
  5
880
330
713
100
AcDbEntity
  8
DIM
 62
     0
100
AcDbTrace
 10
3.248935977988473
 20
1.125499999999998
 30
0.0
 11
3.288935977988475
 21
1.125499999999998
 31
0.0
 12
3.268935977988475
 22
1.245499999999998
 32
0.0
 13
3.268935977988475
 23
1.245499999999998
 33
0.0
  0
SOLID
  5
881
330
713
100
AcDbEntity
  8
DIM
 62
     0
100
AcDbTrace
 10
3.248935977988473
 20
-1.125499999999999
 30
0.0
 11
3.288935977988475
 21
-1.125499999999999
 31
0.0
 12
3.268935977988475
 22
-1.245499999999998
 32
0.0
 13
3.268935977988475
 23
-1.245499999999998
 33
0.0
  0
MTEXT
  5
882
330
713
100
AcDbEntity
  8
DIM
 62
     0
100
AcDbMText
 10
3.156435977988471
 20
0.0144974800000006
 30
0.0
 40
0.125
 41
0.0
 71
     5
 72
     1
  1
\A1;%%c2.491
  7
ROMANS
 11
0.0000000000000001
 21
1.0
 31
0.0
 73
     1
 44
1.0
  0
POINT
  5
883
330
713
100
AcDbEntity
  8
Defpoints
 62
     0
100
AcDbPoint
 10
1.712000119999995
 20
1.245499999999998
 30
0.0
  0
POINT
  5
884
330
713
100
AcDbEntity
  8
Defpoints
 62
     0
100
AcDbPoint
 10
1.712000119999995
 20
-1.245499999999998
 30
0.0
  0
POINT
  5
885
330
713
100
AcDbEntity
  8
Defpoints
 62
     0
100
AcDbPoint
 10
3.268935977988475
 20
-1.245499999999998
 30
0.0
  0
ENDBLK
  5
71E
330
713
100
AcDbEntity
  8
0
100
AcDbBlockEnd
  0
BLOCK
  5
7A8
330
79E
100
AcDbEntity
  8
0
100
AcDbBlockBegin
  2
*D3
 70
     1
 10
0.0
 20
0.0
 30
0.0
  3
*D3
  1

  0
LINE
  5
88F
330
79E
100
AcDbEntity
  8
DIM
 62
     0
370
    -2
100
AcDbLine
 10
0.0000000000000004
 20
0.9374982500000006
 30
0.0
 11
0.0000000000000005
 21
2.13526987315854
 31
0.0
  0
LINE
  5
890
330
79E
100
AcDbEntity
  8
DIM
 62
     0
370
    -2
100
AcDbLine
 10
1.771999999999999
 20
1.248000119999998
 30
0.0
 11
1.771999999999999
 21
2.13526987315854
 31
0.0
  0
LINE
  5
891
330
79E
100
AcDbEntity
  8
DIM
 62
     0
370
    -2
100
AcDbLine
 10
0.1200000000000005
 20
2.07276987315854
 30
0.0
 11
1.651999999999999
 21
2.07276987315854
 31
0.0
  0
SOLID
  5
892
330
79E
100
AcDbEntity
  8
DIM
 62
     0
100
AcDbTrace
 10
0.1200000000000005
 20
2.09276987315854
 30
0.0
 11
0.1200000000000005
 21
2.05276987315854
 31
0.0
 12
0.0000000000000005
 22
2.07276987315854
 32
0.0
 13
0.0000000000000005
 23
2.07276987315854
 33
0.0
  0
SOLID
  5
893
330
79E
100
AcDbEntity
  8
DIM
 62
     0
100
AcDbTrace
 10
1.651999999999999
 20
2.09276987315854
 30
0.0
 11
1.651999999999999
 21
2.05276987315854
 31
0.0
 12
1.771999999999999
 22
2.07276987315854
 32
0.0
 13
1.771999999999999
 23
2.07276987315854
 33
0.0
  0
MTEXT
  5
894
330
79E
100
AcDbEntity
  8
DIM
 62
     0
100
AcDbMText
 10
0.8859999999999994
 20
2.18526987315854
 30
0.0
 40
0.125
 41
0.0
 71
     5
 72
     1
  1
\A1;1.772
  7
ROMANS
 73
     1
 44
1.0
  0
POINT
  5
895
330
79E
100
AcDbEntity
  8
Defpoints
 62
     0
100
AcDbPoint
 10
0.0000000000000004
 20
0.8749982500000006
 30
0.0
  0
POINT
  5
896
330
79E
100
AcDbEntity
  8
Defpoints
 62
     0
100
AcDbPoint
 10
1.771999999999999
 20
1.185500119999998
 30
0.0
  0
POINT
  5
897
330
79E
100
AcDbEntity
  8
Defpoints
 62
     0
100
AcDbPoint
 10
1.771999999999999
 20
2.07276987315854
 30
0.0
  0
ENDBLK
  5
7A9
330
79E
100
AcDbEntity
  8
0
100
AcDbBlockEnd
  0
BLOCK
  5
7B5
330
7AB
100
AcDbEntity
  8
0
100
AcDbBlockBegin
  2
*D4
 70
     1
 10
0.0
 20
0.0
 30
0.0
  3
*D4
  1

  0
LINE
  5
886
330
7AB
100
AcDbEntity
  8
DIM
 62
     0
370
    -2
100
AcDbLine
 10
0.8507419999999994
 20
1.307999999999998
 30
0.0
 11
0.8507419999999994
 21
1.804099705460749
 31
0.0
  0
LINE
  5
887
330
7AB
100
AcDbEntity
  8
DIM
 62
     0
370
    -2
100
AcDbLine
 10
1.771999999999999
 20
1.248000119999998
 30
0.0
 11
1.771999999999999
 21
1.804099705460749
 31
0.0
  0
LINE
  5
888
330
7AB
100
AcDbEntity
  8
DIM
 62
     0
370
    -2
100
AcDbLine
 10
0.9707419999999991
 20
1.741599705460749
 30
0.0
 11
1.651999999999999
 21
1.741599705460749
 31
0.0
  0
SOLID
  5
889
330
7AB
100
AcDbEntity
  8
DIM
 62
     0
100
AcDbTrace
 10
0.9707419999999991
 20
1.761599705460749
 30
0.0
 11
0.9707419999999991
 21
1.721599705460748
 31
0.0
 12
0.8507419999999994
 22
1.741599705460749
 32
0.0
 13
0.8507419999999994
 23
1.741599705460749
 33
0.0
  0
SOLID
  5
88A
330
7AB
100
AcDbEntity
  8
DIM
 62
     0
100
AcDbTrace
 10
1.651999999999999
 20
1.761599705460749
 30
0.0
 11
1.651999999999999
 21
1.721599705460748
 31
0.0
 12
1.771999999999999
 22
1.741599705460749
 32
0.0
 13
1.771999999999999
 23
1.741599705460749
 33
0.0
  0
MTEXT
  5
88B
330
7AB
100
AcDbEntity
  8
DIM
 62
     0
100
AcDbMText
 10
1.311370999999998
 20
1.854099705460748
 30
0.0
 40
0.125
 41
0.0
 71
     5
 72
     1
  1
\A1;0.921
  7
ROMANS
 73
     1
 44
1.0
  0
POINT
  5
88C
330
7AB
100
AcDbEntity
  8
Defpoints
 62
     0
100
AcDbPoint
 10
0.8507419999999994
 20
1.245499999999998
 30
0.0
  0
POINT
  5
88D
330
7AB
100
AcDbEntity
  8
Defpoints
 62
     0
100
AcDbPoint
 10
1.771999999999999
 20
1.185500119999998
 30
0.0
  0
POINT
  5
88E
330
7AB
100
AcDbEntity
  8
Defpoints
 62
     0
100
AcDbPoint
 10
1.771999999999999
 20
1.741599705460749
 30
0.0
  0
ENDBLK
  5
7B6
330
7AB
100
AcDbEntity
  8
0
100
AcDbBlockEnd
  0
BLOCK
  5
8B1
330
8A7
100
AcDbEntity
  8
0
100
AcDbBlockBegin
  2
*D5
 70
     1
 10
0.0
 20
0.0
 30
0.0
  3
*D5
  1

  0
LINE
  5
8B3
330
8A7
100
AcDbEntity
  8
DIM
 62
     0
370
    -2
100
AcDbLine
 10
-3.686992625999997
 20
0.5353140150000009
 30
0.0
 11
-3.686992625999997
 21
2.592775717989752
 31
0.0
  0
LINE
  5
8B4
330
8A7
100
AcDbEntity
  8
DIM
 62
     0
370
    -2
100
AcDbLine
 10
1.771999999999999
 20
1.248000119999998
 30
0.0
 11
1.771999999999999
 21
2.592775717989752
 31
0.0
  0
LINE
  5
8B5
330
8A7
100
AcDbEntity
  8
DIM
 62
     0
370
    -2
100
AcDbLine
 10
-3.566992625999997
 20
2.530275717989752
 30
0.0
 11
1.651999999999999
 21
2.530275717989752
 31
0.0
  0
SOLID
  5
8B6
330
8A7
100
AcDbEntity
  8
DIM
 62
     0
100
AcDbTrace
 10
-3.566992625999997
 20
2.550275717989752
 30
0.0
 11
-3.566992625999997
 21
2.510275717989752
 31
0.0
 12
-3.686992625999997
 22
2.530275717989752
 32
0.0
 13
-3.686992625999997
 23
2.530275717989752
 33
0.0
  0
SOLID
  5
8B7
330
8A7
100
AcDbEntity
  8
DIM
 62
     0
100
AcDbTrace
 10
1.651999999999999
 20
2.550275717989752
 30
0.0
 11
1.651999999999999
 21
2.510275717989752
 31
0.0
 12
1.771999999999999
 22
2.530275717989752
 32
0.0
 13
1.771999999999999
 23
2.530275717989752
 33
0.0
  0
MTEXT
  5
8B8
330
8A7
100
AcDbEntity
  8
DIM
 62
     0
100
AcDbMText
 10
-0.9574963129999987
 20
2.642775717989751
 30
0.0
 40
0.125
 41
0.0
 71
     5
 72
     1
  1
\A1;5.459
  7
ROMANS
 73
     1
 44
1.0
  0
POINT
  5
8B9
330
8A7
100
AcDbEntity
  8
Defpoints
 62
     0
100
AcDbPoint
 10
-3.686992625999997
 20
0.4728140150000008
 30
0.0
  0
POINT
  5
8BA
330
8A7
100
AcDbEntity
  8
Defpoints
 62
     0
100
AcDbPoint
 10
1.771999999999999
 20
1.185500119999998
 30
0.0
  0
POINT
  5
8BB
330
8A7
100
AcDbEntity
  8
Defpoints
 62
     0
100
AcDbPoint
 10
1.771999999999999
 20
2.530275717989752
 30
0.0
  0
ENDBLK
  5
8B2
330
8A7
100
AcDbEntity
  8
0
100
AcDbBlockEnd
  0
ENDSEC
  0
SECTION
  2
ENTITIES
  0
LINE
  5
6A9
330
1A
100
AcDbEntity
  8
LINE
100
AcDbLine
 10
0.8507419999999994
 20
0.0000000000000013
 30
0.0
 11
0.8507419999999994
 21
1.245499999999998
 31
0.0
  0
LINE
  5
6AA
330
1A
100
AcDbEntity
  8
LINE
100
AcDbLine
 10
0.8507419999999994
 20
-0.0000000000000014
 30
0.0
 11
0.8507419999999994
 21
-1.245499999999998
 31
0.0
  0
LINE
  5
6AB
330
1A
100
AcDbEntity
  8
CTRL
100
AcDbLine
 10
-3.936176260752877
 20
0.0
 30
0.0
 11
2.453264685690407
 21
0.0
 31
0.0
  0
ARC
  5
6AC
330
1A
100
AcDbEntity
  8
LINE
100
AcDbCircle
 10
-3.667307625999997
 20
-0.4728140150000017
 30
0.0
 40
0.019685
100
AcDbArc
 50
180.0
 51
270.0
  0
ARC
  5
6AD
330
1A
100
AcDbEntity
  8
LINE
100
AcDbCircle
 10
-3.667307625999997
 20
0.4728140150000008
 30
0.0
 40
0.019685
100
AcDbArc
 50
90.0
 51
180.0
  0
LINE
  5
6AE
330
1A
100
AcDbEntity
  8
HIDDEN
100
AcDbLine
 10
-1.058832496901382
 20
-0.4330700000000001
 30
0.0
 11
-1.156156737196968
 21
-0.2644994709999999
 31
0.0
  0
LINE
  5
6AF
330
1A
100
AcDbEntity
  8
HIDDEN
100
AcDbLine
 10
-1.058832496901382
 20
-0.4330700000000001
 30
0.0
 11
-0.1470152465375656
 21
-0.4330700000000001
 31
0.0
  0
LINE
  5
6B0
330
1A
100
AcDbEntity
  8
HIDDEN
100
AcDbLine
 10
-1.156156737196968
 20
0.2644994709999999
 30
0.0
 11
-1.156156737196968
 21
-0.2644994710000008
 31
0.0
  0
LINE
  5
6B1
330
1A
100
AcDbEntity
  8
HIDDEN
100
AcDbLine
 10
-1.058832496901382
 20
0.4330700000000002
 30
0.0
 11
-1.156156737196968
 21
0.2644994709999999
 31
0.0
  0
LINE
  5
6B2
330
1A
100
AcDbEntity
  8
HIDDEN
100
AcDbLine
 10
-1.058832496901382
 20
0.4330700000000002
 30
0.0
 11
-1.058832496901382
 21
-0.4330700000000001
 31
0.0
  0
LINE
  5
6B3
330
1A
100
AcDbEntity
  8
HIDDEN
100
AcDbLine
 10
-0.1470152465375656
 20
0.4330700000000002
 30
0.0
 11
-0.1470152465375656
 21
-0.4330700000000025
 31
0.0
  0
LINE
  5
6B4
330
1A
100
AcDbEntity
  8
HIDDEN
100
AcDbLine
 10
-1.058832496901382
 20
0.4330700000000002
 30
0.0
 11
-0.1470152465375656
 21
0.4330700000000002
 31
0.0
  0
LINE
  5
6B5
330
1A
100
AcDbEntity
  8
HIDDEN
100
AcDbLine
 10
-2.566994865999998
 20
-0.312499375
 30
0.0
 11
-2.387856785513568
 21
-0.2644994710000001
 31
0.0
  0
LINE
  5
6B6
330
1A
100
AcDbEntity
  8
HIDDEN
100
AcDbLine
 10
-2.566994865999998
 20
0.312499375
 30
0.0
 11
-2.387856785513568
 21
0.2644994709999999
 31
0.0
  0
LINE
  5
6B7
330
1A
100
AcDbEntity
  8
HIDDEN
100
AcDbLine
 10
0.0779998439999994
 20
-0.8956458124148353
 30
0.0
 11
0.8507419999999994
 21
-0.8956458124148351
 31
0.0
  0
LINE
  5
6B8
330
1A
100
AcDbEntity
  8
HIDDEN
100
AcDbLine
 10
0.0779998439999994
 20
0.8956458124148353
 30
0.0
 11
0.8507419999999994
 21
0.8956458124148355
 31
0.0
  0
LINE
  5
6B9
330
1A
100
AcDbEntity
  8
HIDDEN
100
AcDbLine
 10
1.771999999999999
 20
0.9919980159999996
 30
0.0
 11
1.115001313999999
 21
0.9919980159999996
 31
0.0
  0
LINE
  5
6BA
330
1A
100
AcDbEntity
  8
HIDDEN
100
AcDbLine
 10
1.115001313999999
 20
0.9919980159999996
 30
0.0
 11
1.115001313999999
 21
0.7084985830000019
 31
0.0
  0
LINE
  5
6BB
330
1A
100
AcDbEntity
  8
HIDDEN
100
AcDbLine
 10
1.771999999999999
 20
-0.9919980160000003
 30
0.0
 11
1.115001313999999
 21
-0.9919980160000003
 31
0.0
  0
LWPOLYLINE
  5
6BC
330
1A
100
AcDbEntity
  8
LINE
100
AcDbPolyline
 90
        6
 70
     1
 43
0.0
 10
1.040556008010879
 20
0.1722442359448515
 10
0.9411107520217576
 20
-0.0000000000000002
 10
1.040556008010879
 20
-0.172244235944852
 10
1.239446519989119
 20
-0.172244235944852
 10
1.338891775978241
 20
-0.0000000000000007
 10
1.23944651998912
 20
0.172244235944851
  0
LWPOLYLINE
  5
6BD
330
1A
100
AcDbEntity
  8
LINE
100
AcDbPolyline
 90
       16
 70
     1
 43
0.0
 10
0.8716553340319864
 20
-0.0000000000000002
 42
0.1075270714354371
 10
0.8916577149928295
 20
-0.0919355086409351
 42
0.1017862429383482
 10
0.9502520372158087
 20
-0.1720740636260343
 42
0.0945967217597763
 10
1.036128864332525
 20
-0.2244842144935813
 42
0.0900730289486178
 10
1.140001264000001
 20
-0.2433494745125879
 42
0.0900730289486174
 10
1.243873663667467
 20
-0.2244842144935813
 42
0.0945967217597764
 10
1.329750490784192
 20
-0.1720740636260343
 42
0.1017862429383479
 10
1.38834481300717
 20
-0.0919355086409348
 42
0.1075270714354359
 10
1.408347193968008
 20
-0.0000000000000002
 42
0.1075270714354361
 10
1.38834481300717
 20
0.0919355086409344
 42
0.1017862429383472
 10
1.329750490784192
 20
0.1720740636260334
 42
0.0945967217597756
 10
1.243873663667467
 20
0.2244842144935803
 42
0.0900730289486177
 10
1.140001264000001
 20
0.2433494745125875
 42
0.0900730289486173
 10
1.036128864332525
 20
0.2244842144935806
 42
0.0945967217597766
 10
0.9502520372158087
 20
0.1720740636260334
 42
0.1017862429383487
 10
0.8916577149928295
 20
0.0919355086409341
 42
0.1075270714354371
  0
CIRCLE
  5
6BE
330
1A
100
AcDbEntity
  8
LINE
100
AcDbCircle
 10
1.140001264000001
 20
-0.0000000000000002
 30
0.0
 40
0.2159995680000035
  0
CIRCLE
  5
6BF
330
1A
100
AcDbEntity
  8
HIDDEN
100
AcDbCircle
 10
1.140001264000001
 20
-0.0000000000000002
 30
0.0
 40
0.2359995280000033
  0
LINE
  5
6C0
330
1A
100
AcDbEntity
  8
LINE
100
AcDbLine
 10
0.8507419999999994
 20
1.245499999999998
 30
0.0
 11
1.712000119999995
 21
1.245499999999998
 31
0.0
  0
LINE
  5
6C1
330
1A
100
AcDbEntity
  8
LINE
100
AcDbLine
 10
0.8507419999999994
 20
-1.245499999999998
 30
0.0
 11
1.712000119999995
 21
-1.245499999999998
 31
0.0
  0
LINE
  5
6C2
330
1A
100
AcDbEntity
  8
LINE
100
AcDbLine
 10
1.771999999999999
 20
-0.0000000000000007
 30
0.0
 11
1.771999999999999
 21
1.185500119999998
 31
0.0
  0
LINE
  5
6C3
330
1A
100
AcDbEntity
  8
LINE
100
AcDbLine
 10
1.771999999999999
 20
1.185500119999998
 30
0.0
 11
1.712000119999995
 21
1.245499999999998
 31
0.0
  0
LINE
  5
6C4
330
1A
100
AcDbEntity
  8
HIDDEN
100
AcDbLine
 10
0.0120035199999986
 20
0.7084985830000004
 30
0.0
 11
1.771999999999999
 21
0.7084985829999995
 31
0.0
  0
LINE
  5
6C5
330
1A
100
AcDbEntity
  8
HIDDEN
100
AcDbLine
 10
0.0120035200000026
 20
0.7084985830000004
 30
0.0
 11
-0.1470152465375656
 21
0.4330700000000002
 31
0.0
  0
LINE
  5
6C6
330
1A
100
AcDbEntity
  8
HIDDEN
100
AcDbLine
 10
1.115001313999999
 20
-0.9919980160000003
 30
0.0
 11
1.115001313999999
 21
-0.7084985830000024
 31
0.0
  0
LINE
  5
6C7
330
1A
100
AcDbEntity
  8
HIDDEN
100
AcDbLine
 10
0.0120035200000026
 20
-0.7084985830000028
 30
0.0
 11
1.771999999999999
 21
-0.7084985830000024
 31
0.0
  0
LINE
  5
6C8
330
1A
100
AcDbEntity
  8
LINE
100
AcDbLine
 10
1.771999999999998
 20
-1.185500119999999
 30
0.0
 11
1.712000119999995
 21
-1.245499999999998
 31
0.0
  0
LINE
  5
6C9
330
1A
100
AcDbEntity
  8
LINE
100
AcDbLine
 10
1.771999999999999
 20
-0.0000000000000007
 30
0.0
 11
1.771999999999999
 21
-1.185500119999998
 31
0.0
  0
LINE
  5
6CA
330
1A
100
AcDbEntity
  8
HIDDEN
100
AcDbLine
 10
0.0120035200000026
 20
-0.7084985830000028
 30
0.0
 11
-0.1470152465375656
 21
-0.4330700000000025
 31
0.0
  0
LINE
  5
6CB
330
1A
100
AcDbEntity
  8
HIDDEN
100
AcDbLine
 10
0.0120035199999986
 20
0.7084985830000004
 30
0.0
 11
0.0120035200000026
 21
-0.7084985830000028
 31
0.0
  0
LINE
  5
6CC
330
1A
100
AcDbEntity
  8
LINE
100
AcDbLine
 10
0.0000000000000004
 20
0.0
 30
0.0
 11
0.0000000000000004
 21
0.8749982500000006
 31
0.0
  0
LINE
  5
6CD
330
1A
100
AcDbEntity
  8
LINE
100
AcDbLine
 10
0.0000000000000004
 20
0.8749982499999997
 30
0.0
 11
0.0779998439999994
 21
0.8749982499999997
 31
0.0
  0
LINE
  5
6CE
330
1A
100
AcDbEntity
  8
LINE
100
AcDbLine
 10
0.0779998439999994
 20
0.0
 30
0.0
 11
0.0779998439999994
 21
1.200000079999999
 31
0.0
  0
LINE
  5
6CF
330
1A
100
AcDbEntity
  8
LINE
100
AcDbLine
 10
0.1179997640000003
 20
1.239999999999997
 30
0.0
 11
0.8507419999999994
 21
1.239999999999997
 31
0.0
  0
LINE
  5
6D0
330
1A
100
AcDbEntity
  8
LINE
100
AcDbLine
 10
0.1179997640000003
 20
1.239999999999997
 30
0.0
 11
0.0779998439999994
 21
1.200000079999999
 31
0.0
  0
LINE
  5
6D1
330
1A
100
AcDbEntity
  8
LINE
100
AcDbLine
 10
-3.686992625999997
 20
0.0000000000000009
 30
0.0
 11
-3.686992625999997
 21
0.4728140150000008
 31
0.0
  0
LINE
  5
6D2
330
1A
100
AcDbEntity
  8
LINE
100
AcDbLine
 10
-3.686992625999997
 20
0.0
 30
0.0
 11
-3.686992625999997
 21
0.4254991490000004
 31
0.0
  0
LINE
  5
6D3
330
1A
100
AcDbEntity
  8
LINE
100
AcDbLine
 10
-3.371993255999997
 20
0.4254991490000004
 30
0.0
 11
-3.371993255999997
 21
0.0
 31
0.0
  0
LINE
  5
6D4
330
1A
100
AcDbEntity
  8
LINE
100
AcDbLine
 10
-3.371993255999997
 20
0.4254991490000004
 30
0.0
 11
-3.371993255999997
 21
0.4924990150000009
 31
0.0
  0
LINE
  5
6D5
330
1A
100
AcDbEntity
  8
LINE
100
AcDbLine
 10
-3.667307625999997
 20
0.4924990150000009
 30
0.0
 11
-2.979994039999997
 21
0.4924990150000009
 31
0.0
  0
LINE
  5
6D6
330
1A
100
AcDbEntity
  8
LINE
100
AcDbLine
 10
-2.979994039999997
 20
0.4924990150000009
 30
0.0
 11
-2.979994039999997
 21
0.4644990710000011
 31
0.0
  0
LINE
  5
6D7
330
1A
100
AcDbEntity
  8
LINE
100
AcDbLine
 10
-2.979994039999997
 20
0.4644990710000011
 30
0.0
 11
-2.757677465061805
 21
0.4644990710000011
 31
0.0
  0
LINE
  5
6D8
330
1A
100
AcDbEntity
  8
LINE
100
AcDbLine
 10
-2.730994538
 20
0.4911819980618086
 30
0.0
 11
-2.757677465061805
 21
0.4644990710000011
 31
0.0
  0
LINE
  5
6D9
330
1A
100
AcDbEntity
  8
LINE
100
AcDbLine
 10
-2.979994039999997
 20
0.4644990710000011
 30
0.0
 11
-2.979994039999997
 21
0.0
 31
0.0
  0
LINE
  5
6DA
330
1A
100
AcDbEntity
  8
LINE
100
AcDbLine
 10
-2.757677465061805
 20
0.4644990710000011
 30
0.0
 11
-2.757677465061805
 21
0.0
 31
0.0
  0
LINE
  5
6DB
330
1A
100
AcDbEntity
  8
LINE
100
AcDbLine
 10
-3.686992625999997
 20
0.0
 30
0.0
 11
-3.686992625999997
 21
0.3204993589999998
 31
0.0
  0
LINE
  5
6DC
330
1A
100
AcDbEntity
  8
LINE
100
AcDbLine
 10
-3.686992625999997
 20
0.0
 30
0.0
 11
-3.686992625999997
 21
0.3204993589999998
 31
0.0
  0
LINE
  5
6DD
330
1A
100
AcDbEntity
  8
HIDDEN
100
AcDbLine
 10
-3.626992745999997
 20
0.3204993589999998
 30
0.0
 11
-3.436993125999997
 21
0.3204993589999998
 31
0.0
  0
LINE
  5
6DE
330
1A
100
AcDbEntity
  8
HIDDEN
100
AcDbLine
 10
-3.436993125999997
 20
0.3204993589999998
 30
0.0
 11
-3.436993125999997
 21
0.0
 31
0.0
  0
LINE
  5
6DF
330
1A
100
AcDbEntity
  8
HIDDEN
100
AcDbLine
 10
-3.626992745999997
 20
0.3204993589999998
 30
0.0
 11
-3.626992745999997
 21
0.0
 31
0.0
  0
LINE
  5
6E0
330
1A
100
AcDbEntity
  8
HIDDEN
100
AcDbLine
 10
-3.626992745999997
 20
0.3204993589999998
 30
0.0
 11
-3.686992625999997
 21
0.3551403058693454
 31
0.0
  0
LINE
  5
6E1
330
1A
100
AcDbEntity
  8
HIDDEN
100
AcDbLine
 10
-3.436993125999997
 20
0.3204993589999998
 30
0.0
 11
-3.436993125999997
 21
0.312499375
 31
0.0
  0
LINE
  5
6E2
330
1A
100
AcDbEntity
  8
HIDDEN
100
AcDbLine
 10
-3.436993125999997
 20
0.312499375
 30
0.0
 11
-2.566994865999998
 21
0.312499375
 31
0.0
  0
LINE
  5
6E3
330
1A
100
AcDbEntity
  8
HIDDEN
100
AcDbLine
 10
-2.566994865999998
 20
0.312499375
 30
0.0
 11
-2.566994865999998
 21
0.0
 31
0.0
  0
LINE
  5
6E4
330
1A
100
AcDbEntity
  8
HIDDEN
100
AcDbLine
 10
-3.436993125999997
 20
0.312499375
 30
0.0
 11
-3.436993125999997
 21
0.2644994709999999
 31
0.0
  0
LINE
  5
6E5
330
1A
100
AcDbEntity
  8
HIDDEN
100
AcDbLine
 10
-3.436993125999997
 20
0.2644994709999999
 30
0.0
 11
-1.156156737196968
 21
0.2644994709999999
 31
0.0
  0
LINE
  5
6E6
330
1A
100
AcDbEntity
  8
LINE
100
AcDbLine
 10
0.0000000000000004
 20
0.8749982500000006
 30
0.0
 11
-2.730994538
 21
0.4911819980618086
 31
0.0
  0
LINE
  5
6E7
330
1A
100
AcDbEntity
  8
LINE
100
AcDbLine
 10
0.0000000000000004
 20
-0.8749982500000005
 30
0.0
 11
-2.730994538
 21
-0.4911819980618097
 31
0.0
  0
LINE
  5
6E8
330
1A
100
AcDbEntity
  8
HIDDEN
100
AcDbLine
 10
-3.436993125999997
 20
-0.2644994710000008
 30
0.0
 11
-1.156156737196968
 21
-0.2644994710000008
 31
0.0
  0
LINE
  5
6E9
330
1A
100
AcDbEntity
  8
HIDDEN
100
AcDbLine
 10
-3.436993125999997
 20
-0.3124993750000009
 30
0.0
 11
-3.436993125999997
 21
-0.2644994710000008
 31
0.0
  0
LINE
  5
6EA
330
1A
100
AcDbEntity
  8
HIDDEN
100
AcDbLine
 10
-2.566994865999998
 20
-0.3124993750000009
 30
0.0
 11
-2.566994865999998
 21
-0.0000000000000009
 31
0.0
  0
LINE
  5
6EB
330
1A
100
AcDbEntity
  8
HIDDEN
100
AcDbLine
 10
-3.436993125999997
 20
-0.3124993750000009
 30
0.0
 11
-2.566994865999998
 21
-0.3124993750000009
 31
0.0
  0
LINE
  5
6EC
330
1A
100
AcDbEntity
  8
HIDDEN
100
AcDbLine
 10
-3.436993125999997
 20
-0.3204993590000009
 30
0.0
 11
-3.436993125999997
 21
-0.3124993750000009
 31
0.0
  0
LINE
  5
6ED
330
1A
100
AcDbEntity
  8
HIDDEN
100
AcDbLine
 10
-3.626992745999997
 20
-0.3204993590000009
 30
0.0
 11
-3.686992625999997
 21
-0.3551403058693463
 31
0.0
  0
LINE
  5
6EE
330
1A
100
AcDbEntity
  8
HIDDEN
100
AcDbLine
 10
-3.626992745999997
 20
-0.3204993590000009
 30
0.0
 11
-3.626992745999997
 21
-0.0000000000000009
 31
0.0
  0
LINE
  5
6EF
330
1A
100
AcDbEntity
  8
HIDDEN
100
AcDbLine
 10
-3.436993125999997
 20
-0.3204993590000009
 30
0.0
 11
-3.436993125999997
 21
-0.0000000000000009
 31
0.0
  0
LINE
  5
6F0
330
1A
100
AcDbEntity
  8
HIDDEN
100
AcDbLine
 10
-3.626992745999997
 20
-0.3204993590000009
 30
0.0
 11
-3.436993125999997
 21
-0.3204993590000009
 31
0.0
  0
LINE
  5
6F1
330
1A
100
AcDbEntity
  8
LINE
100
AcDbLine
 10
-3.686992625999997
 20
-0.0000000000000009
 30
0.0
 11
-3.686992625999997
 21
-0.3204993590000009
 31
0.0
  0
LINE
  5
6F2
330
1A
100
AcDbEntity
  8
LINE
100
AcDbLine
 10
-3.686992625999997
 20
-0.0000000000000009
 30
0.0
 11
-3.686992625999997
 21
-0.3204993590000009
 31
0.0
  0
LINE
  5
6F3
330
1A
100
AcDbEntity
  8
LINE
100
AcDbLine
 10
-2.757677465061805
 20
-0.4644990710000024
 30
0.0
 11
-2.757677465061805
 21
-0.0000000000000009
 31
0.0
  0
LINE
  5
6F4
330
1A
100
AcDbEntity
  8
LINE
100
AcDbLine
 10
-2.979994039999997
 20
-0.4644990710000024
 30
0.0
 11
-2.979994039999997
 21
-0.0000000000000009
 31
0.0
  0
LINE
  5
6F5
330
1A
100
AcDbEntity
  8
LINE
100
AcDbLine
 10
-2.730994538
 20
-0.4911819980618097
 30
0.0
 11
-2.757677465061805
 21
-0.4644990710000024
 31
0.0
  0
LINE
  5
6F6
330
1A
100
AcDbEntity
  8
LINE
100
AcDbLine
 10
-2.979994039999997
 20
-0.4644990710000024
 30
0.0
 11
-2.757677465061805
 21
-0.4644990710000024
 31
0.0
  0
LINE
  5
6F7
330
1A
100
AcDbEntity
  8
LINE
100
AcDbLine
 10
-2.979994039999997
 20
-0.4924990150000017
 30
0.0
 11
-2.979994039999997
 21
-0.4644990710000024
 31
0.0
  0
LINE
  5
6F8
330
1A
100
AcDbEntity
  8
LINE
100
AcDbLine
 10
-3.667307625999997
 20
-0.4924990150000017
 30
0.0
 11
-2.979994039999997
 21
-0.4924990150000017
 31
0.0
  0
LINE
  5
6F9
330
1A
100
AcDbEntity
  8
LINE
100
AcDbLine
 10
-3.371993255999997
 20
-0.4254991490000016
 30
0.0
 11
-3.371993255999997
 21
-0.4924990150000017
 31
0.0
  0
LINE
  5
6FA
330
1A
100
AcDbEntity
  8
LINE
100
AcDbLine
 10
-3.371993255999997
 20
-0.4254991490000016
 30
0.0
 11
-3.371993255999997
 21
-0.0000000000000009
 31
0.0
  0
LINE
  5
6FB
330
1A
100
AcDbEntity
  8
LINE
100
AcDbLine
 10
-3.686992625999997
 20
-0.0000000000000009
 30
0.0
 11
-3.686992625999997
 21
-0.4728140150000017
 31
0.0
  0
LINE
  5
6FC
330
1A
100
AcDbEntity
  8
LINE
100
AcDbLine
 10
-3.686992625999997
 20
-0.0000000000000018
 30
0.0
 11
-3.686992625999997
 21
-0.4254991490000016
 31
0.0
  0
LINE
  5
6FD
330
1A
100
AcDbEntity
  8
LINE
100
AcDbLine
 10
0.1179997640000003
 20
-1.239999999999995
 30
0.0
 11
0.0779998439999994
 21
-1.200000079999995
 31
0.0
  0
LINE
  5
6FE
330
1A
100
AcDbEntity
  8
LINE
100
AcDbLine
 10
0.1179997640000003
 20
-1.239999999999997
 30
0.0
 11
0.8507419999999994
 21
-1.239999999999997
 31
0.0
  0
LINE
  5
6FF
330
1A
100
AcDbEntity
  8
LINE
100
AcDbLine
 10
0.0779998439999994
 20
-0.0000000000000009
 30
0.0
 11
0.0779998440000003
 21
-1.200000079999997
 31
0.0
  0
LINE
  5
700
330
1A
100
AcDbEntity
  8
LINE
100
AcDbLine
 10
0.0000000000000004
 20
-0.8749982500000005
 30
0.0
 11
0.0779998439999994
 21
-0.8749982500000005
 31
0.0
  0
LINE
  5
701
330
1A
100
AcDbEntity
  8
LINE
100
AcDbLine
 10
0.0000000000000004
 20
-0.0000000000000009
 30
0.0
 11
0.0000000000000004
 21
-0.8749982500000005
 31
0.0
  0
DIMENSION
  5
712
330
1A
100
AcDbEntity
  8
DIM
100
AcDbDimension
  2
*D2
 10
3.268935977988475
 20
-1.245499999999998
 30
0.0
 11
3.268935977988475
 21
0.0144974800000006
 31
0.0
 70
   160
  1
%%c<>
 71
     5
 42
2.490999999999996
  3
STANDARD
100
AcDbAlignedDimension
 13
1.712000119999995
 23
1.245499999999998
 33
0.0
 14
1.712000119999995
 24
-1.245499999999998
 34
0.0
 50
90.0
100
AcDbRotatedDimension
  0
DIMENSION
  5
79D
330
1A
100
AcDbEntity
  8
DIM
100
AcDbDimension
  2
*D3
 10
1.771999999999999
 20
2.07276987315854
 30
0.0
 11
0.8859999999999994
 21
2.07276987315854
 31
0.0
 70
   160
 71
     5
 42
1.771999999999998
  3
STANDARD
100
AcDbAlignedDimension
 13
0.0000000000000004
 23
0.8749982500000006
 33
0.0
 14
1.771999999999999
 24
1.185500119999998
 34
0.0
100
AcDbRotatedDimension
  0
DIMENSION
  5
7AA
330
1A
100
AcDbEntity
  8
DIM
100
AcDbDimension
  2
*D4
 10
1.771999999999999
 20
1.741599705460749
 30
0.0
 11
1.311370999999998
 21
1.741599705460749
 31
0.0
 70
   160
 71
     5
 42
0.9212579999999995
  3
STANDARD
100
AcDbAlignedDimension
 13
0.8507419999999994
 23
1.245499999999998
 33
0.0
 14
1.771999999999999
 24
1.185500119999998
 34
0.0
100
AcDbRotatedDimension
  0
DIMENSION
  5
8A6
330
1A
100
AcDbEntity
  8
DIM
100
AcDbDimension
  2
*D5
 10
1.771999999999999
 20
2.530275717989752
 30
0.0
 11
-0.9574963129999987
 21
2.642775717989751
 31
0.0
 70
    32
 71
     5
 42
5.458992625999997
  3
STANDARD
100
AcDbAlignedDimension
 13
-3.686992625999997
 23
0.4728140150000008
 33
0.0
 14
1.771999999999999
 24
1.185500119999998
 34
0.0
100
AcDbRotatedDimension
  0
LINE
  5
A6A
330
1A
100
AcDbEntity
  8
LINE
100
AcDbLine
 10
-2.051703981766031
 20
1.067176924406281
 30
0.0
 11
-1.9848529440953
 21
1.41109569872706
 31
0.0
  0
LINE
  5
A6B
330
1A
100
AcDbEntity
  8
LINE
100
AcDbLine
 10
-2.051703981766031
 20
1.067176924406281
 30
0.0
 11
-1.919990408621913
 21
1.067176924406281
 31
0.0
  0
LINE
  5
A6C
330
1A
100
AcDbEntity
  8
LINE
100
AcDbLine
 10
-2.06808799663936
 20
1.067176924406281
 30
0.0
 11
-2.14204899336346
 21
1.252485829404425
 31
0.0
  0
LINE
  5
A6D
330
1A
100
AcDbEntity
  8
LINE
100
AcDbLine
 10
-2.130286072846306
 20
1.067176924406288
 30
0.0
 11
-2.175562305969509
 21
1.180616298591556
 31
0.0
  0
LINE
  5
A6E
330
1A
100
AcDbEntity
  8
LINE
100
AcDbLine
 10
-2.205353797984173
 20
1.116728237793836
 30
0.0
 11
-2.175562305969509
 21
1.180616298591556
 31
0.0
  0
ARC
  5
A6F
330
1A
100
AcDbEntity
  8
LINE
100
AcDbCircle
 10
-2.822232080071832
 20
1.164590087877463
 30
0.0
 40
0.1031990439653496
100
AcDbArc
 50
289.2767926682573
 51
46.24915972781778
  0
ARC
  5
A70
330
1A
100
AcDbEntity
  8
LINE
100
AcDbCircle
 10
-2.493395486882918
 20
1.164590087877463
 30
0.0
 40
0.1031990439653496
100
AcDbArc
 50
289.2767926682573
 51
0.0
  0
ARC
  5
A71
330
1A
100
AcDbEntity
  8
LINE
100
AcDbCircle
 10
-2.487840700572538
 20
1.164590087877463
 30
0.0
 40
0.1031990439653519
100
AcDbArc
 50
180.0
 51
250.723207331739
  0
ARC
  5
A72
330
1A
100
AcDbEntity
  8
LINE
100
AcDbCircle
 10
-2.477660621816709
 20
1.164590087877463
 30
0.0
 40
0.058498467244465
100
AcDbArc
 50
180.0
 51
242.0588959302372
  0
ARC
  5
A73
330
1A
100
AcDbEntity
  8
LINE
100
AcDbCircle
 10
-2.500856395855754
 20
1.164590087877463
 30
0.0
 40
0.058498467244465
100
AcDbArc
 50
297.9411040697627
 51
0.0
  0
LINE
  5
A74
330
1A
100
AcDbEntity
  8
LINE
100
AcDbLine
 10
-2.26755187419112
 20
1.41109569872706
 30
0.0
 11
-2.26755187419112
 21
1.067176924406288
 31
0.0
  0
LINE
  5
A75
330
1A
100
AcDbEntity
  8
LINE
100
AcDbLine
 10
-2.629425417766384
 20
1.41109569872706
 30
0.0
 11
-2.629425417766384
 21
1.067176924406288
 31
0.0
  0
LINE
  5
A76
330
1A
100
AcDbEntity
  8
LINE
100
AcDbLine
 10
-2.680647362877986
 20
1.067176924406288
 30
0.0
 11
-2.680647362877986
 21
1.41109569872706
 31
0.0
  0
LINE
  5
A77
330
1A
100
AcDbEntity
  8
LINE
100
AcDbLine
 10
-2.919876337726794
 20
1.067176924406288
 30
0.0
 11
-2.919876337726794
 21
1.41109569872706
 31
0.0
  0
ARC
  5
A78
330
1A
100
AcDbEntity
  8
LINE
100
AcDbCircle
 10
-2.829692989044653
 20
1.164590087877463
 30
0.0
 40
0.058498467244465
100
AcDbArc
 50
297.9411040697627
 51
62.05889593023727
  0
LINE
  5
A79
330
1A
100
AcDbEntity
  8
LINE
100
AcDbLine
 10
-2.864995682250087
 20
1.112910803970218
 30
0.0
 11
-2.864995682250087
 21
1.216269371784709
 31
0.0
  0
LINE
  5
A7A
330
1A
100
AcDbEntity
  8
LINE
100
AcDbLine
 10
-2.919876337726794
 20
1.067176924406288
 30
0.0
 11
-2.788162764582676
 21
1.067176924406288
 31
0.0
  0
LINE
  5
A7B
330
1A
100
AcDbEntity
  8
LINE
100
AcDbLine
 10
-2.850360840789623
 20
1.067176924406288
 30
0.0
 11
-2.788162764582676
 21
1.067176924406288
 31
0.0
  0
LINE
  5
A7C
330
1A
100
AcDbEntity
  8
LINE
100
AcDbLine
 10
-2.864995682250087
 20
1.112910803970218
 30
0.0
 11
-2.802282730293844
 21
1.112910803970218
 31
0.0
  0
LINE
  5
A7D
330
1A
100
AcDbEntity
  8
LINE
100
AcDbLine
 10
-2.680647362877986
 20
1.067176924406288
 30
0.0
 11
-2.629425417766384
 21
1.067176924406288
 31
0.0
  0
LINE
  5
A7E
330
1A
100
AcDbEntity
  8
LINE
100
AcDbLine
 10
-2.505070880567519
 20
1.112910803970218
 30
0.0
 11
-2.473446137104945
 21
1.112910803970218
 31
0.0
  0
LINE
  5
A7F
330
1A
100
AcDbEntity
  8
LINE
100
AcDbLine
 10
-2.521910016061708
 20
1.067176924406288
 30
0.0
 11
-2.459326171393763
 21
1.067176924406288
 31
0.0
  0
LINE
  5
A80
330
1A
100
AcDbEntity
  8
LINE
100
AcDbLine
 10
-2.52152424760071
 20
1.067176924406288
 30
0.0
 11
-2.459326171393763
 21
1.067176924406288
 31
0.0
  0
LINE
  5
A81
330
1A
100
AcDbEntity
  8
LINE
100
AcDbLine
 10
-2.205353797984173
 20
1.067176924406288
 30
0.0
 11
-2.205353797984173
 21
1.116728237793836
 31
0.0
  0
LINE
  5
A82
330
1A
100
AcDbEntity
  8
LINE
100
AcDbLine
 10
-2.26755187419112
 20
1.067176924406288
 30
0.0
 11
-2.205353797984173
 21
1.067176924406288
 31
0.0
  0
LINE
  5
A83
330
1A
100
AcDbEntity
  8
LINE
100
AcDbLine
 10
-2.130286072846306
 20
1.067176924406288
 30
0.0
 11
-2.06808799663936
 21
1.067176924406288
 31
0.0
  0
ARC
  5
A84
330
1A
100
AcDbEntity
  8
LINE
100
AcDbCircle
 10
-2.487840700572538
 20
1.313682535255884
 30
0.0
 40
0.1031990439653519
100
AcDbArc
 50
109.2767926682608
 51
180.0
  0
ARC
  5
A85
330
1A
100
AcDbEntity
  8
LINE
100
AcDbCircle
 10
-2.822232080071832
 20
1.313682535255884
 30
0.0
 40
0.1031990439653519
100
AcDbArc
 50
313.7508402721822
 51
70.7232073317391
  0
ARC
  5
A86
330
1A
100
AcDbEntity
  8
LINE
100
AcDbCircle
 10
-2.829692989044653
 20
1.313682535255884
 30
0.0
 40
0.058498467244465
100
AcDbArc
 50
297.9411040697627
 51
62.05889593023727
  0
LINE
  5
A87
330
1A
100
AcDbEntity
  8
LINE
100
AcDbLine
 10
-2.864995682250087
 20
1.262003251348639
 30
0.0
 11
-2.864995682250087
 21
1.36536181916313
 31
0.0
  0
LINE
  5
A88
330
1A
100
AcDbEntity
  8
LINE
100
AcDbLine
 10
-2.802282730293844
 20
1.216269371784709
 30
0.0
 11
-2.864995682250087
 21
1.216269371784709
 31
0.0
  0
LINE
  5
A89
330
1A
100
AcDbEntity
  8
LINE
100
AcDbLine
 10
-2.802282730293844
 20
1.262003251348639
 30
0.0
 11
-2.864995682250087
 21
1.262003251348639
 31
0.0
  0
LINE
  5
A8A
330
1A
100
AcDbEntity
  8
LINE
100
AcDbLine
 10
-2.864995682250087
 20
1.36536181916313
 30
0.0
 11
-2.802282730293844
 21
1.36536181916313
 31
0.0
  0
LINE
  5
A8B
330
1A
100
AcDbEntity
  8
LINE
100
AcDbLine
 10
-2.919876337726794
 20
1.41109569872706
 30
0.0
 11
-2.788162764582676
 21
1.41109569872706
 31
0.0
  0
LINE
  5
A8C
330
1A
100
AcDbEntity
  8
LINE
100
AcDbLine
 10
-2.850360840789623
 20
1.41109569872706
 30
0.0
 11
-2.788162764582676
 21
1.41109569872706
 31
0.0
  0
LINE
  5
A8D
330
1A
100
AcDbEntity
  8
LINE
100
AcDbLine
 10
-2.680647362877986
 20
1.41109569872706
 30
0.0
 11
-2.629425417766384
 21
1.41109569872706
 31
0.0
  0
LINE
  5
A8E
330
1A
100
AcDbEntity
  8
LINE
100
AcDbLine
 10
-2.14204899336346
 20
1.252485829404425
 30
0.0
 11
-2.06808799663936
 21
1.41109569872706
 31
0.0
  0
LINE
  5
A8F
330
1A
100
AcDbEntity
  8
LINE
100
AcDbLine
 10
-2.205353797984173
 20
1.41109569872706
 30
0.0
 11
-2.205353797984173
 21
1.250112442662015
 31
0.0
  0
LINE
  5
A90
330
1A
100
AcDbEntity
  8
LINE
100
AcDbLine
 10
-2.205353797984173
 20
1.250112442662015
 30
0.0
 11
-2.130286072846306
 21
1.41109569872706
 31
0.0
  0
ARC
  5
A91
330
1A
100
AcDbEntity
  8
LINE
100
AcDbCircle
 10
-2.493395486882933
 20
1.313682535255884
 30
0.0
 40
0.1031990439653519
100
AcDbArc
 50
0.0
 51
70.7232073317391
  0
LINE
  5
A92
330
1A
100
AcDbEntity
  8
LINE
100
AcDbLine
 10
-2.59103974453788
 20
1.164590087877463
 30
0.0
 11
-2.59103974453788
 21
1.313682535255884
 31
0.0
  0
LINE
  5
A93
330
1A
100
AcDbEntity
  8
LINE
100
AcDbLine
 10
-2.536159089061174
 20
1.216269371784709
 30
0.0
 11
-2.536159089061174
 21
1.313682535255884
 31
0.0
  0
LINE
  5
A94
330
1A
100
AcDbEntity
  8
LINE
100
AcDbLine
 10
-2.44235792861129
 20
1.216269371784709
 30
0.0
 11
-2.489258508836231
 21
1.216269371784709
 31
0.0
  0
LINE
  5
A95
330
1A
100
AcDbEntity
  8
LINE
100
AcDbLine
 10
-2.390196442917576
 20
1.262003251348639
 30
0.0
 11
-2.489258508836231
 21
1.262003251348639
 31
0.0
  0
LINE
  5
A96
330
1A
100
AcDbEntity
  8
LINE
100
AcDbLine
 10
-2.536159089061174
 20
1.164590087877463
 30
0.0
 11
-2.536159089061174
 21
1.216269371784709
 31
0.0
  0
LINE
  5
A97
330
1A
100
AcDbEntity
  8
LINE
100
AcDbLine
 10
-2.489258508836231
 20
1.216269371784709
 30
0.0
 11
-2.489258508836231
 21
1.262003251348639
 31
0.0
  0
LINE
  5
A98
330
1A
100
AcDbEntity
  8
LINE
100
AcDbLine
 10
-2.44235792861129
 20
1.164590087877463
 30
0.0
 11
-2.44235792861129
 21
1.216269371784709
 31
0.0
  0
LINE
  5
A99
330
1A
100
AcDbEntity
  8
LINE
100
AcDbLine
 10
-2.390196442917576
 20
1.164590087877463
 30
0.0
 11
-2.390196442917576
 21
1.262003251348639
 31
0.0
  0
ARC
  5
A9A
330
1A
100
AcDbEntity
  8
LINE
100
AcDbCircle
 10
-2.500856395855754
 20
1.313682535255884
 30
0.0
 40
0.058498467244465
100
AcDbArc
 50
0.0
 51
62.05889593023727
  0
LINE
  5
A9B
330
1A
100
AcDbEntity
  8
LINE
100
AcDbLine
 10
-2.505070880567519
 20
1.36536181916313
 30
0.0
 11
-2.473446137104945
 21
1.36536181916313
 31
0.0
  0
ARC
  5
A9C
330
1A
100
AcDbEntity
  8
LINE
100
AcDbCircle
 10
-2.477660621816709
 20
1.313682535255884
 30
0.0
 40
0.058498467244465
100
AcDbArc
 50
117.9411040697627
 51
180.0
  0
LINE
  5
A9D
330
1A
100
AcDbEntity
  8
LINE
100
AcDbLine
 10
-2.44235792861129
 20
1.313682535255884
 30
0.0
 11
-2.390196442917576
 21
1.313682535255884
 31
0.0
  0
LINE
  5
A9E
330
1A
100
AcDbEntity
  8
LINE
100
AcDbLine
 10
-2.521910016061708
 20
1.41109569872706
 30
0.0
 11
-2.459326171393763
 21
1.41109569872706
 31
0.0
  0
LINE
  5
A9F
330
1A
100
AcDbEntity
  8
LINE
100
AcDbLine
 10
-2.52152424760071
 20
1.41109569872706
 30
0.0
 11
-2.459326171393763
 21
1.41109569872706
 31
0.0
  0
LINE
  5
AA0
330
1A
100
AcDbEntity
  8
LINE
100
AcDbLine
 10
-2.26755187419112
 20
1.41109569872706
 30
0.0
 11
-2.205353797984173
 21
1.41109569872706
 31
0.0
  0
LINE
  5
AA1
330
1A
100
AcDbEntity
  8
LINE
100
AcDbLine
 10
-2.130286072846306
 20
1.41109569872706
 30
0.0
 11
-2.06808799663936
 21
1.41109569872706
 31
0.0
  0
LINE
  5
AA2
330
1A
100
AcDbEntity
  8
LINE
100
AcDbLine
 10
-1.252213507562101
 20
1.183340978498676
 30
0.0
 11
-1.252213507562101
 21
1.085332839472995
 31
0.0
  0
LINE
  5
AA3
330
1A
100
AcDbEntity
  8
LINE
100
AcDbLine
 10
-1.197332852085393
 20
1.088795558261851
 30
0.0
 11
-1.197332852085393
 21
1.19340243200274
 31
0.0
  0
ARC
  5
AA4
330
1A
100
AcDbEntity
  8
LINE
100
AcDbCircle
 10
-1.616621059927518
 20
1.124252806102078
 30
0.0
 40
0.0570758816957883
100
AcDbArc
 50
270.0
 51
24.99999999999861
  0
LINE
  5
AA5
330
1A
100
AcDbEntity
  8
LINE
100
AcDbLine
 10
-1.310752873403942
 20
1.067176924406288
 30
0.0
 11
-1.310752873403942
 21
1.216269371784709
 31
0.0
  0
LINE
  5
AA6
330
1A
100
AcDbEntity
  8
LINE
100
AcDbLine
 10
-1.8761481614754
 20
1.067176924406281
 30
0.0
 11
-1.956004334481199
 21
1.319824843662348
 31
0.0
  0
LINE
  5
AA7
330
1A
100
AcDbEntity
  8
LINE
100
AcDbLine
 10
-1.365633528880664
 20
1.067176924406288
 30
0.0
 11
-1.365633528880664
 21
1.41109569872706
 31
0.0
  0
LINE
  5
AA8
330
1A
100
AcDbEntity
  8
LINE
100
AcDbLine
 10
-1.530275495310814
 20
1.067176924406288
 30
0.0
 11
-1.530275495310814
 21
1.41109569872706
 31
0.0
  0
LINE
  5
AA9
330
1A
100
AcDbEntity
  8
LINE
100
AcDbLine
 10
-1.749798117217701
 20
1.41109569872706
 30
0.0
 11
-1.749798117217701
 21
1.067176924406288
 31
0.0
  0
LINE
  5
AAA
330
1A
100
AcDbEntity
  8
LINE
100
AcDbLine
 10
-1.801020062329289
 20
1.067176924406288
 30
0.0
 11
-1.801020062329289
 21
1.41109569872706
 31
0.0
  0
LINE
  5
AAB
330
1A
100
AcDbEntity
  8
LINE
100
AcDbLine
 10
-1.913420263839832
 20
1.41109569872706
 30
0.0
 11
-1.821267505998678
 21
1.067176924406281
 31
0.0
  0
LINE
  5
AAC
330
1A
100
AcDbEntity
  8
LINE
100
AcDbLine
 10
-1.996224349481483
 20
1.112910803970218
 30
0.0
 11
-1.956004334481199
 21
1.319824843662348
 31
0.0
  0
LINE
  5
AAD
330
1A
100
AcDbEntity
  8
LINE
100
AcDbLine
 10
-1.617008629091415
 20
1.138935544869378
 30
0.0
 11
-1.706056120813621
 21
1.329898507121679
 31
0.0
  0
LINE
  5
AAE
330
1A
100
AcDbEntity
  8
LINE
100
AcDbLine
 10
-1.475394839834107
 20
1.112910803970218
 30
0.0
 11
-1.475394839834107
 21
1.216269371784709
 31
0.0
  0
LINE
  5
AAF
330
1A
100
AcDbEntity
  8
LINE
100
AcDbLine
 10
-1.530275495310814
 20
1.067176924406288
 30
0.0
 11
-1.398561922166697
 21
1.067176924406288
 31
0.0
  0
LINE
  5
AB0
330
1A
100
AcDbEntity
  8
LINE
100
AcDbLine
 10
-1.475394839834107
 20
1.112910803970218
 30
0.0
 11
-1.398561922166697
 21
1.112910803970218
 31
0.0
  0
LINE
  5
AB1
330
1A
100
AcDbEntity
  8
LINE
100
AcDbLine
 10
-1.821267505998678
 20
1.067176924406281
 30
0.0
 11
-1.8761481614754
 21
1.067176924406281
 31
0.0
  0
LINE
  5
AB2
330
1A
100
AcDbEntity
  8
LINE
100
AcDbLine
 10
-1.919990408621913
 20
1.067176924406281
 30
0.0
 11
-1.932244764717811
 21
1.112910803970218
 31
0.0
  0
LINE
  5
AB3
330
1A
100
AcDbEntity
  8
LINE
100
AcDbLine
 10
-1.996224349481483
 20
1.112910803970218
 30
0.0
 11
-1.932244764717811
 21
1.112910803970218
 31
0.0
  0
LINE
  5
AB4
330
1A
100
AcDbEntity
  8
LINE
100
AcDbLine
 10
-1.801020062329303
 20
1.067176924406288
 30
0.0
 11
-1.749798117217701
 21
1.067176924406288
 31
0.0
  0
LINE
  5
AB5
330
1A
100
AcDbEntity
  8
LINE
100
AcDbLine
 10
-1.713211013566548
 20
1.112910803970218
 30
0.0
 11
-1.713211013566548
 21
1.067176924406288
 31
0.0
  0
ARC
  5
AB6
330
1A
100
AcDbEntity
  8
LINE
100
AcDbCircle
 10
-1.63358821756348
 20
1.131204355795794
 30
0.0
 40
0.0182935518255732
100
AcDbArc
 50
270.0
 51
24.99999999999861
  0
LINE
  5
AB7
330
1A
100
AcDbEntity
  8
LINE
100
AcDbLine
 10
-1.713211013566548
 20
1.067176924406288
 30
0.0
 11
-1.616621059927518
 21
1.067176924406288
 31
0.0
  0
LINE
  5
AB8
330
1A
100
AcDbEntity
  8
LINE
100
AcDbLine
 10
-1.713211013566548
 20
1.112910803970218
 30
0.0
 11
-1.63358821756348
 21
1.112910803970218
 31
0.0
  0
LINE
  5
AB9
330
1A
100
AcDbEntity
  8
LINE
100
AcDbLine
 10
-1.398561922166697
 20
1.067176924406288
 30
0.0
 11
-1.398561922166697
 21
1.112910803970218
 31
0.0
  0
LINE
  5
ABA
330
1A
100
AcDbEntity
  8
LINE
100
AcDbLine
 10
-1.365633528880664
 20
1.067176924406288
 30
0.0
 11
-1.310752873403942
 21
1.067176924406288
 31
0.0
  0
LINE
  5
ABB
330
1A
100
AcDbEntity
  8
LINE
100
AcDbLine
 10
-1.2499253169514
 20
1.067176924406288
 30
0.0
 11
-1.191641439738796
 21
1.067176924406288
 31
0.0
  0
ARC
  5
ABC
330
1A
100
AcDbEntity
  8
LINE
100
AcDbCircle
 10
-1.17903930025981
 20
1.085332839472995
 30
0.0
 40
0.0731742073022927
100
AcDbArc
 50
180.0
 51
194.3662353416888
  0
ARC
  5
ABD
330
1A
100
AcDbEntity
  8
LINE
100
AcDbCircle
 10
-1.153428327704016
 20
1.088795558261851
 30
0.0
 40
0.0439045243813756
100
AcDbArc
 50
180.0
 51
209.4985180895029
  0
LINE
  5
ABE
330
1A
100
AcDbEntity
  8
LINE
100
AcDbLine
 10
-1.398561922166697
 20
1.216269371784709
 30
0.0
 11
-1.475394839834107
 21
1.216269371784709
 31
0.0
  0
LINE
  5
ABF
330
1A
100
AcDbEntity
  8
LINE
100
AcDbLine
 10
-1.398561922166697
 20
1.262003251348639
 30
0.0
 11
-1.475394839834107
 21
1.262003251348639
 31
0.0
  0
LINE
  5
AC0
330
1A
100
AcDbEntity
  8
LINE
100
AcDbLine
 10
-1.530275495310814
 20
1.41109569872706
 30
0.0
 11
-1.398561922166697
 21
1.41109569872706
 31
0.0
  0
LINE
  5
AC1
330
1A
100
AcDbEntity
  8
LINE
100
AcDbLine
 10
-1.475394839834107
 20
1.36536181916313
 30
0.0
 11
-1.398561922166697
 21
1.36536181916313
 31
0.0
  0
ARC
  5
AC2
330
1A
100
AcDbEntity
  8
LINE
100
AcDbCircle
 10
-1.65432780478074
 20
1.354019817031277
 30
0.0
 40
0.0570758816957883
100
AcDbArc
 50
90.0
 51
204.9999999999986
  0
LINE
  5
AC3
330
1A
100
AcDbEntity
  8
LINE
100
AcDbLine
 10
-1.574180019692192
 20
1.41109569872706
 30
0.0
 11
-1.574180019692192
 21
1.36536181916313
 31
0.0
  0
LINE
  5
AC4
330
1A
100
AcDbEntity
  8
LINE
100
AcDbLine
 10
-1.475394839834107
 20
1.262003251348639
 30
0.0
 11
-1.475394839834107
 21
1.36536181916313
 31
0.0
  0
LINE
  5
AC5
330
1A
100
AcDbEntity
  8
LINE
100
AcDbLine
 10
-1.564892743894637
 20
1.148374116011669
 30
0.0
 11
-1.653940235616858
 21
1.339337078263963
 31
0.0
  0
ARC
  5
AC6
330
1A
100
AcDbEntity
  8
LINE
100
AcDbCircle
 10
-1.637360647144779
 20
1.347068267337554
 30
0.0
 40
0.0182935518255732
100
AcDbArc
 50
90.0
 51
204.9999999999986
  0
LINE
  5
AC7
330
1A
100
AcDbEntity
  8
LINE
100
AcDbLine
 10
-1.574180019692192
 20
1.36536181916313
 30
0.0
 11
-1.637360647144779
 21
1.365361819163123
 31
0.0
  0
LINE
  5
AC8
330
1A
100
AcDbEntity
  8
LINE
100
AcDbLine
 10
-1.9848529440953
 20
1.41109569872706
 30
0.0
 11
-1.913420263839832
 21
1.41109569872706
 31
0.0
  0
LINE
  5
AC9
330
1A
100
AcDbEntity
  8
LINE
100
AcDbLine
 10
-1.801020062329289
 20
1.41109569872706
 30
0.0
 11
-1.749798117217701
 21
1.41109569872706
 31
0.0
  0
LINE
  5
ACA
330
1A
100
AcDbEntity
  8
LINE
100
AcDbLine
 10
-1.574180019692192
 20
1.41109569872706
 30
0.0
 11
-1.65432780478074
 21
1.41109569872706
 31
0.0
  0
LINE
  5
ACB
330
1A
100
AcDbEntity
  8
LINE
100
AcDbLine
 10
-1.398561922166697
 20
1.36536181916313
 30
0.0
 11
-1.398561922166697
 21
1.41109569872706
 31
0.0
  0
ARC
  5
ACC
330
1A
100
AcDbEntity
  8
LINE
100
AcDbCircle
 10
-1.25440873378117
 20
1.354019817031277
 30
0.0
 40
0.0570758816957883
100
AcDbArc
 50
0.0
 51
90.0
  0
LINE
  5
ACD
330
1A
100
AcDbEntity
  8
LINE
100
AcDbLine
 10
-1.310752873403942
 20
1.262003251348639
 30
0.0
 11
-1.310752873403942
 21
1.36536181916313
 31
0.0
  0
ARC
  5
ACE
330
1A
100
AcDbEntity
  8
LINE
100
AcDbCircle
 10
-1.243066731649316
 20
1.284870191130607
 30
0.0
 40
0.0457338795639329
100
AcDbArc
 50
270.0
 51
0.0
  0
ARC
  5
ACF
330
1A
100
AcDbEntity
  8
LINE
100
AcDbCircle
 10
-1.27416576975279
 20
1.283955513539328
 30
0.0
 40
0.0219522621906878
100
AcDbArc
 50
270.0
 51
0.0
  0
ARC
  5
AD0
330
1A
100
AcDbEntity
  8
LINE
100
AcDbCircle
 10
-1.285141900848134
 20
1.183340978498676
 30
0.0
 40
0.0329283932860317
100
AcDbArc
 50
0.0
 51
90.0
  0
LINE
  5
AD1
330
1A
100
AcDbEntity
  8
LINE
100
AcDbLine
 10
-1.398561922166697
 20
1.216269371784709
 30
0.0
 11
-1.398561922166697
 21
1.262003251348639
 31
0.0
  0
LINE
  5
AD2
330
1A
100
AcDbEntity
  8
LINE
100
AcDbLine
 10
-1.285141900848134
 20
1.216269371784709
 30
0.0
 11
-1.310752873403942
 21
1.216269371784709
 31
0.0
  0
LINE
  5
AD3
330
1A
100
AcDbEntity
  8
LINE
100
AcDbLine
 10
-1.27416576975279
 20
1.262003251348639
 30
0.0
 11
-1.310752873403942
 21
1.262003251348639
 31
0.0
  0
ARC
  5
AD4
330
1A
100
AcDbEntity
  8
LINE
100
AcDbCircle
 10
-1.243066731649316
 20
1.19340243200274
 30
0.0
 40
0.0457338795639329
100
AcDbArc
 50
0.0
 51
90.0
  0
ARC
  5
AD5
330
1A
100
AcDbEntity
  8
LINE
100
AcDbCircle
 10
-1.27416576975279
 20
1.343409556972434
 30
0.0
 40
0.0219522621906878
100
AcDbArc
 50
0.0
 51
90.0
  0
LINE
  5
AD6
330
1A
100
AcDbEntity
  8
LINE
100
AcDbLine
 10
-1.310752873403942
 20
1.36536181916313
 30
0.0
 11
-1.27416576975279
 21
1.36536181916313
 31
0.0
  0
LINE
  5
AD7
330
1A
100
AcDbEntity
  8
LINE
100
AcDbLine
 10
-1.197332852085393
 20
1.354019817031277
 30
0.0
 11
-1.197332852085393
 21
1.284870191130607
 31
0.0
  0
LINE
  5
AD8
330
1A
100
AcDbEntity
  8
LINE
100
AcDbLine
 10
-1.252213507562101
 20
1.283955513539328
 30
0.0
 11
-1.252213507562101
 21
1.343409556972434
 31
0.0
  0
LINE
  5
AD9
330
1A
100
AcDbEntity
  8
LINE
100
AcDbLine
 10
-1.365633528880664
 20
1.41109569872706
 30
0.0
 11
-1.25440873378117
 21
1.41109569872706
 31
0.0
  0
ENDSEC
  0
SECTION
  2
OBJECTS
  0
DICTIONARY
  5
C
330
0
100
AcDbDictionary
281
     1
  3
ACAD_GROUP
350
D
  3
ACAD_LAYOUT
350
317
  3
ACAD_MLINESTYLE
350
E
  3
ACAD_PLOTSETTINGS
350
318
  3
ACAD_PLOTSTYLENAME
350
315
  3
AcAmCatalogState
350
3E4
  3
AcAsAppObject
350
368
  3
ACASGREF_MASTER
350
3B0
  3
AcDbVariableDictionary
350
31F
  3
ACDMSYSVARMGR
350
343
  3
ACGREF_MASTER
350
33D
  3
ACGREFACAD_MASTER
350
364
  3
AcmDictionary
350
3E0
  3
ACME_BOM_MANAGER_NAME
350
336
  3
ACME_COMMAND_HISTORY
350
331
  3
ACME_SCOPE_NAME
350
330
  3
ACMESTATEMGR
350
33B
  3
AcmeSysVarManager
350
332
  3
AcmSystemVariableManager
350
3ED
  3
AD_APPL
350
3C8
  3
AD_GREF_MODULE
350
3B1
  3
AD_MAPI_MODULE
350
3CA
  3
ADSYSVARMGR
350
3BA
  3
AmdtNamedDwgMgr
350
35F
  3
AMG
350
326
  3
AMI_MASTER
350
367
  3
ASURF_STATIC_VARS
350
369
  3
AUTOCAD_ASSEMBLIES_PROJECT
350
3D5
  3
AutoSurf_SysVars
350
36A
  3
Designer_Assemblies_SysVars
350
3CC
  3
DWGPROPS
350
486
  3
GREFAM_MODULE
350
3B3
  3
MAPISURF_MODULE
350
3B2
  0
DICTIONARY
  5
43F
330
1A
100
AcDbDictionary
280
     1
281
     1
  3
ACAD_INDEX
360
440
  0
DICTIONARY
  5
D
102
{ACAD_REACTORS
330
C
102
}
330
C
100
AcDbDictionary
281
     1
  0
DICTIONARY
  5
317
102
{ACAD_REACTORS
330
C
102
}
330
C
100
AcDbDictionary
281
     1
  3
Layout1
350
4B1
  3
Model
350
319
  0
DICTIONARY
  5
E
102
{ACAD_REACTORS
330
C
102
}
330
C
100
AcDbDictionary
281
     1
  3
STANDARD
350
13
  0
DICTIONARY
  5
318
102
{ACAD_REACTORS
330
C
102
}
330
C
100
AcDbDictionary
281
     1
  0
ACDBDICTIONARYWDFLT
  5
315
102
{ACAD_REACTORS
330
C
102
}
330
C
100
AcDbDictionary
281
     1
  3
Normal
350
316
100
AcDbDictionaryWithDefault
340
316
  0
ACAD_PROXY_OBJECT
  5
3E4
102
{ACAD_REACTORS
330
C
102
}
330
C
100
AcDbProxyObject
 90
      499
 91
      557
 95
   851991
 70
     0
 93
      368
310
3FFFFFFFE00A02814028AA19D2E283937B3B930B6902334B632B9AE26A22A1B4008010101020000BFC08FE0100000E
 94
        0
  0
ACAD_PROXY_OBJECT
  5
368
102
{ACAD_REACTORS
330
C
102
}
330
C
100
AcDbProxyObject
 90
      499
 91
      529
 95
   851991
 70
     0
 93
       10
310
4043
 94
        0
  0
ACAD_PROXY_OBJECT
  5
3B0
102
{ACAD_REACTORS
330
C
102
}
330
C
100
AcDbProxyObject
 90
      499
 91
      535
 95
   851991
 70
     0
 93
       34
310
010000404B
 94
        0
  0
DICTIONARY
  5
31F
102
{ACAD_REACTORS
330
C
102
}
330
C
100
AcDbDictionary
281
     1
  3
DIMASSOC
350
320
  3
INDEXCTL
350
44A
  0
ACAD_PROXY_OBJECT
  5
343
102
{ACAD_REACTORS
330
C
102
}
330
C
100
AcDbProxyObject
 90
      499
 91
      508
 95
   851991
 70
     0
 93
      240
310
4C51A47A0000000000000000000000000000000000000000000000000000D2
330
344
330
345
330
346
330
347
330
348
330
349
330
34A
330
34C
330
34D
330
34E
330
34F
330
350
330
351
330
352
330
353
330
354
330
355
330
356
330
357
330
358
330
359
330
35A
330
35B
330
35C
330
35D
330
35E
 94
        0
  0
ACAD_PROXY_OBJECT
  5
33D
102
{ACAD_REACTORS
330
C
102
}
330
C
100
AcDbProxyObject
 90
      499
 91
      517
 95
   851991
 70
     0
 93
       34
310
040000428B
 94
        0
  0
ACAD_PROXY_OBJECT
  5
364
102
{ACAD_REACTORS
330
C
102
}
330
C
100
AcDbProxyObject
 90
      499
 91
      525
 95
   851991
 70
     0
 93
      114
310
04000041C000000000000000000000
 94
        0
  0
DICTIONARY
  5
3E0
102
{ACAD_REACTORS
330
C
102
}
330
C
100
AcDbDictionary
281
     1
  3
AcmBOMDATA
350
3E1
  3
AcmStdDictionary
350
3EF
  0
ACAD_PROXY_OBJECT
  5
336
102
{ACAD_REACTORS
330
C
102
}
330
C
100
AcDbProxyObject
 90
      499
 91
      511
 95
   851991
 70
     0
 93
       50
310
00010040400000
330
0
330
0
330
337
 94
        0
  0
ACAD_PROXY_OBJECT
  5
331
102
{ACAD_REACTORS
330
C
102
}
330
C
100
AcDbProxyObject
 90
      499
 91
      507
 95
   851991
 70
     0
 93
     2182
310
468050E414D4454524553455444424D4F4440805084E202D20554E444F014213880B4815539113C0504554E444F80504554E444F80504554E444F80504554E444F80504554E444F80504554E444F80504554E444F80504554E444F80505524547454E805065341564541538050E414D4454524553455444424D4F444080508
310
4E202D20554E444F014213880B4815539113C0504554E444F80504554E444F80504554E444F80504554E444F80504554E444F805065341564541538050E414D4454524553455444424D4F4440805084E202D20554E444F014213880B4815539113C0504554E444F80504554E444F80504554E444F80504554E444F80504554
310
E444F805054C41594552805065341564541538
 94
        0
  0
ACAD_PROXY_OBJECT
  5
330
102
{ACAD_REACTORS
330
C
102
}
330
C
100
AcDbProxyObject
 90
      499
 91
      506
 95
   851991
 70
     0
 93
     1226
310
06000044400000000000000000001846220000000000000000000000000000000000000000000000000000000000000000000000000000000000000000000000000000000000000000000000000000000000000000000000000000000000000000000000000000000000000000000000000000000000000000000000000000
310
00000000000000000000000000000000000000000000AAA406AA86
360
333
360
334
360
335
360
337
360
33E
360
33F
360
340
360
341
360
344
360
345
360
346
360
347
360
348
360
349
360
34A
360
34C
360
34D
360
34E
360
34F
360
350
360
351
360
352
360
353
360
354
360
355
360
356
360
357
360
358
360
359
360
35A
360
35B
360
35C
360
35D
360
35E
360
36B
360
36C
360
36D
360
36E
360
36F
360
370
360
371
360
372
360
373
360
374
360
375
360
376
360
377
360
378
360
379
360
37A
360
37B
360
37C
360
37D
360
37E
360
37F
360
380
360
381
360
382
360
383
360
384
360
385
360
386
360
387
360
388
360
389
360
38A
360
38B
360
38C
360
38D
360
38E
360
38F
360
390
360
391
360
392
360
393
360
394
360
395
360
396
360
397
360
398
360
399
360
39A
360
39B
360
39C
360
39D
360
39E
360
39F
360
3A0
360
3A1
360
3A2
360
3A3
360
3A4
360
3A5
360
3A6
360
3A7
360
3A8
360
3A9
360
3AA
360
3AB
360
3AC
360
3B6
360
3B7
360
3B8
360
3B9
360
3BB
360
3BC
360
3BD
360
3BE
360
3BF
360
3C0
360
3C1
360
3C2
360
3C3
360
3C4
360
3C5
360
3C6
360
3C7
360
3CD
360
3CE
360
3CF
360
3D0
360
3D1
360
3D2
360
3D3
360
3D4
360
3D9
360
3DA
360
3DB
360
3DC
360
3DD
360
3DE
360
3EE
 94
        0
  0
ACAD_PROXY_OBJECT
  5
33B
102
{ACAD_REACTORS
330
C
102
}
330
C
100
AcDbProxyObject
 90
      499
 91
      516
 95
   851991
 70
     0
 93
       50
310
06000041641280
 94
        0
  0
ACAD_PROXY_OBJECT
  5
332
102
{ACAD_REACTORS
330
C
102
}
330
C
100
AcDbProxyObject
 90
      499
 91
      508
 95
   851991
 70
     0
 93
       48
310
90341200000011
330
333
330
334
330
335
 94
        0
  0
ACAD_PROXY_OBJECT
  5
3ED
102
{ACAD_REACTORS
330
C
102
}
330
C
100
AcDbProxyObject
 90
      499
 91
      508
 95
   851991
 70
     0
 93
       32
310
90140A0040
330
3EE
 94
        0
  0
ACAD_PROXY_OBJECT
  5
3C8
102
{ACAD_REACTORS
330
C
102
}
330
C
100
AcDbProxyObject
 90
      499
 91
      544
 95
   851991
 70
     0
 93
       42
310
0006000043C3
330
3B6
 94
        0
  0
ACAD_PROXY_OBJECT
  5
3B1
102
{ACAD_REACTORS
330
C
102
}
330
C
100
AcDbProxyObject
 90
      499
 91
      536
 95
   851991
 70
     0
 93
      114
310
000000438000000000000000000000
 94
        0
  0
ACAD_PROXY_OBJECT
  5
3CA
102
{ACAD_REACTORS
330
C
102
}
330
C
100
AcDbProxyObject
 90
      499
 91
      546
 95
   851991
 70
     0
 93
       34
310
05000044CB
 94
        0
  0
ACAD_PROXY_OBJECT
  5
3BA
102
{ACAD_REACTORS
330
C
102
}
330
C
100
AcDbProxyObject
 90
      499
 91
      508
 95
   851991
 70
     0
 93
      128
310
90D4460000000000000000000000000008
330
3BB
330
3BC
330
3BD
330
3BE
330
3BF
330
3C0
330
3C1
330
3C2
330
3C3
330
3C4
330
3C5
330
3C6
330
3C7
 94
        0
  0
ACAD_PROXY_OBJECT
  5
35F
102
{ACAD_REACTORS
330
C
102
}
330
C
100
AcDbProxyObject
 90
      499
 91
      522
 95
   851991
 70
     0
 93
       42
310
000100005AC3
330
33E
 94
        0
  0
DICTIONARY
  5
326
102
{ACAD_REACTORS
330
C
102
}
330
C
100
AcDbDictionary
281
     1
  3
AcMgSettings
350
327
  3
AMGLAYCFG
350
3F1
  0
ACAD_PROXY_OBJECT
  5
367
102
{ACAD_REACTORS
330
C
102
}
330
C
100
AcDbProxyObject
 90
      499
 91
      528
 95
   851991
 70
     0
 93
       34
310
050000428B
 94
        0
  0
ACAD_PROXY_OBJECT
  5
369
102
{ACAD_REACTORS
330
C
102
}
330
C
100
AcDbProxyObject
 90
      499
 91
      530
 95
   851991
 70
     0
 93
      424
310
585314D60000000000000000000000000000000000000000000000000000000000000000000000000000000000000000000000000000
330
37C
330
37D
330
37E
330
37F
330
380
330
381
330
382
330
383
330
384
330
385
330
386
330
387
330
388
330
389
330
38A
330
38B
330
38C
330
38D
330
38E
330
38F
330
390
330
391
330
392
330
393
330
394
330
395
330
396
330
397
330
398
330
399
330
39A
330
39B
330
39C
330
39D
330
39E
330
39F
330
3A0
330
3A1
330
3A2
330
3A3
330
3A4
330
3A5
330
3A6
330
3A7
330
3A8
330
3A9
330
3AA
330
3AB
330
3AC
 94
        0
  0
ACAD_PROXY_OBJECT
  5
3D5
102
{ACAD_REACTORS
330
C
102
}
330
C
100
AcDbProxyObject
 90
      499
 91
      548
 95
   851991
 70
     0
 93
       74
310
0600004A400000000000
330
3DC
330
0
330
3DD
330
0
330
0
 94
        0
  0
ACAD_PROXY_OBJECT
  5
36A
102
{ACAD_REACTORS
330
C
102
}
330
C
100
AcDbProxyObject
 90
      499
 91
      508
 95
   851991
 70
     0
 93
      168
310
4C511456000000000000000000000000000000000000
330
36B
330
36C
330
36D
330
36E
330
36F
330
370
330
371
330
372
330
373
330
374
330
375
330
376
330
377
330
378
330
379
330
37A
330
37B
 94
        0
  0
ACAD_PROXY_OBJECT
  5
3CC
102
{ACAD_REACTORS
330
C
102
}
330
C
100
AcDbProxyObject
 90
      499
 91
      508
 95
   851991
 70
     0
 93
       88
310
908432000000000000000000
330
3CD
330
3CE
330
3CF
330
3D0
330
3D1
330
3D2
330
3D3
330
3D4
 94
        0
  0
XRECORD
  5
486
102
{ACAD_REACTORS
330
C
102
}
330
C
100
AcDbXrecord
280
     1
  1
DWGPROPS COOKIE
  2

  3

  4

  6

  7

  8

  9

300
AmdtFileType=84
301
=
302
=
303
=
304
=
305
=
306
=
307
=
308
=
309
=
 40
0.0000015046296296
 41
2452549.314975578
 42
2452549.314975578
  1

 90
        1
  0
ACAD_PROXY_OBJECT
  5
3B3
102
{ACAD_REACTORS
330
C
102
}
330
C
100
AcDbProxyObject
 90
      499
 91
      538
 95
   851991
 70
     0
 93
        8
310
0500
 94
        0
  0
ACAD_PROXY_OBJECT
  5
3B2
102
{ACAD_REACTORS
330
C
102
}
330
C
100
AcDbProxyObject
 90
      499
 91
      537
 95
   851991
 70
     0
 93
        8
310
0400
 94
        0
  0
DICTIONARY
  5
440
102
{ACAD_REACTORS
330
43F
102
}
330
43F
100
AcDbDictionary
281
     1
  3
*A1
350
441
  0
LAYOUT
  5
4B1
102
{ACAD_REACTORS
330
317
102
}
330
317
100
AcDbPlotSettings
  1

  2
\\PRINT_SRV\HP LaserJet (Engineering)
  4

  6

 40
0.0
 41
0.0
 42
0.0
 43
0.0
 44
0.0
 45
0.0
 46
0.0
 47
0.0
 48
0.0
 49
0.0
140
0.0
141
0.0
142
1.0
143
1.0
 70
   688
 72
     0
 73
     0
 74
     5
  7
KPT.ctb
 75
    16
147
1.0
148
0.0
149
0.0
100
AcDbLayout
  1
Layout1
 70
     1
 71
     1
 10
0.0
 20
0.0
 11
12.0
 21
9.0
 12
0.0
 22
0.0
 32
0.0
 14
0.0
 24
0.0
 34
0.0
 15
0.0
 25
0.0
 35
0.0
146
0.0
 13
0.0
 23
0.0
 33
0.0
 16
1.0
 26
0.0
 36
0.0
 17
0.0
 27
1.0
 37
0.0
 76
     0
330
4B0
  0
LAYOUT
  5
319
102
{ACAD_REACTORS
330
317
102
}
330
317
100
AcDbPlotSettings
  1

  2
\\PRINT_SRV\HP LaserJet (Engineering)
  4
Letter
  6

 40
6.349999904632567
 41
4.233341693878172
 42
6.349990844726562
 43
4.23333740234375
 44
215.8999938964841
 45
279.3999938964843
 46
0.0
 47
0.0
 48
0.0
 49
0.0
140
0.0
141
0.0
142
1.0
143
73.68551521849855
 70
 11952
 72
     0
 73
     1
 74
     0
  7
KPT.ctb
 75
     0
147
0.0135711882726845
148
3658.355290520464
149
2374.418055633259
100
AcDbLayout
  1
Model
 70
     1
 71
     0
 10
0.0
 20
0.0
 11
12.0
 21
9.0
 12
0.0
 22
0.0
 32
0.0
 14
0.0
 24
0.0
 34
0.0
 15
0.0
 25
0.0
 35
0.0
146
0.0
 13
0.0
 23
0.0
 33
0.0
 16
1.0
 26
0.0
 36
0.0
 17
0.0
 27
1.0
 37
0.0
 76
     0
330
1A
  0
MLINESTYLE
  5
13
102
{ACAD_REACTORS
330
E
102
}
330
E
100
AcDbMlineStyle
  2
STANDARD
 70
     0
  3

 62
     0
 51
90.0
 52
90.0
 71
     2
 49
0.5
 62
   256
  6
BYLAYER
 49
-0.5
 62
   256
  6
BYLAYER
  0
ACDBPLACEHOLDER
  5
316
102
{ACAD_REACTORS
330
315
102
}
330
315
  0
DICTIONARYVAR
  5
320
102
{ACAD_REACTORS
330
31F
102
}
330
31F
100
DictionaryVariables
280
     0
  1
1
  0
DICTIONARYVAR
  5
44A
102
{ACAD_REACTORS
330
31F
102
}
330
31F
100
DictionaryVariables
280
     0
  1
1
  0
ACAD_PROXY_OBJECT
  5
3E1
102
{ACAD_REACTORS
330
3E0
102
}
330
3E0
100
AcDbProxyObject
 90
      499
 91
      555
 95
   851991
 70
     0
 93
      118
310
405010040CA904C415CD5B07571028
350
3E2
 94
        0
  0
DICTIONARY
  5
3EF
102
{ACAD_REACTORS
330
3E0
102
}
330
3E0
100
AcDbDictionary
281
     1
  3
ANSI
350
41F
  3
ISO
350
3F0
  0
ACAD_PROXY_OBJECT
  5
333
330
0
100
AcDbProxyObject
 90
      499
 91
      509
 95
   851991
 70
     0
 93
      156
310
00010143D050D351505391D5531054925390D490
330
330
 94
        0
  0
ACAD_PROXY_OBJECT
  5
334
330
0
100
AcDbProxyObject
 90
      499
 91
      509
 95
   851991
 70
     0
 93
      148
310
000101439050D351531253915054925390D494
330
330
 94
        0
  0
ACAD_PROXY_OBJECT
  5
335
330
0
100
AcDbProxyObject
 90
      499
 91
      510
 95
   851991
 70
     0
 93
      156
310
000101439050D35154D6535093D314D256915080
330
330
 94
        0
  0
ACAD_PROXY_OBJECT
  5
337
330
0
100
AcDbProxyObject
 90
      499
 91
      512
 95
   851991
 70
     0
 93
       88
310
000101411093D34C402B0000
330
330
330
0
330
0
 94
        0
  0
ACAD_PROXY_OBJECT
  5
33E
330
0
100
AcDbProxyObject
 90
      499
 91
      518
 95
   851991
 70
     0
 93
      374
310
0001014119185D1940508362E302E31382E30014119185D1940508362E302E31382E3040501000041505391D311658
330
330
330
33F
330
343
 94
        0
  0
ACAD_PROXY_OBJECT
  5
33F
330
0
100
AcDbProxyObject
 90
      499
 91
      519
 95
   851991
 70
     0
 93
       48
310
000190140A0011
330
330
330
340
 94
        0
  0
ACAD_PROXY_OBJECT
  5
340
330
0
100
AcDbProxyObject
 90
      499
 91
      520
 95
   851991
 70
     0
 93
       48
310
0001AA00000011
330
330
330
0
330
341
330
0
 94
        0
  0
ACAD_PROXY_OBJECT
  5
341
330
0
100
AcDbProxyObject
 90
      499
 91
      521
 95
   851991
 70
     0
 93
       28
310
0001AAA2
330
330
 94
        0
  0
ACAD_PROXY_OBJECT
  5
344
330
0
100
AcDbProxyObject
 90
      499
 91
      510
 95
   851991
 70
     0
 93
      108
310
000101421053521310D05310D016
330
330
 94
        0
  0
ACAD_PROXY_OBJECT
  5
345
330
0
100
AcDbProxyObject
 90
      499
 91
      510
 95
   851991
 70
     0
 93
      124
310
00010142905354915554D15112535010
330
330
 94
        0
  0
ACAD_PROXY_OBJECT
  5
346
330
0
100
AcDbProxyObject
 90
      499
 91
      510
 95
   851991
 70
     0
 93
      132
310
00010143105354D150D51253D391125360
330
330
 94
        0
  0
ACAD_PROXY_OBJECT
  5
347
330
0
100
AcDbProxyObject
 90
      499
 91
      510
 95
   851991
 70
     0
 93
      124
310
00010142905355941093D49111549013
330
330
 94
        0
  0
ACAD_PROXY_OBJECT
  5
348
330
0
100
AcDbProxyObject
 90
      499
 91
      510
 95
   851991
 70
     0
 93
      116
310
0001014290535115D1D0D3D313D4A0
330
330
 94
        0
  0
ACAD_PROXY_OBJECT
  5
349
330
0
100
AcDbProxyObject
 90
      499
 91
      510
 95
   851991
 70
     0
 93
      148
310
00010143505355925155D49151949154D21010
330
330
 94
        0
  0
ACAD_PROXY_OBJECT
  5
34A
330
0
100
AcDbProxyObject
 90
      499
 91
      510
 95
   851991
 70
     0
 93
      172
310
00010144105350539393D51154149154D15495915011
330
330
 94
        0
  0
ACAD_PROXY_OBJECT
  5
34C
330
0
100
AcDbProxyObject
 90
      499
 91
      510
 95
   851991
 70
     0
 93
      172
310
00010144105350555513D11253505494905391D15011
330
330
 94
        0
  0
ACAD_PROXY_OBJECT
  5
34D
330
0
100
AcDbProxyObject
 90
      499
 91
      510
 95
   851991
 70
     0
 93
      124
310
00010142D05351561514915191125364
330
330
 94
        0
  0
ACAD_PROXY_OBJECT
  5
34E
330
0
100
AcDbProxyObject
 90
      499
 91
      510
 95
   851991
 70
     0
 93
      132
310
00010142D05355105410539393D5115010
330
330
 94
        0
  0
ACAD_PROXY_OBJECT
  5
34F
330
0
100
AcDbProxyObject
 90
      499
 91
      510
 95
   851991
 70
     0
 93
      108
310
00010142105350555513D0D31015
330
330
 94
        0
  0
ACAD_PROXY_OBJECT
  5
350
330
0
100
AcDbProxyObject
 90
      499
 91
      510
 95
   851991
 70
     0
 93
      108
310
00010142105350D3119150551055
330
330
 94
        0
  0
ACAD_PROXY_OBJECT
  5
351
330
0
100
AcDbProxyObject
 90
      499
 91
      510
 95
   851991
 70
     0
 93
      108
310
00010142105350D315925155D3F5
330
330
 94
        0
  0
ACAD_PROXY_OBJECT
  5
352
330
0
100
AcDbProxyObject
 90
      499
 91
      510
 95
   851991
 70
     0
 93
      148
310
0001014350535212511156915493D112535011
330
330
 94
        0
  0
ACAD_PROXY_OBJECT
  5
353
330
0
100
AcDbProxyObject
 90
      499
 91
      510
 95
   851991
 70
     0
 93
      124
310
00010142905352105510D21254D3D012
330
330
 94
        0
  0
ACAD_PROXY_OBJECT
  5
354
330
0
100
AcDbProxyObject
 90
      499
 91
      510
 95
   851991
 70
     0
 93
      148
310
00010143905354D25391D31152105513105661
330
330
 94
        0
  0
ACAD_PROXY_OBJECT
  5
355
330
0
100
AcDbProxyObject
 90
      499
 91
      510
 95
   851991
 70
     0
 93
      124
310
00010142D0535115D1D193111254D423
330
330
 94
        0
  0
ACAD_PROXY_OBJECT
  5
356
330
0
100
AcDbProxyObject
 90
      499
 91
      510
 95
   851991
 70
     0
 93
      100
310
00010142105350555513D213A2
330
330
 94
        0
  0
ACAD_PROXY_OBJECT
  5
357
330
0
100
AcDbProxyObject
 90
      499
 91
      510
 95
   851991
 70
     0
 93
      116
310
000101425053521390D3D553951014
330
330
 94
        0
  0
ACAD_PROXY_OBJECT
  5
358
330
0
100
AcDbProxyObject
 90
      499
 91
      510
 95
   851991
 70
     0
 93
      108
310
0001014210535213941493D29010
330
330
 94
        0
  0
ACAD_PROXY_OBJECT
  5
359
330
0
100
AcDbProxyObject
 90
      499
 91
      510
 95
   851991
 70
     0
 93
      108
310
0001014210535213951654115070
330
330
 94
        0
  0
ACAD_PROXY_OBJECT
  5
35A
330
0
100
AcDbProxyObject
 90
      499
 91
      510
 95
   851991
 70
     0
 93
      108
310
000101421053521395925155D0F0
330
330
 94
        0
  0
ACAD_PROXY_OBJECT
  5
35B
330
0
100
AcDbProxyObject
 90
      499
 91
      510
 95
   851991
 70
     0
 93
      140
310
00010143505354D150D51253D390D3D41666
330
330
 94
        0
  0
ACAD_PROXY_OBJECT
  5
35C
330
0
100
AcDbProxyObject
 90
      499
 91
      510
 95
   851991
 70
     0
 93
      108
310
00010142105350D3141493D29030
330
330
 94
        0
  0
ACAD_PROXY_OBJECT
  5
35D
330
0
100
AcDbProxyObject
 90
      499
 91
      509
 95
   851991
 70
     0
 93
      212
310
00010143905350555513D2105510D21493D500000000000002E408
330
330
 94
        0
  0
ACAD_PROXY_OBJECT
  5
35E
330
0
100
AcDbProxyObject
 90
      499
 91
      510
 95
   851991
 70
     0
 93
      156
310
00010143905350555513D2105510D21111551010
330
330
 94
        0
  0
ACAD_PROXY_OBJECT
  5
36B
330
0
100
AcDbProxyObject
 90
      499
 91
      510
 95
   851991
 70
     0
 93
      116
310
000101425053541051D15311539192
330
330
 94
        0
  0
ACAD_PROXY_OBJECT
  5
36C
330
0
100
AcDbProxyObject
 90
      499
 91
      510
 95
   851991
 70
     0
 93
      108
310
000101421053555312539154D051
330
330
 94
        0
  0
ACAD_PROXY_OBJECT
  5
36D
330
0
100
AcDbProxyObject
 90
      499
 91
      510
 95
   851991
 70
     0
 93
      108
310
000101421053559312539154D031
330
330
 94
        0
  0
ACAD_PROXY_OBJECT
  5
36E
330
0
100
AcDbProxyObject
 90
      499
 91
      510
 95
   851991
 70
     0
 93
      140
310
00010143105354D1911254D41353D1115015
330
330
 94
        0
  0
ACAD_PROXY_OBJECT
  5
36F
330
0
100
AcDbProxyObject
 90
      499
 91
      509
 95
   851991
 70
     0
 93
      172
310
00010142505354119255105391C1C052DC9A6F104400
330
330
 94
        0
  0
ACAD_PROXY_OBJECT
  5
370
330
0
100
AcDbProxyObject
 90
      499
 91
      509
 95
   851991
 70
     0
 93
      164
310
000101421053559150D05551C000000000000E03F4
330
330
 94
        0
  0
ACAD_PROXY_OBJECT
  5
371
330
0
100
AcDbProxyObject
 90
      499
 91
      509
 95
   851991
 70
     0
 93
      180
310
00010142905350931153911513D307B14AE47E17A843F0
330
330
 94
        0
  0
ACAD_PROXY_OBJECT
  5
372
330
0
100
AcDbProxyObject
 90
      499
 91
      509
 95
   851991
 70
     0
 93
      172
310
0001014250535293D25391D05407B14AE47E17A843F3
330
330
 94
        0
  0
ACAD_PROXY_OBJECT
  5
373
330
0
100
AcDbProxyObject
 90
      499
 91
      509
 95
   851991
 70
     0
 93
      172
310
000101425053541192551311538000000FC83D797413
330
330
 94
        0
  0
ACAD_PROXY_OBJECT
  5
374
330
0
100
AcDbProxyObject
 90
      499
 91
      509
 95
   851991
 70
     0
 93
      156
310
00010141D053559150D4D18000000000000E03F9
330
330
 94
        0
  0
ACAD_PROXY_OBJECT
  5
375
330
0
100
AcDbProxyObject
 90
      499
 91
      509
 95
   851991
 70
     0
 93
      156
310
00010141D05354D19513D309A9999999999993F9
330
330
 94
        0
  0
ACAD_PROXY_OBJECT
  5
376
330
0
100
AcDbProxyObject
 90
      499
 91
      509
 95
   851991
 70
     0
 93
      172
310
000101425053541192551513D307B14AE47E17A843F3
330
330
 94
        0
  0
ACAD_PROXY_OBJECT
  5
377
330
0
100
AcDbProxyObject
 90
      499
 91
      509
 95
   851991
 70
     0
 93
      188
310
00010142D05354D151D192551513D307B14AE47E17A843F0
330
330
 94
        0
  0
ACAD_PROXY_OBJECT
  5
378
330
0
100
AcDbProxyObject
 90
      499
 91
      509
 95
   851991
 70
     0
 93
      148
310
000101419053541311538000000FC83D797414
330
330
 94
        0
  0
ACAD_PROXY_OBJECT
  5
379
330
0
100
AcDbProxyObject
 90
      499
 91
      509
 95
   851991
 70
     0
 93
      172
310
00010142505354105391D513D301C052DC9A6F104408
330
330
 94
        0
  0
ACAD_PROXY_OBJECT
  5
37A
330
0
100
AcDbProxyObject
 90
      499
 91
      509
 95
   851991
 70
     0
 93
      132
310
0001014114D2569140000000000002440C
330
330
 94
        0
  0
ACAD_PROXY_OBJECT
  5
37B
330
0
100
AcDbProxyObject
 90
      499
 91
      531
 95
   851991
 70
     0
 93
      156
310
00010142905351D4941491519256005034153470
330
330
 94
        0
  0
ACAD_PROXY_OBJECT
  5
37C
330
0
100
AcDbProxyObject
 90
      499
 91
      532
 95
   851991
 70
     0
 93
      314
310
00014080509646973745363616C650000000000003C2FC000000000000F0BF0000003F20F5E5D044
330
330
 94
        0
  0
ACAD_PROXY_OBJECT
  5
37D
330
0
100
AcDbProxyObject
 90
      499
 91
      532
 95
   851991
 70
     0
 93
      322
310
0001408050A65646175526F74617465060B51153EC87E4FC182D4454FB2119C0060B51153EC8465015
330
330
 94
        0
  0
ACAD_PROXY_OBJECT
  5
37E
330
0
100
AcDbProxyObject
 90
      499
 91
      532
 95
   851991
 70
     0
 93
      314
310
00014080509656461755477697374060B51153EC846500000000FC83D797C10000003F20F5E5D050
330
330
 94
        0
  0
ACAD_PROXY_OBJECT
  5
37F
330
0
100
AcDbProxyObject
 90
      499
 91
      533
 95
   851991
 70
     0
 93
      286
310
000140C050A656467654F75747075740144941BDB1E5B1A5B994817D41BDB1E5B1A5B994
330
330
 94
        0
  0
ACAD_PROXY_OBJECT
  5
380
330
0
100
AcDbProxyObject
 90
      499
 91
      534
 95
   851991
 70
     0
 93
      154
310
0001404050B6564697450726576696577406407D
330
330
 94
        0
  0
ACAD_PROXY_OBJECT
  5
381
330
0
100
AcDbProxyObject
 90
      499
 91
      534
 95
   851991
 70
     0
 93
      170
310
0001404050A666C6F77556C696E657342A3A00C00025
330
330
 94
        0
  0
ACAD_PROXY_OBJECT
  5
382
330
0
100
AcDbProxyObject
 90
      499
 91
      534
 95
   851991
 70
     0
 93
      170
310
0001404050A666C6F77566C696E657342A3A00C00025
330
330
 94
        0
  0
ACAD_PROXY_OBJECT
  5
383
330
0
100
AcDbProxyObject
 90
      499
 91
      532
 95
   851991
 70
     0
 93
      322
310
0001408050A666C7366456E645261640000000000003C2FC000000000000F0BF0000003F20F5E5D055
330
330
 94
        0
  0
ACAD_PROXY_OBJECT
  5
384
330
0
100
AcDbProxyObject
 90
      499
 91
      533
 95
   851991
 70
     0
 93
      238
310
000140C05086A6E33644D6F6465014393585B9D585B0817D3585B9D585B0
330
330
 94
        0
  0
ACAD_PROXY_OBJECT
  5
385
330
0
100
AcDbProxyObject
 90
      499
 91
      533
 95
   851991
 70
     0
 93
      286
310
000140C050A6A6E33644F75747075740144941BDB1E5B1A5B994817D41BDB1E5B1A5B997
330
330
 94
        0
  0
ACAD_PROXY_OBJECT
  5
386
330
0
100
AcDbProxyObject
 90
      499
 91
      532
 95
   851991
 70
     0
 93
      306
310
000140805086C656E675065726300000000002016D002D431CEBE2361A3F0000003F20F5E5D065
330
330
 94
        0
  0
ACAD_PROXY_OBJECT
  5
387
330
0
100
AcDbProxyObject
 90
      499
 91
      532
 95
   851991
 70
     0
 93
      266
310
0001408050B6D61737344656E7369747942D431CEBE2361A3F0000003F20F5E5D07F
330
330
 94
        0
  0
ACAD_PROXY_OBJECT
  5
388
330
0
100
AcDbProxyObject
 90
      499
 91
      532
 95
   851991
 70
     0
 93
      186
310
000140805096D617373546869636BA0000003F20F5E5D05A
330
330
 94
        0
  0
ACAD_PROXY_OBJECT
  5
389
330
0
100
AcDbProxyObject
 90
      499
 91
      533
 95
   851991
 70
     0
 93
      222
310
000140C05086D61737354797065014314DA195B1B0817D4DA195B1B0
330
330
 94
        0
  0
ACAD_PROXY_OBJECT
  5
38A
330
0
100
AcDbProxyObject
 90
      499
 91
      532
 95
   851991
 70
     0
 93
      242
310
000140805086F667366446973744000000FC83D797C10000003F20F5E5D075
330
330
 94
        0
  0
ACAD_PROXY_OBJECT
  5
38B
330
0
100
AcDbProxyObject
 90
      499
 91
      532
 95
   851991
 70
     0
 93
      258
310
0001408050A7072696D52616469757342D431CEBE2361A3F0000003F20F5E5D050
330
330
 94
        0
  0
ACAD_PROXY_OBJECT
  5
38C
330
0
100
AcDbProxyObject
 90
      499
 91
      532
 95
   851991
 70
     0
 93
      194
310
0001408050A7072696D546F70526164A0000003F20F5E5D040
330
330
 94
        0
  0
ACAD_PROXY_OBJECT
  5
38D
330
0
100
AcDbProxyObject
 90
      499
 91
      532
 95
   851991
 70
     0
 93
      266
310
0001408050B7072696D5475626552616442D431CEBE2361A3F0000003F20F5E5D07F
330
330
 94
        0
  0
ACAD_PROXY_OBJECT
  5
38E
330
0
100
AcDbProxyObject
 90
      499
 91
      532
 95
   851991
 70
     0
 93
      258
310
0001408050A7072696D4865696768744000000FC83D797C10000003F20F5E5D050
330
330
 94
        0
  0
ACAD_PROXY_OBJECT
  5
38F
330
0
100
AcDbProxyObject
 90
      499
 91
      532
 95
   851991
 70
     0
 93
      250
310
000140805097072696D5374416E678182D4454FB2119C0060B51153EC8465010
330
330
 94
        0
  0
ACAD_PROXY_OBJECT
  5
390
330
0
100
AcDbProxyObject
 90
      499
 91
      532
 95
   851991
 70
     0
 93
      322
310
0001408050A7072696D456E64416E67060B51153EC846500182D4454FB2119C0060B51153EC8465015
330
330
 94
        0
  0
ACAD_PROXY_OBJECT
  5
391
330
0
100
AcDbProxyObject
 90
      499
 91
      532
 95
   851991
 70
     0
 93
      242
310
000140805087265765374416E678182D4454FB2119C0060B51153EC8465019
330
330
 94
        0
  0
ACAD_PROXY_OBJECT
  5
392
330
0
100
AcDbProxyObject
 90
      499
 91
      532
 95
   851991
 70
     0
 93
      314
310
00014080509726576456E64416E67060B51153EC846500182D4454FB2119C0060B51153EC8465010
330
330
 94
        0
  0
ACAD_PROXY_OBJECT
  5
393
330
0
100
AcDbProxyObject
 90
      499
 91
      534
 95
   851991
 70
     0
 93
      194
310
0001404050C7266736655706174636865734290139C0C0002D
330
330
 94
        0
  0
ACAD_PROXY_OBJECT
  5
394
330
0
100
AcDbProxyObject
 90
      499
 91
      534
 95
   851991
 70
     0
 93
      194
310
0001404050C7266736656706174636865734290139C0C0002D
330
330
 94
        0
  0
ACAD_PROXY_OBJECT
  5
395
330
0
100
AcDbProxyObject
 90
      499
 91
      533
 95
   851991
 70
     0
 93
      238
310
000140C0508747562654D6F6465014393585B9D585B0817D3585B9D585B1
330
330
 94
        0
  0
ACAD_PROXY_OBJECT
  5
396
330
0
100
AcDbProxyObject
 90
      499
 91
      532
 95
   851991
 70
     0
 93
      274
310
0001408050C747562654469616D6574657242D431CEBE2361A3F0000003F20F5E5D055
330
330
 94
        0
  0
ACAD_PROXY_OBJECT
  5
397
330
0
100
AcDbProxyObject
 90
      499
 91
      534
 95
   851991
 70
     0
 93
      130
310
00014040509696E746572506F6C79A4057
330
330
 94
        0
  0
ACAD_PROXY_OBJECT
  5
398
330
0
100
AcDbProxyObject
 90
      499
 91
      534
 95
   851991
 70
     0
 93
      162
310
0001404050D696E746572417567506F696E74A405C
330
330
 94
        0
  0
ACAD_PROXY_OBJECT
  5
399
330
0
100
AcDbProxyObject
 90
      499
 91
      533
 95
   851991
 70
     0
 93
      214
310
000140C0509696E7465727472696D0142909BDD1A0817D09BDD1A0
330
330
 94
        0
  0
ACAD_PROXY_OBJECT
  5
39A
330
0
100
AcDbProxyObject
 90
      499
 91
      533
 95
   851991
 70
     0
 93
      214
310
000140C0509696E746572747970650142951C9A5B4817D51C9A5B4
330
330
 94
        0
  0
ACAD_PROXY_OBJECT
  5
39B
330
0
100
AcDbProxyObject
 90
      499
 91
      534
 95
   851991
 70
     0
 93
      146
310
0001404050A636F726E65727472696D4064049
330
330
 94
        0
  0
ACAD_PROXY_OBJECT
  5
39C
330
0
100
AcDbProxyObject
 90
      499
 91
      534
 95
   851991
 70
     0
 93
      130
310
000140405086F6673666B6565704064046
330
330
 94
        0
  0
ACAD_PROXY_OBJECT
  5
39D
330
0
100
AcDbProxyObject
 90
      499
 91
      534
 95
   851991
 70
     0
 93
      146
310
0001404050A70726F6A4F757470757440A40C9
330
330
 94
        0
  0
ACAD_PROXY_OBJECT
  5
39E
330
0
100
AcDbProxyObject
 90
      499
 91
      533
 95
   851991
 70
     0
 93
      246
310
000140C050D70726F6A446972656374696F6E01429D92595DC817DD92595DC
330
330
 94
        0
  0
ACAD_PROXY_OBJECT
  5
39F
330
0
100
AcDbProxyObject
 90
      499
 91
      534
 95
   851991
 70
     0
 93
      130
310
0001404050870726F6A4B6565704064056
330
330
 94
        0
  0
ACAD_PROXY_OBJECT
  5
3A0
330
0
100
AcDbProxyObject
 90
      499
 91
      533
 95
   851991
 70
     0
 93
      278
310
000140C050B70726F6A53706163696E67014413DC1D1A5B585B0817D3DC1D1A5B585B1
330
330
 94
        0
  0
ACAD_PROXY_OBJECT
  5
3A1
330
0
100
AcDbProxyObject
 90
      499
 91
      532
 95
   851991
 70
     0
 93
      250
310
0001408050970726F6A54617065728182D4454FB21F9BF060B51153EC87E4FE5
330
330
 94
        0
  0
ACAD_PROXY_OBJECT
  5
3A2
330
0
100
AcDbProxyObject
 90
      499
 91
      534
 95
   851991
 70
     0
 93
      130
310
00014040508647261674B656570406406D
330
330
 94
        0
  0
ACAD_PROXY_OBJECT
  5
3A3
330
0
100
AcDbProxyObject
 90
      499
 91
      533
 95
   851991
 70
     0
 93
      294
310
000140C050F647261674F7269656E746174696F6E0143939BDC9B585B0817D39BDC9B585B0
330
330
 94
        0
  0
ACAD_PROXY_OBJECT
  5
3A4
330
0
100
AcDbProxyObject
 90
      499
 91
      533
 95
   851991
 70
     0
 93
      270
310
000140C050E647261675472616E736974696F6E01431CD0D85B194817DCD0D85B195
330
330
 94
        0
  0
ACAD_PROXY_OBJECT
  5
3A5
330
0
100
AcDbProxyObject
 90
      499
 91
      533
 95
   851991
 70
     0
 93
      302
310
000140C051061646A757374436F6E74696E75697479014394DB5BDBDD1A0817D4DB5BDBDD1A2
330
330
 94
        0
  0
ACAD_PROXY_OBJECT
  5
3A6
330
0
100
AcDbProxyObject
 90
      499
 91
      534
 95
   851991
 70
     0
 93
      138
310
0001404050A61646A7573744B656570A4067
330
330
 94
        0
  0
ACAD_PROXY_OBJECT
  5
3A7
330
0
100
AcDbProxyObject
 90
      499
 91
      532
 95
   851991
 70
     0
 93
      250
310
0001408050972756C65576964746842D431CEBE2361A3F0000003F20F5E5D07D
330
330
 94
        0
  0
ACAD_PROXY_OBJECT
  5
3A8
330
0
100
AcDbProxyObject
 90
      499
 91
      532
 95
   851991
 70
     0
 93
      274
310
0001408050C616E616C797A65447261667421D139D28615ED8FE060B51153EC842503D
330
330
 94
        0
  0
ACAD_PROXY_OBJECT
  5
3A9
330
0
100
AcDbProxyObject
 90
      499
 91
      534
 95
   851991
 70
     0
 93
      210
310
0001404050F616E616C797A654E756D4C696E65734163FDFC00006
330
330
 94
        0
  0
ACAD_PROXY_OBJECT
  5
3AA
330
0
100
AcDbProxyObject
 90
      499
 91
      534
 95
   851991
 70
     0
 93
      202
310
00014040512616E616C797A65526F746174654C696E6573A4040
330
330
 94
        0
  0
ACAD_PROXY_OBJECT
  5
3AB
330
0
100
AcDbProxyObject
 90
      499
 91
      534
 95
   851991
 70
     0
 93
      210
310
00014040513616E616C797A65446973706C61794C696E6573A4046
330
330
 94
        0
  0
ACAD_PROXY_OBJECT
  5
3AC
330
0
100
AcDbProxyObject
 90
      499
 91
      534
 95
   851991
 70
     0
 93
      258
310
00014040519616E616C797A655472616E736C7563656E7453757266616365A4042
330
330
 94
        0
  0
ACAD_PROXY_OBJECT
  5
3B6
330
0
100
AcDbProxyObject
 90
      499
 91
      540
 95
   851991
 70
     0
 93
      714
310
0001000000009AA6A9AA4051E547565204F63742030312031323A33333A3334203230303220285554432901420D8B8C0B8C4E0B8D00518547565204F63742030312030373A33343A3030203230303201420D8B8C0B8C4E0B8D00
330
330
330
3B7
330
3B8
330
3BA
330
0
 94
        0
  0
ACAD_PROXY_OBJECT
  5
3B7
330
0
100
AcDbProxyObject
 90
      499
 91
      541
 95
   851991
 70
     0
 93
       70
310
0001AAA80820000001
330
330
330
3B7
330
3B7
 94
        0
  0
ACAD_PROXY_OBJECT
  5
3B8
330
0
100
AcDbProxyObject
 90
      499
 91
      542
 95
   851991
 70
     0
 93
       48
310
00010000000011
330
330
330
0
330
3B9
330
0
330
0
 94
        0
  0
ACAD_PROXY_OBJECT
  5
3B9
330
0
100
AcDbProxyObject
 90
      499
 91
      543
 95
   851991
 70
     0
 93
       40
310
000100AAAA00
330
330
330
0
 94
        0
  0
ACAD_PROXY_OBJECT
  5
3BB
330
0
100
AcDbProxyObject
 90
      499
 91
      510
 95
   851991
 70
     0
 93
      124
310
00010142905350D3D39114D414D69050
330
330
 94
        0
  0
ACAD_PROXY_OBJECT
  5
3BC
330
0
100
AcDbProxyObject
 90
      499
 91
      510
 95
   851991
 70
     0
 93
      124
310
000101429053549553115353D1115010
330
330
 94
        0
  0
ACAD_PROXY_OBJECT
  5
3BD
330
0
100
AcDbProxyObject
 90
      499
 91
      510
 95
   851991
 70
     0
 93
      108
310
00010142105354D2D353D1115011
330
330
 94
        0
  0
ACAD_PROXY_OBJECT
  5
3BE
330
0
100
AcDbProxyObject
 90
      499
 91
      510
 95
   851991
 70
     0
 93
      140
310
000101435053511253511254D41353D11160
330
330
 94
        0
  0
ACAD_PROXY_OBJECT
  5
3BF
330
0
100
AcDbProxyObject
 90
      499
 91
      509
 95
   851991
 70
     0
 93
      180
310
00010142905354D2D05391D513D3000000000000010400
330
330
 94
        0
  0
ACAD_PROXY_OBJECT
  5
3C0
330
0
100
AcDbProxyObject
 90
      499
 91
      531
 95
   851991
 70
     0
 93
      164
310
00010142505354D2D4D516531140505434F4E542A1
330
330
 94
        0
  0
ACAD_PROXY_OBJECT
  5
3C1
330
0
100
AcDbProxyObject
 90
      499
 91
      510
 95
   851991
 70
     0
 93
      108
310
00010142105350D3511112535010
330
330
 94
        0
  0
ACAD_PROXY_OBJECT
  5
3C2
330
0
100
AcDbProxyObject
 90
      499
 91
      510
 95
   851991
 70
     0
 93
      108
310
00010142105350D3D35414D59010
330
330
 94
        0
  0
ACAD_PROXY_OBJECT
  5
3C3
330
0
100
AcDbProxyObject
 90
      499
 91
      531
 95
   851991
 70
     0
 93
      164
310
0001014290535410549514D4119600504504152541
330
330
 94
        0
  0
ACAD_PROXY_OBJECT
  5
3C4
330
0
100
AcDbProxyObject
 90
      499
 91
      531
 95
   851991
 70
     0
 93
      220
310
0001014350535513D3D31093D11654119600508544F4F4C424F44593
330
330
 94
        0
  0
ACAD_PROXY_OBJECT
  5
3C5
330
0
100
AcDbProxyObject
 90
      499
 91
      510
 95
   851991
 70
     0
 93
      116
310
000101425053511254D410D3D39014
330
330
 94
        0
  0
ACAD_PROXY_OBJECT
  5
3C6
330
0
100
AcDbProxyObject
 90
      499
 91
      510
 95
   851991
 70
     0
 93
      108
310
00010142105350D3D39114D41010
330
330
 94
        0
  0
ACAD_PROXY_OBJECT
  5
3C7
330
0
100
AcDbProxyObject
 90
      499
 91
      510
 95
   851991
 70
     0
 93
      124
310
0001014290535490511114D414D69191
330
330
 94
        0
  0
ACAD_PROXY_OBJECT
  5
3CD
330
0
100
AcDbProxyObject
 90
      499
 91
      510
 95
   851991
 70
     0
 93
      132
310
00010142D05050555513D4D3D315915016
330
330
 94
        0
  0
ACAD_PROXY_OBJECT
  5
3CE
330
0
100
AcDbProxyObject
 90
      499
 91
      510
 95
   851991
 70
     0
 93
      156
310
00010143905050555513D054D4D1535093115015
330
330
 94
        0
  0
ACAD_PROXY_OBJECT
  5
3CF
330
0
100
AcDbProxyObject
 90
      499
 91
      510
 95
   851991
 70
     0
 93
      148
310
00010143505055925155D49154D513D4915010
330
330
 94
        0
  0
ACAD_PROXY_OBJECT
  5
3D0
330
0
100
AcDbProxyObject
 90
      499
 91
      510
 95
   851991
 70
     0
 93
      124
310
00010142D050525394D15495105094E4
330
330
 94
        0
  0
ACAD_PROXY_OBJECT
  5
3D1
330
0
100
AcDbProxyObject
 90
      499
 91
      510
 95
   851991
 70
     0
 93
      148
310
00010143505054D0D153915554111055115010
330
330
 94
        0
  0
ACAD_PROXY_OBJECT
  5
3D2
330
0
100
AcDbProxyObject
 90
      499
 91
      531
 95
   851991
 70
     0
 93
      172
310
00010143105054D5509054D4D3541196005035355424
330
330
 94
        0
  0
ACAD_PROXY_OBJECT
  5
3D3
330
0
100
AcDbProxyObject
 90
      499
 91
      531
 95
   851991
 70
     0
 93
      172
310
00010142905054D0D15391541196005055343454E454
330
330
 94
        0
  0
ACAD_PROXY_OBJECT
  5
3D4
330
0
100
AcDbProxyObject
 90
      499
 91
      510
 95
   851991
 70
     0
 93
      148
310
00010143505350555513D313D0D2D4D0D39014
330
330
 94
        0
  0
ACAD_PROXY_OBJECT
  5
3D9
330
0
100
AcDbProxyObject
 90
      499
 91
      549
 95
   851991
 70
     0
 93
       32
310
0001000000
330
330
340
3D6
330
3DB
330
3D6
 94
        0
  0
ACAD_PROXY_OBJECT
  5
3DA
330
0
100
AcDbProxyObject
 90
      499
 91
      550
 95
   851991
 70
     0
 93
       18
310
0001B8
330
330
 94
        0
  0
ACAD_PROXY_OBJECT
  5
3DB
330
0
100
AcDbProxyObject
 90
      499
 91
      551
 95
   851991
 70
     0
 93
      143
310
0001014251149055D25391CC4C5050055400
330
330
330
3D9
330
3DA
 94
        0
  0
ACAD_PROXY_OBJECT
  5
3DC
330
0
100
AcDbProxyObject
 90
      499
 91
      552
 95
   851991
 70
     0
 93
       40
310
000100AAAA00
330
330
330
3DB
 94
        0
  0
ACAD_PROXY_OBJECT
  5
3DD
330
0
100
AcDbProxyObject
 90
      499
 91
      553
 95
   851991
 70
     0
 93
      108
310
000190140A000000000000AAAAA5
330
330
330
3DE
330
3DE
330
3DE
330
3DE
330
3DE
330
0
 94
        0
  0
ACAD_PROXY_OBJECT
  5
3DE
330
0
100
AcDbProxyObject
 90
      499
 91
      554
 95
   851991
 70
     0
 93
       51
310
00010000AAAA88
330
330
330
3DD
330
3DB
 94
        0
  0
ACAD_PROXY_OBJECT
  5
3EE
330
0
100
AcDbProxyObject
 90
      499
 91
      531
 95
   851991
 70
     0
 93
      148
310
00010142105350D55494D51100504414E53495
330
330
 94
        0
  0
DICTIONARY
  5
327
102
{ACAD_REACTORS
330
326
102
}
330
326
100
AcDbDictionary
281
     1
  3
DWGSETTINGS
350
328
  3
FEM
350
43E
  3
Shaft
350
41E
  3
TRANSSETTINGS
350
32C
  0
ACAD_PROXY_OBJECT
  5
3F1
102
{ACAD_REACTORS
330
326
102
}
330
326
100
AcDbProxyObject
 90
      499
 91
      563
 95
   851991
 70
     0
 93
    12922
310
41103491013041105357CC10747A404C504414D5F314391E9013241105357CC90547A404CD04414D5F334190F9013441105357CD10343E404D504414D5F3540D0F9013641105357CD90247A404DD04414D5F374110F9013841105357CE10143E404E504414D5F397F641102324141505357CC4C10747A408D10505414D5F31
310
3140D0F902495041505357CC4C90747902408C13905414D5F304E41D1E902314E41505357CC5390E47A408C93905414D5F324E4151E902334E41505357CCD390643E408D13905414D5F344E40D0F902354E41505357CD5390343E408D93905414D5F364E4091E902374E41505357CDD390443E408E13905414D5F384E4050F
310
902394E41505357CE539FD90440CC9053906414D5F31304E41D1E90334414E41905357CC4C5390343E40D25413906414D5F31324E41D1E409044B4C494E41505357D0D310143D094112539193D08414D5F50415245464110F42D055241484D3541905357D093D4907479094115925155D08414D5F56494557534050F42D064
310
24548494E4441905357D253959FD90D415514905253105414D5F545240D0F4250348494441905357D2125110743D0940D59254D06414D5F56495341D1E4250650415244494D42505357D4105491125350343D0941949151911253509414D5F52454644494D4110F42553411092139590139CFFFFFFFF415092139594D06424
310
548494E44CFFFFFFFF411093D48C9055241484D354050F411093D48CD055241484D354091E411093D48D5055241484D35CFFFFFFFF4110D0530C90134CFFFFFFFF4110D0530CD01344091E4110D0530D5013441D1E4110D0530DD01344793C4110D1539390137CFFFFFFFF4110D15395D0137CFFFFFFFF4110D312539044B4
310
C494ECFFFFFFFF4110D3D38C50130CFFFFFFFF4110D3D38C90131CFFFFFFFF4110D3D38CD0132CFFFFFFFF4110D3D38D10132CFFFFFFFF411111551050134CFFFFFFFF4111125051D0135CFFFFFFFF411112531250135CFFFFFFFF411112535410650415244494DCFFFFFFFF411112535490652454644494DCFFFFFFFF4111
310
91535390138CFFFFFFFF4151915354139013840CFFFFFFFF4151915354D41023441CFFFFFFFF4151915354D5102344140D0F41519153559390132CFFFFFFFF4151915355951013240D0F4112105510D0138CFFFFFFFF411212511390133CFFFFFFFF4112125115D0133CFFFFFFFF411213125390134CFFFFFFFF411213D0D3
310
90137CFFFFFFFF411213D0D5D0137CFFFFFFFF4112539193D04494E464FCFFFFFFFF411311505110135CFFFFFFFF419397D0921395902394ECFFFFFFFF419397D0D3D38C502304ECFFFFFFFF419397D0D3D38C902314ECFFFFFFFF419397D0D3D38CD02324ECFFFFFFFF419397D0D3D38D102324ECFFFFFFFF419397D0D153
310
93902374ECFFFFFFFF419397D0D15395D02374ECFFFFFFFF419397D1125312502354ECFFFFFFFF419397D2105510D02384ECFFFFFFFF419397D2125113902334ECFFFFFFFF419397D2125115D02334ECFFFFFFFF419397D3115051102354ECFFFFFFFF419397D391D25410349504ECFFFFFFFF419397D412105390334414EC
310
FFFFFFFF419397D510D3D3902304ECFFFFFFFF419397D5121312502344ECFFFFFFFF419397D5131153902304ECFFFFFFFF419397D594131250332414ECFFFFFFFF411391D2541024950CFFFFFFFF411410530C9055241484D354050F411410530CD055241484D354091E411410530D5055241484D35CFFFFFFFF4114121053
310
9023441CFFFFFFFF411413D4D390135CFFFFFFFF411490D1D390137CFFFFFFFF411490D1D5D0137CFFFFFFFF4114D09492D013441D1E4114D150D510134CFFFFFFFF4114D6508CD01354091E411354D653501354091E411510D3D390130CFFFFFFFF411512131250134CFFFFFFFF411512550C9055241484D354050F411512
310
550CD055241484D354091E411512550D5055241484D35CFFFFFFFF411513115390130CFFFFFFFF415514905253105545241494CCFFFFFFFF411514931250134CFFFFFFFF411516150C5013640D0F411516150C9013640D0F411516150CD0136CFFFFFFFF411516150D5013641D1E411516150DD01364793C4115925155D045
310
6494557CFFFFFFFF4115915112103484944CFFFFFFFF4115915115903564953CFFFFFFFF41159413125023241CFFFFFFFF411692569050134CFFFFFFFFAA9FD404FE4290E479074790643D054790443D0343D024790143D1E4F1FD80
340
16
340
16
340
16
340
28
340
16
340
16
340
16
340
C5
340
16
340
16
340
C5
340
34B
340
16
340
16
340
16
340
16
340
28
340
16
340
16
340
16
340
C5
340
16
340
16
340
C5
340
34B
340
16
340
3F5
340
16
340
16
340
16
340
16
340
16
340
28
340
16
340
16
340
16
340
15
340
15
340
15
340
15
340
15
340
15
340
15
340
15
340
15
340
439
340
15
340
15
340
15
340
15
340
15
340
15
340
15
340
15
340
15
340
15
340
15
340
15
340
15
340
16
340
15
340
15
340
15
340
15
340
43A
340
15
340
15
340
439
340
15
340
15
340
15
340
15
340
15
340
15
340
15
340
15
340
439
340
15
340
15
340
15
340
43A
340
15
340
15
340
15
340
15
340
15
340
43A
340
15
340
34B
340
15
340
15
340
15
340
15
340
15
340
15
340
439
340
15
340
15
340
15
340
15
340
15
340
15
340
43A
340
15
340
15
340
15
340
15
340
15
340
15
340
15
340
15
340
15
340
15
340
15
340
15
340
15
340
15
340
34B
340
43B
 94
        0
  0
LAYER_INDEX
  5
441
102
{ACAD_REACTORS
330
440
102
}
330
440
100
AcDbIndex
 40
2452852.567800833
100
AcDbLayerIndex
  8
0
360
442
 90
        0
  8
LINE
360
5A6
 90
      161
  8
HIDDEN
360
5A7
 90
       39
  8
DIM
360
5A8
 90
        4
  8
CTRL
360
5AB
 90
        1
  8
Defpoints
360
7FF
 90
        0
  0
ACAD_PROXY_OBJECT
  5
3E2
102
{ACAD_REACTORS
330
3E1
102
}
330
3E1
100
AcDbProxyObject
 90
      499
 91
      556
 95
   851991
 70
     0
 93
      219
310
057356C1D5C406406AA8FFFFFFFF0AE50944524157494E4731314051
330
1A
330
0
330
3DB
 94
        0
  0
ACAD_PROXY_OBJECT
  5
41F
102
{ACAD_REACTORS
330
3EF
102
}
330
3EF
100
AcDbProxyObject
 90
      499
 91
      580
 95
   851991
 70
     0
 93
     2275
310
5700000000000000840D04414E5349405901409020000000000000210322087A1C82C6DAA6EAE4CCA8CAF0E8A6E8C88120284A0B1B6A321A329BA3220480A1A82C6DAAECAD8C8D2DCCEA6E8C8812028420B1B6A4B229BA3220480A1682C6DA88C2E8EADAA6E8C88120284A0B1B6A127A6A9BA3220480A2082DAC8E888CAE8C
310
2D2D8A6F2DAA6E8C88120288A0B6B23A29B2B1BA34B7B729BCB6A9BA3220480A2282DAC8E886CADCE8CAE498D2DCCAA6E8C88120288A0B6B23A2A343932B0B22634B732A9BA3220480A1682DAC8E89CDEE8CAA6E8C88120285A0B1A0B6B3A630BCA9BA3220480A1682C682DACE88D2DAA6E8C88120288A0B1A0B6B3A437B63
310
2A1B430B93A29BA3220480A1A82C682DACEA8D2E8D8CAA6E8C88120280A04E
340
420
360
421
360
422
360
423
360
424
360
425
360
426
360
427
360
428
360
429
360
42A
360
42B
360
42F
360
430
360
437
360
438
 94
        0
  0
ACAD_PROXY_OBJECT
  5
3F0
102
{ACAD_REACTORS
330
3EF
102
}
330
3EF
100
AcDbProxyObject
 90
      499
 91
      562
 95
   851991
 70
     0
 93
     2377
310
5700000000000000C40D0349534F40590140902000000000000031032228821682DAC8E88AC8CECAA6E8C8812028720B1B6A9BAB9332A32BC3A29BA3220480A1282C6DA8C868CA6E8C88120286A0B1B6ABB2B63234B733A9BA3220480A1082C6DA92C8A6E8C88120285A0B1B6A230BA3AB6A9BA3220480A1282C6DA849E9AA
310
6E8C8812028820B6B23A2232BA30B4B629BCB6A9BA3220480A2282DAC8E8A6CAC6E8D2DEDCA6F2DAA6E8C88120288A0B6B23A21B2B73A32B92634B732A9BA3220480A2282DAC8E8A8D0E4CAC2C898D2DCCAA6E8C88120285A0B6B23A2737BA32A9BA3220480A1682C682DACE98C2F2A6E8C88120285A0B1A0B6B3A234B6A9B
310
A3220480A2282C682DACE90DED8CA86D0C2E4E8A6E8C88120286A0B1A0B6B3AA34BA3632A9BA3220480C8154
340
3FB
360
3FC
360
3FD
360
3FE
360
3FF
360
400
360
401
360
402
360
403
360
404
360
405
360
406
360
407
360
40D
360
40E
360
41A
360
41B
 94
        0
  0
ACAD_PROXY_OBJECT
  5
328
102
{ACAD_REACTORS
330
327
102
}
330
327
100
AcDbProxyObject
 90
      499
 91
      505
 95
   851991
 70
     0
 93
     2396
310
4050B44574753455454494E4753A1286829C8E82A4A482B282A106660F8686AF86C608321A2A720A723A0A849A1ABE1C983E18999AA0C868A9C889282940000000000000488083A1A2A72224A0A9A0A8418983E19183E199820E868A9C8892A6A894000000000000010808321A2A72622A7250000000000000122020C868A9
310
C9E8C8C940000000000000488084A1A624A720A92920ACA0A8418983E19183E19982108698929C8AA8B2A082A0AB098929C8A84A22BA3AAA9A1A0A622A50A0E9882A6A89E849482A02608426A0A5A2AB24A2ABA7E8120CA0A68682988A0C00800010652455649534941501304154D0D0531150540CC4E8C50954494D455354
310
414D504A040602C91F017734141D5915494D253D3905414C4D4B8C0C1107B44574753455454494E4753454E447D0
 94
        0
  0
ACAD_PROXY_OBJECT
  5
43E
102
{ACAD_REACTORS
330
327
102
}
330
327
100
AcDbProxyObject
 90
      499
 91
      505
 95
   851991
 70
     0
 93
      411
310
4050346454D21092DCC6E486DECACC942842630BCA3B937BAB820A8320A6AFA322A0A20F688AE8EA68AA8A8929C8EA68A9C88FB9
 94
        0
  0
ACAD_PROXY_OBJECT
  5
41E
102
{ACAD_REACTORS
330
327
102
}
330
327
100
AcDbProxyObject
 90
      499
 91
      505
 95
   851991
 70
     0
 93
      513
310
40505536861667421292DCE8CAE4E4EAE0E89FC84A634B3B43A2634B732A7F21A98D2CED0E898D2DCCAACD2CAEE9FC883DA22BA3A9A2AA2A24A723A9A2A7223E80
 94
        0
  0
ACAD_PROXY_OBJECT
  5
32C
102
{ACAD_REACTORS
330
327
102
}
330
327
100
AcDbProxyObject
 90
      499
 91
      505
 95
   851991
 70
     0
 93
      852
310
4050D5452414E5353455454494E4753A2488A482AE929C8EA8A4829CA69882A8929E9C0C00800050D4F524947494E414C4C595F4F4E0600400028529A7AAA921A2A620A723A0A81A2A72AA12AAA0A48AA68AA4AC8A0C0080001107B44574753455454494E4753454E447D8
 94
        0
  0
IDBUFFER
  5
442
330
0
100
AcDbIdBuffer
  0
IDBUFFER
  5
5A6
330
0
100
AcDbIdBuffer
330
6A9
330
6AA
330
6AC
330
6AD
330
6BC
330
6BD
330
6BE
330
6C0
330
6C1
330
6C2
330
6C3
330
6C8
330
6C9
330
6CC
330
6CD
330
6CE
330
6CF
330
6D0
330
6D1
330
6D2
330
6D3
330
6D4
330
6D5
330
6D6
330
6D7
330
6D8
330
6D9
330
6DA
330
6DB
330
6DC
330
6E6
330
6E7
330
6F1
330
6F2
330
6F3
330
6F4
330
6F5
330
6F6
330
6F7
330
6F8
330
6F9
330
6FA
330
6FB
330
6FC
330
6FD
330
6FE
330
6FF
330
700
330
701
330
A6A
330
A6B
330
A6C
330
A6D
330
A6E
330
A6F
330
A70
330
A71
330
A72
330
A73
330
A74
330
A75
330
A76
330
A77
330
A78
330
A79
330
A7A
330
A7B
330
A7C
330
A7D
330
A7E
330
A7F
330
A80
330
A81
330
A82
330
A83
330
A84
330
A85
330
A86
330
A87
330
A88
330
A89
330
A8A
330
A8B
330
A8C
330
A8D
330
A8E
330
A8F
330
A90
330
A91
330
A92
330
A93
330
A94
330
A95
330
A96
330
A97
330
A98
330
A99
330
A9A
330
A9B
330
A9C
330
A9D
330
A9E
330
A9F
330
AA0
330
AA1
330
AA2
330
AA3
330
AA4
330
AA5
330
AA6
330
AA7
330
AA8
330
AA9
330
AAA
330
AAB
330
AAC
330
AAD
330
AAE
330
AAF
330
AB0
330
AB1
330
AB2
330
AB3
330
AB4
330
AB5
330
AB6
330
AB7
330
AB8
330
AB9
330
ABA
330
ABB
330
ABC
330
ABD
330
ABE
330
ABF
330
AC0
330
AC1
330
AC2
330
AC3
330
AC4
330
AC5
330
AC6
330
AC7
330
AC8
330
AC9
330
ACA
330
ACB
330
ACC
330
ACD
330
ACE
330
ACF
330
AD0
330
AD1
330
AD2
330
AD3
330
AD4
330
AD5
330
AD6
330
AD7
330
AD8
330
AD9
  0
IDBUFFER
  5
5A7
330
0
100
AcDbIdBuffer
330
6AE
330
6AF
330
6B0
330
6B1
330
6B2
330
6B3
330
6B4
330
6B5
330
6B6
330
6B7
330
6B8
330
6B9
330
6BA
330
6BB
330
6BF
330
6C4
330
6C5
330
6C6
330
6C7
330
6CA
330
6CB
330
6DD
330
6DE
330
6DF
330
6E0
330
6E1
330
6E2
330
6E3
330
6E4
330
6E5
330
6E8
330
6E9
330
6EA
330
6EB
330
6EC
330
6ED
330
6EE
330
6EF
330
6F0
  0
IDBUFFER
  5
5A8
330
0
100
AcDbIdBuffer
330
712
330
79D
330
7AA
330
8A6
  0
IDBUFFER
  5
5AB
330
0
100
AcDbIdBuffer
330
6AB
  0
IDBUFFER
  5
7FF
330
0
100
AcDbIdBuffer
  0
ACAD_PROXY_OBJECT
  5
421
330
41F
100
AcDbProxyObject
 90
      499
 91
      581
 95
   851991
 70
     0
 93
       96
310
57020E80A0280A0280A0280816
 94
        0
  0
ACAD_PROXY_OBJECT
  5
422
330
41F
100
AcDbProxyObject
 90
      499
 91
      582
 95
   851991
 70
     0
 93
      332
310
5710E4050140501405014050140501405014050142501405014050140501405012000000000000000405
340
42C
 94
        0
  0
ACAD_PROXY_OBJECT
  5
423
330
41F
100
AcDbProxyObject
 90
      499
 91
      583
 95
   851991
 70
     0
 93
      402
310
570C199999999999E99F91F4050140501405014050140501405014050140501405014050140501405014050140501405014055
340
0
 94
        0
  0
ACAD_PROXY_OBJECT
  5
424
330
41F
100
AcDbProxyObject
 90
      499
 91
      584
 95
   851991
 70
     0
 93
       10
310
5703
 94
        0
  0
ACAD_PROXY_OBJECT
  5
425
330
41F
100
AcDbProxyObject
 90
      499
 91
      585
 95
   851991
 70
     0
 93
      223
310
572290EA22A7D90F49F8000000000000108140000000000000420205
340
43C
340
43D
 94
        0
  0
ACAD_PROXY_OBJECT
  5
426
330
41F
100
AcDbProxyObject
 90
      499
 91
      586
 95
   851991
 70
     0
 93
    12959
310
5710E4112551153501411255115350140501406901000000000000091013347454E545241434F2C454E552C302C4954454D2C47454E54524154582C25732C2847454E4D53472067656E647767203232322940690120281A8AA2CA0281A8AA2CA028120280A0320200000000000012202648E8A9CA8A482869E588A9CAA5860
310
58A2A8B2588E8A9CA8A482A8B0584AE658508E8A9C9AA68E40CECADCC8EECE406464665280D202405044E414D45405044E414D454051C40640A80000000000004E404CD1D15395149050D3CB1153954B0C0B139053514B11D15395149055160B095CCB0A11D1539354D1C819D95B991DD9C80C8C8D8A50190A3D504152543A
310
4E414D4540480A0A888AA686A480A16888AA686A492A0A8929E9C80A3A80C81D0000000000100A2809D23A2A72A2920A1A79622A72A9618162222A9A1A924A82A24A7A71623A2A72A2920AA2C1612B9961423A2A726A9A39033B2B7323BB39019189B94A024809014214D51053911054911014214D51053911054911014750
310
1904A000000000000125013747454E545241434F2C454E552C302C5354414E444152442C47454E54524154582C25732C2847454E4D53472067656E64776720323138294049012028426A0AA22A924A0A62028426A0AA22A924A0A62028EA0320B41A19999999B9A2A026E8E8A9CA8A482869E588A9CAA5860589A82A88AA49
310
28298588E8A9CA8A482A8B0584AE658508E8A9C9AA68E40CECADCC8EECE406464625280D202405044E4F5445405044E4F54454051D40641A80000000000003E404CD1D15395149050D3CB1153954B0C0B1393D5114B11D15395149055160B095CCB0A11D1539354D1C819D95B991DD9C80C8C8D4A501A40480A0CAC8A9C889
310
EA480A0CAC8A9C889EA480A3A80C83D00000000000007C809AA3A2A72A2920A1A79622A72A9618162B22A72227A91623A2A72A2920AA2C1612B9961423A2A726A9A39033B2B7323BB39019191A14A0348090141911154D0D48C90143511154D0D49254151253D3880C90147501908A000000000020145013B47454E5452414
310
34F2C454E552C302C4445534352495054494F4E20322C47454E54524154582C25732C2847454E4D53472067656E6477672033362940490120284A9AA20A72220A922192028529AA20A72220A92210192028EA03213400000000000024A02728E8A9CA8A482869E588A9CAA586058A6A8829C8882A4884064588E8A9CA8A482
310
A8B0584AE658508E8A9C9AA68E40CECADCC8EECE4064646052809202405094D4154455249414C324050A4D4154455249414C20324051D40642A834333333337345404E11D15395149050D3CB1153954B0C0B1350551154925053080C8B11D15395149055160B095CCB0A11D1539354D1C819D95B991DD9C80D0C0A50124048
310
0A089A82A6A680A089A82A6A680A3A80A0485A068100000000000007C809923A2A72A2920A1A79622A72A96181626A0A9A99623A2A72A2920AA2C1612B9961423A2A726A9A39033B2B7323BB3901A1914A0221C7AA2A8B254A082A4A8749A82A6A6809014154149250D15014154149250D1501475014090C40902000000000
310
0000F9013347454E545241434F2C454E552C302C50524943452C47454E54524154582C25732C2847454E4D53472067656E6477672034332940490120281A224A6A0285A6A2A0A9AAA922A6A2A72A2028EA028121A81A0466E6666666661FA02728E8A9CA8A482869E588A9CAA5860589A8A82A6AAA48A9A8A9CA8588E8A9CA
310
8A482A8B0584AE658508E8A9C9AA68E40CECADCC8EECE406868528092024050E44102000000000000061011E0040600000000000010900000000000000424041CF4F125511534F90140600000000000010900000000000000424041CF4F125511534F9014060000000000000E100000000000000384041CF4F125511534F90
310
14060000000000000E100000000000000384041CF4F125511534F90140A404000000000000424000000000000010901073D3C4954454D3E405063D3C5154593E405018000000000000424000000000000010901073D3C4954454D3E4064040000000000000042400000000000001090000000000000008202068220681A048
310
120280C882148448820348520348452028521485214814000000000000F0BF0000000000003C2FD01409073373333333333B0FCCDCCCCCCCCCCEC3F0000000000000210320341A405024150741A406800000000000010808120480A026280A02
340
0
340
0
 94
        0
  0
ACAD_PROXY_OBJECT
  5
427
330
41F
100
AcDbProxyObject
 90
      499
 91
      587
 95
   851991
 70
     0
 93
      960
310
570000000000000018404BCF511155105253080F11115510525317D3105091530F971414D0D05311480F11115510525317D05094D4D0D053114F92341C9A9999999999B93F26A666666666724FC000000000000E03F40000000000000040000000000000051000000000000002440478B81E85EB51B8CE3F0A
340
34B
340
420
 94
        0
  0
ACAD_PROXY_OBJECT
  5
428
330
41F
100
AcDbProxyObject
 90
      499
 91
      588
 95
   851991
 70
     0
 93
      745
310
5700300000000000003080999EA9A2A1AA24A7A7101E29A2A1AA24A7A72FA620A122A62FA324A929AA1F169E29A2A1AA24A7A72FA620A122A62FA620A9AA1F1353333333333B27EFF41C8823C4D4CCCCCCCCCEC9FC5C0F42F5A8DC671FC0
340
34B
340
420
 94
        0
  0
ACAD_PROXY_OBJECT
  5
429
330
41F
100
AcDbProxyObject
 90
      499
 91
      589
 95
   851991
 70
     0
 93
      279
310
570FA5C6DC5FEB20F4009CC422B071681900273108AC1C5A0640A3D0A5723F0BD1F204
 94
        0
  0
ACAD_PROXY_OBJECT
  5
42A
330
41F
100
AcDbProxyObject
 90
      499
 91
      590
 95
   851991
 70
     0
 93
       14
310
5727
340
0
 94
        0
  0
ACAD_PROXY_OBJECT
  5
42B
330
41F
100
AcDbProxyObject
 90
      499
 91
      591
 95
   851991
 70
     0
 93
     5922
310
571084050B90142A405024050A54656D706C6174652031405EA3D3C696628657175616C28486F6C653A7461707065642C223022292C222525632220486F6C653A6469612C20486F6C653A6E6F6D696E616C2022202220696628657175616C28486F6C653A756E6974732C223122292C2278222C222D22292022202220486F6
310
C653A706974636864657363293E207B5C46414D4744543B787D203C696628657175616C28486F6C653A7465726D696E6174696F6E2C223022292C486F6C653A64657074682C225448525522293E5C507B5C46414D4744543B767D2525633C486F6C653A63746469613E207B5C46414D4744543B787D203C486F6C653A63746
310
4657074683E406405034050A54656D706C6174652031405E33D3C696628657175616C28486F6C653A7461707065642C223022292C222525632220486F6C653A6469612C20486F6C653A6E6F6D696E616C2022202220696628657175616C28486F6C653A756E6974732C223122292C2278222C222D22292022202220486F6C6
310
53A706974636864657363293E207B5C46414D4744543B787D203C696628657175616C28486F6C653A7465726D696E6174696F6E2C223022292C486F6C653A64657074682C225448525522293E5C507B5C46414D4744543B777D2525633C486F6C653A63746469613E2058203C486F6C653A6374616E676C653E25256440640
310
5014050A54656D706C6174652031405B43D3C696628657175616C28486F6C653A7461707065642C223022292C222525632220486F6C653A6469612C20486F6C653A6E6F6D696E616C2022202220696628657175616C28486F6C653A756E6974732C223122292C2278222C222D22292022202220486F6C653A7069746368646
310
57363293E5C507B5C46414D4744543B787D203C696628657175616C28486F6C653A7465726D696E6174696F6E2C223022292C486F6C653A64657074682C225448525522293E4064051E4050A54656D706C61746520314050C3D3C535444503A444553433E40640515A90
 94
        0
  0
ACAD_PROXY_OBJECT
  5
42F
330
41F
100
AcDbProxyObject
 90
      499
 91
      576
 95
   851991
 70
     0
 93
       20
310
571018
340
3F1
 94
        0
  0
ACAD_PROXY_OBJECT
  5
430
330
41F
100
AcDbProxyObject
 90
      499
 91
      577
 95
   851991
 70
     0
 93
      250
310
571020000000000000A1000000000000002440408F0F9023C3E409A0DCFFFFA0
340
431
340
0
340
0
340
432
340
433
340
0
340
434
340
435
340
436
340
0
 94
        0
  0
ACAD_PROXY_OBJECT
  5
437
330
41F
100
AcDbProxyObject
 90
      499
 91
      592
 95
   851991
 70
     0
 93
    13361
310
5711A023FFFFFFFD01030000000000000000021000901030000000000000000021000805134C697374206F6620436F6F7264696E61746573015091D15395149050D3CB1153954B0C0B131A5CDD081BD98810DBDBDC991A5B985D195CCB11D15395149055160B095CCB0A11D1539354D1C819D95B991A5B5E880CCC0A78000C
310
0000000000000000000000000000000100000000000002101024000000000000084040A0142921BDB19481518589B194053947454E545241434F2C454E552C302C486F6C65205461626C652C47454E54524154582C25732C2847454E4D53472067656E64696D7A20333129E000300000000000000000000000000000000400
310
00000000000840409000000000000021010290B4410F4450240D04415014391244D05449074510C4350F00014193DC9A59DA5B8053447454E545241434F2C454E552C302C4F726967696E2C47454E54524154582C25732C2847454E4D53472067656E64696D7A2031290001010500221400028327B934B3B4B700A688E8A9C
310
A8A482869E588A9CAA5860589EE4D2CED2DC588E8A9CA8A482A8B0584AE658508E8A9C9AA68E40CECADCC8D2DAF4406252000202080043E8000504486F6C65014C91D15395149050D3CB1153954B0C0B121BDB194B11D15395149055160B095CCB0A11D1539354D1C819D95B991A5B5E880C8A405163D3C486F6C654974656
310
D3E3C486F6C65496E6465783E010104002234000280AC00A5E8E8A9CA8A482869E588A9CAA586058B0588E8A9CA8A482A8B0584AE658508E8A9C9AA68E40CECADCC8D2DAF4406652000202000040A800050159014BD1D15395149050D3CB1153954B0C0B164B11D15395149055160B095CCB0A11D1539354D1C819D95B991A
310
5B5E880D0A4000404000081D0000A02E40297A3A2A72A2920A1A79622A72A961816391623A2A72A2920AA2C1612B9961423A2A726A9A39033B2B73234B6BD101B148000808000104A000141D7154ACC0D0D0D0053547454E545241434F2C454E552C302C5C552B303434342C47454E54524154582C25732C2847454E4D5347
310
2067656E64696D7A203729000101030020B400028224BA32B680A668E8A9CA8A482869E588A9CAA58605892E8CADA588E8A9CA8A482A8B0584AE658508E8A9C9AA68E40CECADCC8D2DAF4406268520002020A004068000505496E646578014D11D15395149050D3CB1153954B0C0B125B99195E0B11D15395149055160B095
310
CCB0A11D1539354D1C819D95B991A5B5E880C4D4A400040414008750000A0890DED8CA0299A3A2A72A2920A1A79622A72A9618162437B6329623A2A72A2920AA2C1612B9961423A2A726A9A39033B2B73234B6BD10189B148000808200112A000142921BDB1948125B99195E0053947454E545241434F2C454E552C302C486
310
F6C6520496E6465782C47454E54524154582C25732C2847454E4D53472067656E64696D7A20313729000101050022740002819292B180A628E8A9CA8A482869E588A9CAA5860584A4AC6588E8A9CA8A482A8B0584AE658508E8A9C9AA68E40CECADCC8D2DAF4407052000202020041E8000503517479014C91D15395149050
310
D3CB1153954B0C0B145D1E4B11D15395149055160B095CCB0A11D1539354D1C819D95B991A5B5E880C4E4A400040418008A50000A1688CAE6C6E4D2E0E8D2DEDC029D23A2A72A2920A1A79622A72A9618162232B9B1B934B83A34B7B71623A2A72A2920AA2C1612B9961423A2A726A9A39033B2B73234B6BD1019181480008
310
0020010CA00014214DD185B99185C990053747454E545241434F2C454E552C302C5374616E646172642C47454E54524154582C25732C2847454E4D53472067656E64696D7A20323129000100040021B4878000000000000007281000000000000000D102060000000000001A20404000000000000344080800000000000068
310
81020000000000000D102040000000000001A2040000000000000024408000000000000006881000000000000000D102000000000000001A2040C0000000000003940818000000000000508103000000000000125020600000000004028A050F000000000000000E502000000000000001A2040C0000000000003440818000
310
0000000006881030000000000000D102060000000000001A2040C00000000000034408000000000000004881000000000000000D102060000000000001A2040000000000000034408180000000000007281030000000000000A1020600000000000024A040C0000000000805140A088800000021E000000890000002260000
310
008220E000200890000002060002008100008000
340
0
340
0
340
0
340
0
 94
        0
  0
ACAD_PROXY_OBJECT
  5
438
330
41F
100
AcDbProxyObject
 90
      499
 91
      579
 95
   851991
 70
     0
 93
     5542
310
5719741105394D2506414E53495F4342905394D257D512551554D15414E53495F54525F5265766973696F6E6C697374614191143202831372E307832322E30696E63682941905394D257D0D1146202832382E307834302E30696E63682941905394D257D191142202831312E307831372E30696E63682941905394D257D091
310
144202832322E307833342E30696E63682941905394D257D111145202833342E307834342E30696E63682941905394D257D1510412028382E357831312E30696E63682941905394D257D0505439554C8151A5D1B1948109B1BD8DAD0A414E53495F544954555344D05B9CDA48151A5D1B1948109B1BD8DAC81110D0C414E53
310
495F5449544C45444344D05B9CDA48151A5D1B1948109B1BD8DAC81050D0C414E53495F5449544C45414344905B9CDA48151A5D1B1948109B1BD8DAC81050B414E53495F5449544C454144905B9CDA48151A5D1B1948109B1BD8DAC81110B414E53495F5449544C4544421125265766973696F6E6C69737420415F42525F45
310
505394D257D09497D4995D9A5CDA5BDB9B1A5CDD185125265766973696F6E6C69737420415F54525F45505394D257D51497D4995D9A5CDA5BDB9B1A5CDD185125265766973696F6E6C69737420445F42525F45505394D257D09497D4995D9A5CDA5BDB9B1A5CDD191125265766973696F6E6C69737420445F54525F4550539
310
4D257D51497D4995D9A5CDA5BDB9B1A5CDD191125265766973696F6E6C69737420415F424C5F45505394D257D09317D4995D9A5CDA5BDB9B1A5CDD185125265766973696F6E6C69737420415F544C5F45505394D257D51317D4995D9A5CDA5BDB9B1A5CDD185125265766973696F6E6C69737420445F424C5F45505394D257
310
D09317D4995D9A5CDA5BDB9B1A5CDD191125265766973696F6E6C69737420445F544C5F45505394D257D51317D4995D9A5CDA5BDB9B1A5CDD193
 94
        0
  0
ACAD_PROXY_OBJECT
  5
3FC
330
3F0
100
AcDbProxyObject
 90
      499
 91
      564
 95
   851991
 70
     0
 93
       12
310
5713
 94
        0
  0
ACAD_PROXY_OBJECT
  5
3FD
330
3F0
100
AcDbProxyObject
 90
      499
 91
      565
 95
   851991
 70
     0
 93
       96
310
572A0E80A0280A0280A0280F95
 94
        0
  0
ACAD_PROXY_OBJECT
  5
3FE
330
3F0
100
AcDbProxyObject
 90
      499
 91
      566
 95
   851991
 70
     0
 93
      272
310
5710E4050140501405014050140501405014050140D01405012C000000000000004077
340
408
 94
        0
  0
ACAD_PROXY_OBJECT
  5
3FF
330
3F0
100
AcDbProxyObject
 90
      499
 91
      567
 95
   851991
 70
     0
 93
      496
310
5728666666666667A67E199999999999E99FD224050140501405014050140501405014050140501405014050140501405014050140501405014050140501D1
340
409
 94
        0
  0
ACAD_PROXY_OBJECT
  5
400
330
3F0
100
AcDbProxyObject
 90
      499
 91
      568
 95
   851991
 70
     0
 93
       10
310
5703
 94
        0
  0
ACAD_PROXY_OBJECT
  5
401
330
3F0
100
AcDbProxyObject
 90
      499
 91
      569
 95
   851991
 70
     0
 93
      223
310
572290EA22A7D90F49F8000000000000108140000000000000420204
340
40A
340
40B
 94
        0
  0
ACAD_PROXY_OBJECT
  5
402
330
3F0
100
AcDbProxyObject
 90
      499
 91
      570
 95
   851991
 70
     0
 93
    12949
310
5710E411255115350141125D195B50140501406901000000000000091013347454E545241434F2C454E552C302C4974656D2C47454E54524154582C25732C2847454E4D53472067656E647767203232322940690120281A8AA2CA0281A8BA3CA028120280A0320200000000000012202648E8A9CA8A482869E588A9CAA5860
310
58A2E8F2588E8A9CA8A482A8B0584AE658508E8A9C9AA68E40CECADCC8EECE406464665280D202405044E414D45405044E616D654051C40640A80000000000004E404CD1D15395149050D3CB1153954B0C0B13985B594B11D15395149055160B095CCB0A11D1539354D1C819D95B991DD9C80C8C8D8A50190A3D504152543A
310
4E414D4540480A0A888AA686A480A1688CAE6C6E4D2E0E8D2DEDC80A3A80C81D0000000000100A2809D23A2A72A2920A1A79622A72A9618162232B9B1B934B83A34B7B71623A2A72A2920AA2C1612B9961423A2A726A9A39033B2B7323BB39019189B94A034809014214D51053911054911014214DD185B99185C991014750
310
1904A000000000000125013747454E545241434F2C454E552C302C5374616E646172642C47454E54524154582C25732C2847454E4D53472067656E64776720323138294069012028426A0AA22A924A0A62028426B0BA32B934B0B62028EA0320B40000000000001CA026E8E8A9CA8A482869E588A9CAA5860589AC2E8CAE4D
310
2C2D8588E8A9CA8A482A8B0584AE658508E8A9C9AA68E40CECADCC8EECE406464625280D202405044E4F5445405044E6F74654051D40641A80000000000003E404CD1D15395149050D3CB1153954B0C0B139BDD194B11D15395149055160B095CCB0A11D1539354D1C819D95B991DD9C80C8C8D4A501240480A0CAC8A9C889
310
EA480A0CACCADCC8DEE480A3A80C83D00000000000007C809AA3A2A72A2920A1A79622A72A9618162B32B73237B91623A2A72A2920AA2C1612B9961423A2A726A9A39033B2B7323BB39019191A14A0248090141911154D0D48C9014351195CD8DC9A5C1D1A5BDB880C90147501908A000000000020145013B47454E5452414
310
34F2C454E552C302C4465736372697074696F6E20322C47454E54524154582C25732C2847454E4D53472067656E6477672033362940490120284A9AA20A72220A922192028529BA30B73230B93210192028EA03213400000000000024A02728E8A9CA8A482869E588A9CAA586058A6E8C2DCC8C2E4C84064588E8A9CA8A482
310
A8B0584AE658508E8A9C9AA68E40CECADCC8EECE4064646052809202405094D4154455249414C324050A4D6174657269616C20324051D40642A8713D0AD7A37045404E11D15395149050D3CB1153954B0C0B13585D195C9A585B080C8B11D15395149055160B095CCB0A11D1539354D1C819D95B991DD9C80D0C0A50124048
310
0A089A82A6A680A089AC2E6E680A3A80A0485A068100000000000007C809923A2A72A2920A1A79622A72A96181626B0B9B99623A2A72A2920AA2C1612B9961423A2A726A9A39033B2B7323BB3901A1914A0221C7AA2A8B254A082A4A8749A82A6A6809014154149250D150141541C9A58D9501475014090C40902000000000
310
0000F9013347454E545241434F2C454E552C302C50726963652C47454E54524154582C25732C2847454E4D53472067656E6477672034332940490120281A224A6A0285A6B2B0B9BAB932B6B2B73A2028EA028121A81A040000000000001F202728E8A9CA8A482869E588A9CAA5860589ACAC2E6EAE4CADACADCE8588E8A9CA
310
8A482A8B0584AE658508E8A9C9AA68E40CECADCC8EECE406868528092024050E445020000000000000510107004060000000000000F9000000000000003E4041CF4F125511534F9014060000000000000F9000000000000003E4041CF4F125511534F9014060000000000000D100000000000000344041CF4F125511534F90
310
14060000000000000D100000000000000344041CF4F125511534F90140A4040000000000003E400000000000000F901073D3C4954454D3E405063D3C5154593E4050180000000000003E400000000000000F901073D3C4954454D3E406404000000000000003E400000000000000F90000000000000008202068220681A048
310
120280C882148448820348520348452028521485214814000000000000F0BF0000000000003C2FD01409073373333333333B0FCCDCCCCCCCCCCEC3F000000000000031012034164050341105901A0000000000000620204812028098A02808
340
0
340
0
 94
        0
  0
ACAD_PROXY_OBJECT
  5
403
330
3F0
100
AcDbProxyObject
 90
      499
 91
      571
 95
   851991
 70
     0
 93
      864
310
5704000000000000144048CF4F11115510525317D3105091530F880A0F11115510525317D05094D4D0D053114F8A51141C9A9999999999B93F26A666666666724FC000000000000E03F4000000000000004000000000000005100000000000000244041C000000000000144000
340
16
340
3FB
 94
        0
  0
ACAD_PROXY_OBJECT
  5
404
330
3F0
100
AcDbProxyObject
 90
      499
 91
      572
 95
   851991
 70
     0
 93
      745
310
5700B00000000000002880959E9E29A2A1AA24A7A72FA620A122A62FA324A929AA1F169E29A2A1AA24A7A72FA620A122A62FA620A9AA1F00000000000004880FF41C88A0E0000000000001220000000000000028800000000000000A2000
340
C5
340
3FB
 94
        0
  0
ACAD_PROXY_OBJECT
  5
405
330
3F0
100
AcDbProxyObject
 90
      499
 91
      573
 95
   851991
 70
     0
 93
      151
310
57280000000000000840A3D0A5723F0BD1F200
 94
        0
  0
ACAD_PROXY_OBJECT
  5
406
330
3F0
100
AcDbProxyObject
 90
      499
 91
      574
 95
   851991
 70
     0
 93
       14
310
5723
340
0
 94
        0
  0
ACAD_PROXY_OBJECT
  5
407
330
3F0
100
AcDbProxyObject
 90
      499
 91
      575
 95
   851991
 70
     0
 93
     5794
310
571084050B90142A405024050A54656D706C6174652031405DC3D2525633C486F6C653A63746469613E2078203C486F6C653A637464657074683E20555C503C696628657175616C28486F6C653A7461707065642C223022292C222525632220486F6C653A6469612C20486F6C653A6E6F6D696E616C20222078202220486F6
310
C653A70697463686465736320696628657175616C28486F6C653A7461707065642C223122292C222078202220486F6C653A74617064657074682C222229293E203C696628657175616C28486F6C653A7465726D696E6174696F6E2C223022292C22202F202220486F6C653A64657074682C222022293E406405034050A5465
310
6D706C6174652031405DD3D2525633C486F6C653A63746469613E2078203C486F6C653A6374616E676C653E2525645C503C696628657175616C28486F6C653A7461707065642C223022292C222525632220486F6C653A6469612C20486F6C653A6E6F6D696E616C20222078202220486F6C653A70697463686465736320696
310
628657175616C28486F6C653A7461707065642C223122292C222078202220486F6C653A74617064657074682C222229293E203C696628657175616C28486F6C653A7465726D696E6174696F6E2C223022292C22202F202220486F6C653A64657074682C222022293E406405014050A54656D706C6174652031405B83D3C696
310
628657175616C28486F6C653A7461707065642C223022292C222525632220486F6C653A6469612C20486F6C653A6E6F6D696E616C20222078202220486F6C653A70697463686465736320696628657175616C28486F6C653A7461707065642C223122292C222078202220486F6C653A74617064657074682C222229293E203
310
C696628657175616C28486F6C653A7465726D696E6174696F6E2C223022292C22202F202220486F6C653A64657074682C222022293E4064051E4050A54656D706C61746520314050C3D3C535444503A444553433E40640515A89
 94
        0
  0
ACAD_PROXY_OBJECT
  5
40D
330
3F0
100
AcDbProxyObject
 90
      499
 91
      576
 95
   851991
 70
     0
 93
       20
310
571018
340
3F1
 94
        0
  0
ACAD_PROXY_OBJECT
  5
40E
330
3F0
100
AcDbProxyObject
 90
      499
 91
      577
 95
   851991
 70
     0
 93
      250
310
571020000000000000A1000000000000002440408F0F9023C3E409A0DCFFFF98
340
40F
340
0
340
0
340
410
340
411
340
412
340
413
340
414
340
419
340
0
 94
        0
  0
ACAD_PROXY_OBJECT
  5
41A
330
3F0
100
AcDbProxyObject
 90
      499
 91
      578
 95
   851991
 70
     0
 93
    13707
310
5711A003FFFFFFFD03030003000000000000031000903030003000000000000031000805134C697374206F6620436F6F7264696E61746573015091D15395149050D3CB1153954B0C0B131A5CDD081BD98810DBDBDC991A5B985D195CCB11D15395149055160B095CCB0A11D1539354D1C819D95B991A5B5E880CCC0A78000C
310
00000000000000000000000000000001000000000000031010240000000000000C4040A0142921BDB19481518589B194053947454E545241434F2C454E552C302C486F6C65205461626C652C47454E54524154582C25732C2847454E4D53472067656E64696D7A20333129E000300000000000000000000000000000000400
310
00000000000C40409000000000000031010290D44111409034110541D0C4350F4050E44D03449074510F00014193DC9A59DA5B8053447454E545241434F2C454E552C302C4F726967696E2C47454E54524154582C25732C2847454E4D53472067656E64696D7A203129000101050022140002822437B63280A648E8A9CA8A4
310
82869E588A9CAA58605890DED8CA588E8A9CA8A482A8B0584AE658508E8A9C9AA68E40CECADCC8D2DAF4406452029F9E9E27B934B3B4B71F1E24A31427A91424A9A12620A7259427B934B3B4B7149624A9A12620A7259424B73232BC149496111116111711149F1E24B73232BC1F00808200111A000140560052F47454E545
310
241434F2C454E552C302C582C47454E54524154582C25732C2847454E4D53472067656E64696D7A20332900010100002054000280AC80A5E8E8A9CA8A482869E588A9CAA586058B2588E8A9CA8A482A8B0584AE658508E8A9C9AA68E40CECADCC8D2DAF4406852000202000040E800050172014BD1D15395149050D3CB1153
310
954B0C0B1C8B11D15395149055160B095CCB0A11D1539354D1C819D95B991A5B5E880D8A400040400008250000A0EB8AA5660686868029AA3A2A72A2920A1A79622A72A9618162E2A95981A1A1A1623A2A72A2920AA2C1612B9961423A2A726A9A39033B2B73234B6BD101B948000808180105A000140C94958C053147454E
310
545241434F2C454E552C302C2525632C47454E54524154582C25732C2847454E4D53472067656E64696D7A203829000101010020F4000285A232B9B1B934B83A34B7B700A748E8A9CA8A482869E588A9CAA58605888CAE6C6E4D2E0E8D2DEDC588E8A9CA8A482A8B0584AE658508E8A9C9AA68E40CECADCC8D2DAF44064605
310
2000200080043280005085374616E64617264014DD1D15395149050D3CB1153954B0C0B14DD185B99185C990B11D15395149055160B095CCB0A11D1539354D1C819D95B991A5B5E880C8C4A4000400100086D0000A0C9EE4D2CED2DC029A23A2A72A2920A1A79622A72A96181627B934B3B4B71623A2A72A2920AA2C1612B9
310
961423A2A726A9A39033B2B73234B6BD10189480A026202020A0043E80005044974656D014CD1D15395149050D3CB1153954B0C0B125D195B4B11D15395149055160B095CCB0A11D1539354D1C819D95B991A5B5E880C4D0A4000404140080D0000A0A92DCC8CAF0029A23A2A72A2920A1A79622A72A96181624B73232BC16
310
23A2A72A2920AA2C1612B9961423A2A726A9A39033B2B73234B6BD10189A94800080828010EA000142921BDB1948125B99195E0053947454E545241434F2C454E552C302C486F6C6520496E6465782C47454E54524154582C25732C2847454E4D53472067656E64696D7A20313729000101050022740002822437B63280A66
310
8E8A9CA8A482869E588A9CAA58605890DED8CA588E8A9CA8A482A8B0584AE658508E8A9C9AA68E40CECADCC8D2DAF440626C52000202080044A8000503517479014C91D15395149050D3CB1153954B0C0B145D1E4B11D15395149055160B095CCB0A11D1539354D1C819D95B991A5B5E880C4E4A400040418008A521E00000
310
0000000001CA040C00000000000034408080000000000006881010000000000000D102040000000000001A204080000000000003440818000000000000728103000000000000125020600000000004028A040000000000000034408000000000000004881000000000000000D102000000000000001A204000000000000003
310
440818000000000000508143C0000000000000039408180000000000006881030000000000000D102060000000000001A2040C00000000000034408180000000000006881030000000000000E5020600000000000024A040C000000000080514080000000000000068810000000000000009102000000000000001A2040000
310
000000000034408180000000000006881030000000000000A10283A2000000087800000204000000818000002080000008280000020E00000080A240000000
340
0
340
0
340
0
340
0
 94
        0
  0
ACAD_PROXY_OBJECT
  5
41B
330
3F0
100
AcDbProxyObject
 90
      499
 91
      579
 95
   851991
 70
     0
 93
     7162
310
5719740D254D3D0649534F5F4133429254D3D7D5125513115051349534F5F42525F5265766973696F6E6C69737446111413478342028323937783834316D6D2920421254D3D7D04D1E0D11141327835202835393478323130326D6D29421254D3D7D04C9E0D51141347839202832393778313839326D6D29421254D3D7D04D
310
1E0E51141337837202834323078323038306D6D29421254D3D7D04CDE0DD1141347838202832393778313638326D6D29421254D3D7D04D1E0E11141327834202835393478313638326D6D29421254D3D7D04C9E0D10E41312028353934783834316D6D29419254D3D7D04C51141347837202832393778313437316D6D29421
310
254D3D7D04D1E0DD1141347836202832393778313236316D6D29421254D3D7D04D1E0D91141347835202832393778313035316D6D29421254D3D7D04D1E0D5104130202838343078313138396D6D2920419254D3D7D04C10E41332028323937783432306D6D29419254D3D7D04CD1141327833202835393478313236316D6D
310
29421254D3D7D04C9E0CD10413478332028323937783633306D6D29421254D3D7D04D1E0CD1141337834202834323078313138396D6D29421254D3D7D04CDE0D11141337836202834323078313738336D6D29421254D3D7D04CDE0D91141337835202834323078313438366D6D29421254D3D7D04CDE0D50E4132202834323
310
0783539346D6D29419254D3D7D04C910413378332028343230783839316D6D29421254D3D7D04CDE0CD0E41342028323937783231306D6D29419254D3D7D04D1124130783220283131383978313638326D6D29421254D3D7D04C1E0C9124130783320283131383978323532336D6D29421254D3D7D04C1E0CD114131783420
310
2838343178323337386D6D29421254D3D7D04C5E0D11141317833202838343178313738336D6D29421254D3D7D04C5E0CD02445254D3C8151A5D1B1948109B1BD8DAC81050A49534F5F5449544C4541445254D3C8151A5D1B1948109B1BD8DAC81090A49534F5F5449544C4542411105265766973696F6E6C6973745F424C5
310
F44D254D3D7D09317D4995D9A5CDA5BDB9B1A5CDD1105265766973696F6E6C6973745F544C5F44D254D3D7D51317D4995D9A5CDA5BDB9B1A5CDD1105265766973696F6E6C6973745F42525F44D254D3D7D09497D4995D9A5CDA5BDB9B1A5CDD1105265766973696F6E6C6973745F54525F44D254D3D7D51497D4995D9A5CDA
310
5BDB9B1A5CDD32
 94
        0
  0
ENDSEC
  0
EOF
